  0
SECTION
  2
HEADER
  9
$ACADVER
  1
AC1015
  9
$ACADMAINTVER
 70
    14
  9
$DWGCODEPAGE
  3
ANSI_932
  9
$INSBASE
 10
0.0
 20
0.0
 30
0.0
  9
$EXTMIN
 10
245.4727494715161
 20
55.29419049538467
 30
-0.0000000349181948
  9
$EXTMAX
 10
542.5361951707584
 20
265.3390510908084
 30
0.0000000814935747
  9
$LIMMIN
 10
0.0
 20
0.0
  9
$LIMMAX
 10
594.0
 20
420.0
  9
$ORTHOMODE
 70
     0
  9
$REGENMODE
 70
     1
  9
$FILLMODE
 70
     1
  9
$QTEXTMODE
 70
     0
  9
$MIRRTEXT
 70
     1
  9
$LTSCALE
 40
10.0
  9
$ATTMODE
 70
     1
  9
$TEXTSIZE
 40
3.0
  9
$TRACEWID
 40
0.05
  9
$TEXTSTYLE
  7
STANDARD
  9
$CLAYER
  8
dim
  9
$CELTYPE
  6
ByLayer
  9
$CECOLOR
 62
   256
  9
$CELTSCALE
 40
1.0
  9
$DISPSILH
 70
     0
  9
$DIMSCALE
 40
1.0
  9
$DIMASZ
 40
3.0
  9
$DIMEXO
 40
0.5
  9
$DIMDLI
 40
4.0
  9
$DIMRND
 40
0.0
  9
$DIMDLE
 40
0.0
  9
$DIMEXE
 40
1.0
  9
$DIMTP
 40
0.0
  9
$DIMTM
 40
0.0
  9
$DIMTXT
 40
3.0
  9
$DIMCEN
 40
0.0
  9
$DIMTSZ
 40
0.0
  9
$DIMTOL
 70
     0
  9
$DIMLIM
 70
     0
  9
$DIMTIH
 70
     0
  9
$DIMTOH
 70
     0
  9
$DIMSE1
 70
     0
  9
$DIMSE2
 70
     0
  9
$DIMTAD
 70
     1
  9
$DIMZIN
 70
     9
  9
$DIMBLK
  1

  9
$DIMASO
 70
     1
  9
$DIMSHO
 70
     1
  9
$DIMPOST
  1

  9
$DIMAPOST
  1

  9
$DIMALT
 70
     0
  9
$DIMALTD
 70
     4
  9
$DIMALTF
 40
0.0394
  9
$DIMLFAC
 40
1.0
  9
$DIMTOFL
 70
     0
  9
$DIMTVP
 40
0.0
  9
$DIMTIX
 70
     0
  9
$DIMSOXD
 70
     0
  9
$DIMSAH
 70
     1
  9
$DIMBLK1
  1
OPEN
  9
$DIMBLK2
  1
OPEN
  9
$DIMSTYLE
  2
STD01
  9
$DIMCLRD
 70
     7
  9
$DIMCLRE
 70
     7
  9
$DIMCLRT
 70
     0
  9
$DIMTFAC
 40
1.0
  9
$DIMGAP
 40
0.5
  9
$DIMJUST
 70
     0
  9
$DIMSD1
 70
     0
  9
$DIMSD2
 70
     0
  9
$DIMTOLJ
 70
     1
  9
$DIMTZIN
 70
     9
  9
$DIMALTZ
 70
     0
  9
$DIMALTTZ
 70
     0
  9
$DIMUPT
 70
     0
  9
$DIMDEC
 70
     3
  9
$DIMTDEC
 70
     3
  9
$DIMALTU
 70
     8
  9
$DIMALTTD
 70
     4
  9
$DIMTXSTY
  7
STANDARD
  9
$DIMAUNIT
 70
     0
  9
$DIMADEC
 70
     3
  9
$DIMALTRND
 40
0.0
  9
$DIMAZIN
 70
     2
  9
$DIMDSEP
 70
    46
  9
$DIMATFIT
 70
     3
  9
$DIMFRAC
 70
     0
  9
$DIMLDRBLK
  1
OPEN
  9
$DIMLUNIT
 70
     2
  9
$DIMLWD
 70
    -2
  9
$DIMLWE
 70
    -2
  9
$DIMTMOVE
 70
     0
  9
$LUNITS
 70
     2
  9
$LUPREC
 70
     4
  9
$SKETCHINC
 40
0.1
  9
$FILLETRAD
 40
0.0
  9
$AUNITS
 70
     0
  9
$AUPREC
 70
     0
  9
$MENU
  1
acad
  9
$ELEVATION
 40
0.0
  9
$PELEVATION
 40
0.0
  9
$THICKNESS
 40
0.0
  9
$LIMCHECK
 70
     0
  9
$CHAMFERA
 40
0.0
  9
$CHAMFERB
 40
0.0
  9
$CHAMFERC
 40
0.0
  9
$CHAMFERD
 40
0.0
  9
$SKPOLY
 70
     0
  9
$TDCREATE
 40
2444975.375000000
  9
$TDUCREATE
 40
2444974.999999999
  9
$TDUPDATE
 40
2455742.444824028
  9
$TDUUPDATE
 40
2455742.069824027
  9
$TDINDWG
 40
0.0821152894
  9
$TDUSRTIMER
 40
0.0821151042
  9
$USRTIMER
 70
     1
  9
$ANGBASE
 50
0.0
  9
$ANGDIR
 70
     0
  9
$PDMODE
 70
     3
  9
$PDSIZE
 40
5.0
  9
$PLINEWID
 40
0.0
  9
$SPLFRAME
 70
     0
  9
$SPLINETYPE
 70
     6
  9
$SPLINESEGS
 70
     8
  9
$HANDSEED
  5
10286
  9
$SURFTAB1
 70
     6
  9
$SURFTAB2
 70
     6
  9
$SURFTYPE
 70
     6
  9
$SURFU
 70
     6
  9
$SURFV
 70
     6
  9
$UCSBASE
  2

  9
$UCSNAME
  2

  9
$UCSORG
 10
0.0
 20
0.0
 30
0.0
  9
$UCSXDIR
 10
1.0
 20
0.0
 30
0.0
  9
$UCSYDIR
 10
0.0
 20
1.0
 30
0.0
  9
$UCSORTHOREF
  2

  9
$UCSORTHOVIEW
 70
     0
  9
$UCSORGTOP
 10
0.0
 20
0.0
 30
0.0
  9
$UCSORGBOTTOM
 10
0.0
 20
0.0
 30
0.0
  9
$UCSORGLEFT
 10
0.0
 20
0.0
 30
0.0
  9
$UCSORGRIGHT
 10
0.0
 20
0.0
 30
0.0
  9
$UCSORGFRONT
 10
0.0
 20
0.0
 30
0.0
  9
$UCSORGBACK
 10
0.0
 20
0.0
 30
0.0
  9
$PUCSBASE
  2

  9
$PUCSNAME
  2

  9
$PUCSORG
 10
0.0
 20
0.0
 30
0.0
  9
$PUCSXDIR
 10
1.0
 20
0.0
 30
0.0
  9
$PUCSYDIR
 10
0.0
 20
1.0
 30
0.0
  9
$PUCSORTHOREF
  2

  9
$PUCSORTHOVIEW
 70
     0
  9
$PUCSORGTOP
 10
0.0
 20
0.0
 30
0.0
  9
$PUCSORGBOTTOM
 10
0.0
 20
0.0
 30
0.0
  9
$PUCSORGLEFT
 10
0.0
 20
0.0
 30
0.0
  9
$PUCSORGRIGHT
 10
0.0
 20
0.0
 30
0.0
  9
$PUCSORGFRONT
 10
0.0
 20
0.0
 30
0.0
  9
$PUCSORGBACK
 10
0.0
 20
0.0
 30
0.0
  9
$USERI1
 70
     0
  9
$USERI2
 70
     0
  9
$USERI3
 70
     0
  9
$USERI4
 70
     0
  9
$USERI5
 70
     0
  9
$USERR1
 40
0.0
  9
$USERR2
 40
0.0
  9
$USERR3
 40
0.0
  9
$USERR4
 40
0.0
  9
$USERR5
 40
0.0
  9
$WORLDVIEW
 70
     1
  9
$SHADEDGE
 70
     3
  9
$SHADEDIF
 70
    70
  9
$TILEMODE
 70
     1
  9
$MAXACTVP
 70
    16
  9
$PINSBASE
 10
0.0
 20
0.0
 30
0.0
  9
$PLIMCHECK
 70
     0
  9
$PEXTMIN
 10
0.0
 20
0.0
 30
0.0
  9
$PEXTMAX
 10
0.0
 20
0.0
 30
0.0
  9
$PLIMMIN
 10
0.0
 20
0.0
  9
$PLIMMAX
 10
12.0
 20
9.0
  9
$UNITMODE
 70
     0
  9
$VISRETAIN
 70
     0
  9
$PLINEGEN
 70
     1
  9
$PSLTSCALE
 70
     1
  9
$TREEDEPTH
 70
  3020
  9
$CMLSTYLE
  2
Standard
  9
$CMLJUST
 70
     0
  9
$CMLSCALE
 40
1.0
  9
$PROXYGRAPHICS
 70
     1
  9
$MEASUREMENT
 70
     0
  9
$CELWEIGHT
370
    -1
  9
$ENDCAPS
280
     0
  9
$JOINSTYLE
280
     0
  9
$LWDISPLAY
290
     0
  9
$INSUNITS
 70
     0
  9
$HYPERLINKBASE
  1

  9
$STYLESHEET
  1
monochrome.ctb
  9
$XEDIT
290
     1
  9
$CEPSNTYPE
380
     0
  9
$PSTYLEMODE
290
     1
  9
$FINGERPRINTGUID
  2
{72C665BA-4710-44A0-BD86-7A30422A2E57}
  9
$VERSIONGUID
  2
{DF621F16-EA57-4B95-994A-1D36D2B2DD29}
  9
$EXTNAMES
290
     1
  9
$PSVPSCALE
 40
0.0
  9
$OLESTARTUP
290
     0
  0
ENDSEC
  0
SECTION
  2
CLASSES
  0
CLASS
  1
ACDBDICTIONARYWDFLT
  2
AcDbDictionaryWithDefault
  3
AutoCAD 2000
 90
        0
280
     0
281
     0
  0
CLASS
  1
DIMASSOC
  2
AcDbDimAssoc
  3
"AcDbDimAssoc|Product Desc:     AcDim ARX App For Dimension|Company:          Autodesk, Inc.|WEB Address:      www.autodesk.com"
 90
        0
280
     0
281
     0
  0
CLASS
  1
DICTIONARYVAR
  2
AcDbDictionaryVar
  3
AutoCAD 2000
 90
        0
280
     0
281
     0
  0
CLASS
  1
ACDBPLACEHOLDER
  2
AcDbPlaceHolder
  3
AutoCAD 2000
 90
        0
280
     0
281
     0
  0
CLASS
  1
LAYOUT
  2
AcDbLayout
  3
AutoCAD 2000
 90
        0
280
     0
281
     0
  0
ENDSEC
  0
SECTION
  2
TABLES
  0
TABLE
  2
VPORT
  5
8
330
0
100
AcDbSymbolTable
 70
     7
  0
VPORT
  5
10285
330
8
100
AcDbSymbolTableRecord
100
AcDbViewportTableRecord
  2
*Active
 70
     0
 10
0.0
 20
0.0
 11
1.0
 21
1.0
 12
394.0044723211373
 22
160.3166207930965
 13
0.0
 23
0.0
 14
1.0
 24
1.0
 15
0.0
 25
0.0
 16
0.0
 26
0.0
 36
1.0
 17
0.0
 27
0.0
 37
0.0
 40
211.642159915541
 41
1.527918781725888
 42
50.0
 43
0.0
 44
0.0
 50
0.0
 51
0.0
 71
     0
 72
   100
 73
     1
 74
     1
 75
     0
 76
     0
 77
     0
 78
     0
281
     0
 65
     1
110
0.0
120
0.0
130
0.0
111
1.0
121
0.0
131
0.0
112
0.0
122
1.0
132
0.0
 79
     0
146
0.0
  0
ENDTAB
  0
TABLE
  2
LTYPE
  5
5
330
0
100
AcDbSymbolTable
 70
     9
  0
LTYPE
  5
13
330
5
100
AcDbSymbolTableRecord
100
AcDbLinetypeTableRecord
  2
ByBlock
 70
     0
  3

 72
    65
 73
     0
 40
0.0
  0
LTYPE
  5
14
330
5
100
AcDbSymbolTableRecord
100
AcDbLinetypeTableRecord
  2
ByLayer
 70
     0
  3

 72
    65
 73
     0
 40
0.0
  0
LTYPE
  5
15
330
5
100
AcDbSymbolTableRecord
100
AcDbLinetypeTableRecord
  2
CONTINUOUS
 70
     0
  3
Solid line
 72
    65
 73
     0
 40
0.0
  0
LTYPE
  5
FD12
330
5
100
AcDbSymbolTableRecord
100
AcDbLinetypeTableRecord
  2
BORDER
 70
     0
  3
Border __ __ _ __ __ _ __ __ _ __ __ _ __ __ _
 72
    65
 73
     6
 40
1.02
 49
0.36
 74
     0
 49
-0.08
 74
     0
 49
0.36
 74
     0
 49
-0.08
 74
     0
 49
0.06
 74
     0
 49
-0.08
 74
     0
  0
LTYPE
  5
FD13
330
5
100
AcDbSymbolTableRecord
100
AcDbLinetypeTableRecord
  2
CENTER
 70
     0
  3
Center ____ _ ____ _ ____ _ ____ _ ____ _ ____
 72
    65
 73
     4
 40
0.5800000000000001
 49
0.36
 74
     0
 49
-0.08
 74
     0
 49
0.06
 74
     0
 49
-0.08
 74
     0
  0
LTYPE
  5
FD14
330
5
100
AcDbSymbolTableRecord
100
AcDbLinetypeTableRecord
  2
DASHDOT
 70
     0
  3
Dash dot ____ _ ____ _ ____ _ ____ _ ____ _ ___
 72
    65
 73
     4
 40
0.5800000000000001
 49
0.36
 74
     0
 49
-0.08
 74
     0
 49
0.06
 74
     0
 49
-0.08
 74
     0
  0
LTYPE
  5
FD15
330
5
100
AcDbSymbolTableRecord
100
AcDbLinetypeTableRecord
  2
DASHED
 70
     0
  3
Dashed __ __ __ __ __ __ __ __ __ __ __ __ __ _
 72
    65
 73
     2
 40
0.3
 49
0.2
 74
     0
 49
-0.1
 74
     0
  0
LTYPE
  5
FD16
330
5
100
AcDbSymbolTableRecord
100
AcDbLinetypeTableRecord
  2
DIVIDE
 70
     0
  3
Divide ______  __  __  ______  __  __  ______
 72
    65
 73
     6
 40
0.72
 49
0.36
 74
     0
 49
-0.08
 74
     0
 49
0.06
 74
     0
 49
-0.08
 74
     0
 49
0.06
 74
     0
 49
-0.08
 74
     0
  0
LTYPE
  5
FD17
330
5
100
AcDbSymbolTableRecord
100
AcDbLinetypeTableRecord
  2
DOT
 70
     0
  3
Dot __ __ __ __ __ __ __ __ __ __ __ __ __ __
 72
    65
 73
     2
 40
0.3
 49
0.2
 74
     0
 49
-0.1
 74
     0
  0
LTYPE
  5
FD18
330
5
100
AcDbSymbolTableRecord
100
AcDbLinetypeTableRecord
  2
HIDDEN
 70
     0
  3
Hidden __ __ __ __ __ __ __ __ __ __ __ __ __ _
 72
    65
 73
     2
 40
0.3
 49
0.2
 74
     0
 49
-0.1
 74
     0
  0
LTYPE
  5
FD19
330
5
100
AcDbSymbolTableRecord
100
AcDbLinetypeTableRecord
  2
PHANTOM
 70
     0
  3
Phantom ______  __  __  ______  __  __  ______
 72
    65
 73
     6
 40
0.72
 49
0.36
 74
     0
 49
-0.08
 74
     0
 49
0.06
 74
     0
 49
-0.08
 74
     0
 49
0.06
 74
     0
 49
-0.08
 74
     0
  0
ENDTAB
  0
TABLE
  2
LAYER
  5
2
330
0
100
AcDbSymbolTable
 70
     7
  0
LAYER
  5
10
330
2
100
AcDbSymbolTableRecord
100
AcDbLayerTableRecord
  2
0
 70
     0
 62
     7
  6
CONTINUOUS
370
    -3
390
F
  0
LAYER
  5
7231
330
2
100
AcDbSymbolTableRecord
100
AcDbLayerTableRecord
  2
DEFPOINTS
 70
     0
 62
     7
  6
CONTINUOUS
290
     0
370
    -3
390
F
  0
LAYER
  5
7232
330
2
100
AcDbSymbolTableRecord
100
AcDbLayerTableRecord
  2
dim
 70
     0
 62
     7
  6
CONTINUOUS
370
    -3
390
F
  0
LAYER
  5
7233
330
2
100
AcDbSymbolTableRecord
100
AcDbLayerTableRecord
  2
pnt
 70
     0
 62
     1
  6
CONTINUOUS
290
     0
370
    -3
390
F
  0
LAYER
  5
FBB0
330
2
100
AcDbSymbolTableRecord
100
AcDbLayerTableRecord
  2
3
 70
     0
 62
     7
  6
CONTINUOUS
370
    -3
390
F
  0
LAYER
  5
FD1A
330
2
100
AcDbSymbolTableRecord
100
AcDbLayerTableRecord
  2
cent
 70
     0
 62
     2
  6
CENTER
370
    -3
390
F
  0
LAYER
  5
FE81
330
2
100
AcDbSymbolTableRecord
100
AcDbLayerTableRecord
  2
waku1
 70
     0
 62
     7
  6
CONTINUOUS
290
     0
370
    -3
390
F
  0
ENDTAB
  0
TABLE
  2
STYLE
  5
3
330
0
100
AcDbSymbolTable
 70
     2
  0
STYLE
  5
11
330
3
100
AcDbSymbolTableRecord
100
AcDbTextStyleTableRecord
  2
STANDARD
 70
     0
 40
0.0
 41
1.0
 50
0.0
 71
     0
 42
3.0
  3
txt.shx
  4
bigfont.shx
  0
STYLE
  5
FD1B
330
3
100
AcDbSymbolTableRecord
100
AcDbTextStyleTableRecord
  2

 70
     1
 40
0.0
 41
1.0
 50
0.0
 71
     0
 42
2.5
  3
ltypeshp.shx
  4

  0
ENDTAB
  0
TABLE
  2
VIEW
  5
6
330
0
100
AcDbSymbolTable
 70
     0
  0
ENDTAB
  0
TABLE
  2
UCS
  5
7
330
0
100
AcDbSymbolTable
 70
     0
  0
ENDTAB
  0
TABLE
  2
APPID
  5
9
330
0
100
AcDbSymbolTable
 70
     5
  0
APPID
  5
12
330
9
100
AcDbSymbolTableRecord
100
AcDbRegAppTableRecord
  2
ACAD
 70
     0
  0
APPID
  5
724E
330
9
100
AcDbSymbolTableRecord
100
AcDbRegAppTableRecord
  2
CONTENTTABDATA
 70
     0
  0
APPID
  5
724F
330
9
100
AcDbSymbolTableRecord
100
AcDbRegAppTableRecord
  2
CONTENTCURRENTTAB
 70
     0
  0
APPID
  5
7250
330
9
100
AcDbSymbolTableRecord
100
AcDbRegAppTableRecord
  2
CONTENTBLOCKICON
 70
     0
  0
APPID
  5
7251
330
9
100
AcDbSymbolTableRecord
100
AcDbRegAppTableRecord
  2
CONTENTBLOCKDESCRIPTION
 70
     0
  0
ENDTAB
  0
TABLE
  2
DIMSTYLE
  5
A
330
0
100
AcDbSymbolTable
 70
    25
100
AcDbDimStyleTable
 71
     2
340
7236
340
4B
  0
DIMSTYLE
105
4B
330
A
100
AcDbSymbolTableRecord
100
AcDbDimStyleTableRecord
  2
STANDARD
 70
     0
 41
5.0
 42
3.712499999999999
 43
22.572
 44
10.692
140
6.712332589299999
141
5.346
279
     2
340
11
  0
DIMSTYLE
105
7236
102
{ACAD_REACTORS
330
FCE4
330
FCE5
330
FCE6
102
}
330
A
100
AcDbSymbolTableRecord
100
AcDbDimStyleTableRecord
  2
STD01
 70
     0
 41
3.0
 42
0.5
 43
4.0
 44
1.0
 73
     0
 74
     0
 77
     1
 78
     9
 79
     2
140
3.0
141
0.0
143
0.0394
147
0.5
171
     4
173
     1
176
     7
177
     7
179
     3
271
     3
272
     3
273
     8
274
     4
284
     9
340
11
341
7225
343
7225
344
7225
  0
DIMSTYLE
105
7246
102
{ACAD_REACTORS
330
FC22
330
FC3A
330
FC52
330
FC6A
330
FC83
330
FC9B
102
}
330
A
100
AcDbSymbolTableRecord
100
AcDbDimStyleTableRecord
  2
STD01$0
 70
     0
 41
3.0
 42
0.5
 43
4.0
 44
1.0
 73
     0
 74
     0
 77
     1
 78
     9
 79
     2
140
3.0
141
0.0
143
0.0394
147
0.5
171
     4
172
     1
173
     1
176
     7
177
     7
179
     3
271
     3
272
     3
273
     8
274
     4
284
     9
340
11
341
7225
343
7225
344
7225
  0
DIMSTYLE
105
7247
102
{ACAD_REACTORS
330
FCB3
330
FCCB
102
}
330
A
100
AcDbSymbolTableRecord
100
AcDbDimStyleTableRecord
  2
STD01$2
 70
     0
 41
3.0
 42
0.5
 43
4.0
 44
1.0
 73
     0
 74
     0
 77
     1
 78
     9
 79
     2
140
3.0
141
0.0
143
0.0394
147
0.5
171
     4
172
     1
173
     1
176
     7
177
     7
179
     3
271
     3
272
     3
273
     8
274
     4
284
     9
340
11
341
7225
343
7225
344
7225
  0
DIMSTYLE
105
FD1C
330
A
100
AcDbSymbolTableRecord
100
AcDbDimStyleTableRecord
  2
STD02
 70
     0
 40
0.5
 41
3.0
 42
0.5
 43
4.0
 44
1.0
 73
     0
 74
     0
 77
     1
 78
     9
 79
     2
140
3.0
141
0.0
143
0.0394
147
0.5
171
     4
173
     1
176
   256
177
   256
179
     3
271
     3
272
     3
273
     8
274
     4
284
     9
340
11
341
7225
343
7225
344
7225
  0
DIMSTYLE
105
FD1D
330
A
100
AcDbSymbolTableRecord
100
AcDbDimStyleTableRecord
  2
STD05
 70
     0
 40
0.2
 41
3.0
 42
0.5
 43
4.0
 44
1.0
 73
     0
 74
     0
 77
     1
 78
     9
 79
     2
140
3.0
141
0.0
143
0.0394
147
0.5
171
     4
173
     1
176
   256
177
   256
179
     3
271
     3
272
     3
273
     8
274
     4
284
     9
340
11
341
7225
343
7225
344
7225
  0
DIMSTYLE
105
FD1E
330
A
100
AcDbSymbolTableRecord
100
AcDbDimStyleTableRecord
  2
STD10
 70
     0
 40
0.1
 41
3.0
 42
0.5
 43
4.0
 44
1.0
 73
     0
 74
     0
 77
     1
 78
     9
 79
     2
140
3.0
141
0.0
143
0.0394
147
0.5
171
     4
173
     1
176
   256
177
   256
179
     3
271
     3
272
     3
273
     8
274
     4
284
     9
340
11
341
7225
343
7225
344
7225
  0
DIMSTYLE
105
FD1F
330
A
100
AcDbSymbolTableRecord
100
AcDbDimStyleTableRecord
  2
STD01$4
 70
     0
 41
3.0
 42
0.5
 43
4.0
 44
1.0
 73
     0
 77
     1
 78
     9
 79
     2
140
3.0
141
0.0
143
0.0394
147
0.5
171
     4
173
     1
176
   256
177
   256
179
     3
271
     3
272
     3
273
     8
274
     4
284
     9
340
11
341
7225
343
7225
344
7225
  0
DIMSTYLE
105
FD20
330
A
100
AcDbSymbolTableRecord
100
AcDbDimStyleTableRecord
  2
STD01$3
 70
     0
 41
3.0
 42
0.5
 43
4.0
 44
1.0
 73
     0
 77
     1
 78
     9
 79
     2
140
3.0
141
0.0
143
0.0394
147
0.5
171
     4
173
     1
176
   256
177
   256
179
     3
271
     3
272
     3
273
     8
274
     4
284
     9
340
11
341
7225
343
7225
344
7225
  0
DIMSTYLE
105
FD21
330
A
100
AcDbSymbolTableRecord
100
AcDbDimStyleTableRecord
  2
STD01$6
 70
     0
 41
3.0
 42
0.5
 43
4.0
 44
1.0
 73
     0
 74
     0
 78
     9
 79
     2
140
3.0
141
0.0
143
0.0394
147
0.5
171
     4
173
     1
176
   256
177
   256
179
     3
271
     3
272
     3
273
     8
274
     4
284
     9
340
11
341
7225
343
7225
344
7225
  0
DIMSTYLE
105
FD22
330
A
100
AcDbSymbolTableRecord
100
AcDbDimStyleTableRecord
  2
STD02$4
 70
     0
 40
0.5
 41
3.0
 42
0.5
 43
4.0
 44
1.0
 73
     0
 77
     1
 78
     9
 79
     2
140
3.0
141
0.0
143
0.0394
147
0.5
171
     4
173
     1
176
   256
177
   256
179
     3
271
     3
272
     3
273
     8
274
     4
284
     9
340
11
341
7225
343
7225
344
7225
  0
DIMSTYLE
105
FD23
330
A
100
AcDbSymbolTableRecord
100
AcDbDimStyleTableRecord
  2
STD02$3
 70
     0
 40
0.5
 41
3.0
 42
0.5
 43
4.0
 44
1.0
 73
     0
 77
     1
 78
     9
 79
     2
140
3.0
141
0.0
143
0.0394
147
0.5
171
     4
173
     1
176
   256
177
   256
179
     3
271
     3
272
     3
273
     8
274
     4
284
     9
340
11
341
7225
343
7225
344
7225
  0
DIMSTYLE
105
FD24
330
A
100
AcDbSymbolTableRecord
100
AcDbDimStyleTableRecord
  2
STD02$6
 70
     0
 40
0.5
 41
3.0
 42
0.5
 43
4.0
 44
1.0
 73
     0
 74
     0
 78
     9
 79
     2
140
3.0
141
0.0
143
0.0394
147
0.5
171
     4
173
     1
176
   256
177
   256
179
     3
271
     3
272
     3
273
     8
274
     4
284
     9
340
11
341
7225
343
7225
344
7225
  0
DIMSTYLE
105
FD25
330
A
100
AcDbSymbolTableRecord
100
AcDbDimStyleTableRecord
  2
STD05$4
 70
     0
 40
0.2
 41
3.0
 42
0.5
 43
4.0
 44
1.0
 73
     0
 77
     1
 78
     9
 79
     2
140
3.0
141
0.0
143
0.0394
147
0.5
171
     4
173
     1
176
   256
177
   256
179
     3
271
     3
272
     3
273
     8
274
     4
284
     9
340
11
341
7225
343
7225
344
7225
  0
DIMSTYLE
105
FD26
330
A
100
AcDbSymbolTableRecord
100
AcDbDimStyleTableRecord
  2
STD05$3
 70
     0
 40
0.2
 41
3.0
 42
0.5
 43
4.0
 44
1.0
 73
     0
 77
     1
 78
     9
 79
     2
140
3.0
141
0.0
143
0.0394
147
0.5
171
     4
173
     1
176
   256
177
   256
179
     3
271
     3
272
     3
273
     8
274
     4
284
     9
340
11
341
7225
343
7225
344
7225
  0
DIMSTYLE
105
FD27
330
A
100
AcDbSymbolTableRecord
100
AcDbDimStyleTableRecord
  2
STD05$6
 70
     0
 40
0.2
 41
3.0
 42
0.5
 43
4.0
 44
1.0
 73
     0
 74
     0
 78
     9
 79
     2
140
3.0
141
0.0
143
0.0394
147
0.5
171
     4
173
     1
176
   256
177
   256
179
     3
271
     3
272
     3
273
     8
274
     4
284
     9
340
11
341
7225
343
7225
344
7225
  0
DIMSTYLE
105
FD28
330
A
100
AcDbSymbolTableRecord
100
AcDbDimStyleTableRecord
  2
STD10$4
 70
     0
 40
0.1
 41
3.0
 42
0.5
 43
4.0
 44
1.0
 73
     0
 77
     1
 78
     9
 79
     2
140
3.0
141
0.0
143
0.0394
147
0.5
171
     4
173
     1
176
   256
177
   256
179
     3
271
     3
272
     3
273
     8
274
     4
284
     9
340
11
341
7225
343
7225
344
7225
  0
DIMSTYLE
105
FD29
330
A
100
AcDbSymbolTableRecord
100
AcDbDimStyleTableRecord
  2
STD10$3
 70
     0
 40
0.1
 41
3.0
 42
0.5
 43
4.0
 44
1.0
 73
     0
 77
     1
 78
     9
 79
     2
140
3.0
141
0.0
143
0.0394
147
0.5
171
     4
173
     1
176
   256
177
   256
179
     3
271
     3
272
     3
273
     8
274
     4
284
     9
340
11
341
7225
343
7225
344
7225
  0
DIMSTYLE
105
FD2A
330
A
100
AcDbSymbolTableRecord
100
AcDbDimStyleTableRecord
  2
STD10$6
 70
     0
 40
0.1
 41
3.0
 42
0.5
 43
4.0
 44
1.0
 73
     0
 74
     0
 78
     9
 79
     2
140
3.0
141
0.0
143
0.0394
147
0.5
171
     4
173
     1
176
   256
177
   256
179
     3
271
     3
272
     3
273
     8
274
     4
284
     9
340
11
341
7225
343
7225
344
7225
  0
DIMSTYLE
105
FD2B
330
A
100
AcDbSymbolTableRecord
100
AcDbDimStyleTableRecord
  2
STD02$0
 70
     0
 40
0.5
 41
3.0
 42
0.5
 43
4.0
 44
1.0
 73
     0
 74
     0
 77
     1
 78
     9
 79
     2
140
3.0
141
0.0
143
0.0394
147
0.5
171
     4
172
     1
173
     1
176
   256
177
   256
179
     3
271
     3
272
     3
273
     8
274
     4
284
     9
340
11
341
7225
343
7225
344
7225
  0
DIMSTYLE
105
FD2C
330
A
100
AcDbSymbolTableRecord
100
AcDbDimStyleTableRecord
  2
STD02$2
 70
     0
 40
0.5
 41
3.0
 42
0.5
 43
4.0
 44
1.0
 73
     0
 74
     0
 77
     1
 78
     9
 79
     2
140
3.0
141
0.0
143
0.0394
147
0.5
171
     4
172
     1
173
     1
176
   256
177
   256
179
     3
271
     3
272
     3
273
     8
274
     4
284
     9
340
11
341
7225
343
7225
344
7225
  0
DIMSTYLE
105
FD2D
330
A
100
AcDbSymbolTableRecord
100
AcDbDimStyleTableRecord
  2
STD05$0
 70
     0
 40
0.2
 41
3.0
 42
0.5
 43
4.0
 44
1.0
 73
     0
 74
     0
 77
     1
 78
     9
 79
     2
140
3.0
141
0.0
143
0.0394
147
0.5
171
     4
172
     1
173
     1
176
   256
177
   256
179
     3
271
     3
272
     3
273
     8
274
     4
284
     9
340
11
341
7225
343
7225
344
7225
  0
DIMSTYLE
105
FD2E
330
A
100
AcDbSymbolTableRecord
100
AcDbDimStyleTableRecord
  2
STD05$2
 70
     0
 40
0.2
 41
3.0
 42
0.5
 43
4.0
 44
1.0
 73
     0
 74
     0
 77
     1
 78
     9
 79
     2
140
3.0
141
0.0
143
0.0394
147
0.5
171
     4
172
     1
173
     1
176
   256
177
   256
179
     3
271
     3
272
     3
273
     8
274
     4
284
     9
340
11
341
7225
343
7225
344
7225
  0
DIMSTYLE
105
FD2F
330
A
100
AcDbSymbolTableRecord
100
AcDbDimStyleTableRecord
  2
STD10$2
 70
     0
 40
0.1
 41
3.0
 42
0.5
 43
4.0
 44
1.0
 73
     0
 74
     0
 77
     1
 78
     9
 79
     2
140
3.0
141
0.0
143
0.0394
147
0.5
171
     4
172
     1
173
     1
176
   256
177
   256
179
     3
271
     3
272
     3
273
     8
274
     4
284
     9
340
11
341
7225
343
7225
344
7225
  0
DIMSTYLE
105
FD30
330
A
100
AcDbSymbolTableRecord
100
AcDbDimStyleTableRecord
  2
STD10$0
 70
     0
 40
0.1
 41
3.0
 42
0.5
 43
4.0
 44
1.0
 73
     0
 74
     0
 77
     1
 78
     9
 79
     2
140
3.0
141
0.0
143
0.0394
147
0.5
171
     4
172
     1
173
     1
176
   256
177
   256
179
     3
271
     3
272
     3
273
     8
274
     4
284
     9
340
11
341
7225
343
7225
344
7225
  0
ENDTAB
  0
TABLE
  2
BLOCK_RECORD
  5
1
330
0
100
AcDbSymbolTable
 70
    11
  0
BLOCK_RECORD
  5
20
330
1
100
AcDbSymbolTableRecord
100
AcDbBlockTableRecord
  2
*Model_Space
340
23
  0
BLOCK_RECORD
  5
FCF3
330
1
100
AcDbSymbolTableRecord
100
AcDbBlockTableRecord
  2
*Paper_Space
340
FCF4
  0
BLOCK_RECORD
  5
7225
330
1
100
AcDbSymbolTableRecord
100
AcDbBlockTableRecord
  2
_OPEN
340
0
102
{BLKREFS
331
FD3A
331
FD3B
331
FD43
331
FD44
331
FD4C
331
FD4D
331
FD55
331
FD56
331
FD5E
331
FD5F
331
FD67
331
FD68
331
FD6E
331
FD6F
331
FD77
331
FD78
102
}
  0
BLOCK_RECORD
  5
722B
330
1
100
AcDbSymbolTableRecord
100
AcDbBlockTableRecord
  2
aclt
340
0
102
{BLKREFS
331
7257
331
FD32
102
}
  0
BLOCK_RECORD
  5
FC23
330
1
100
AcDbSymbolTableRecord
100
AcDbBlockTableRecord
  2
*D2
340
0
  0
BLOCK_RECORD
  5
FC3B
330
1
100
AcDbSymbolTableRecord
100
AcDbBlockTableRecord
  2
*D3
340
0
  0
BLOCK_RECORD
  5
FC53
330
1
100
AcDbSymbolTableRecord
100
AcDbBlockTableRecord
  2
*D4
340
0
  0
BLOCK_RECORD
  5
FC6B
330
1
100
AcDbSymbolTableRecord
100
AcDbBlockTableRecord
  2
*D5
340
0
  0
BLOCK_RECORD
  5
FC84
330
1
100
AcDbSymbolTableRecord
100
AcDbBlockTableRecord
  2
*D6
340
0
  0
BLOCK_RECORD
  5
FC9C
330
1
100
AcDbSymbolTableRecord
100
AcDbBlockTableRecord
  2
*D7
340
0
  0
BLOCK_RECORD
  5
FCB4
330
1
100
AcDbSymbolTableRecord
100
AcDbBlockTableRecord
  2
*D8
340
0
  0
BLOCK_RECORD
  5
FCCC
330
1
100
AcDbSymbolTableRecord
100
AcDbBlockTableRecord
  2
*D9
340
0
  0
BLOCK_RECORD
  5
FD31
330
1
100
AcDbSymbolTableRecord
100
AcDbBlockTableRecord
  2
lt1_1
340
0
102
{BLKREFS
331
FD36
102
}
  0
ENDTAB
  0
ENDSEC
  0
SECTION
  2
BLOCKS
  0
BLOCK
  5
51
330
20
100
AcDbEntity
  8
0
100
AcDbBlockBegin
  2
*Model_Space
 70
     0
 10
0.0
 20
0.0
 30
0.0
  3
*Model_Space
  1

  0
ENDBLK
  5
52
330
20
100
AcDbEntity
  8
0
100
AcDbBlockEnd
  0
BLOCK
  5
FCF5
330
FCF3
100
AcDbEntity
 67
     1
  8
0
100
AcDbBlockBegin
  2
*Paper_Space
 70
     0
 10
0.0
 20
0.0
 30
0.0
  3
*Paper_Space
  1

  0
ENDBLK
  5
FCF6
330
FCF3
100
AcDbEntity
 67
     1
  8
0
100
AcDbBlockEnd
  0
BLOCK
  5
7226
330
7225
100
AcDbEntity
  8
0
100
AcDbBlockBegin
  2
_OPEN
 70
     0
 10
0.0
 20
0.0
 30
0.0
  3
_OPEN
  1

  0
LINE
  5
7227
330
7225
100
AcDbEntity
  8
0
  6
ByBlock
 62
     0
100
AcDbLine
 10
-1.0
 20
0.1666666666666666
 30
0.0
 11
0.0
 21
0.0
 31
0.0
  0
LINE
  5
7228
330
7225
100
AcDbEntity
  8
0
  6
ByBlock
 62
     0
100
AcDbLine
 10
0.0
 20
0.0
 30
0.0
 11
-1.0
 21
-0.1666666666666666
 31
0.0
  0
LINE
  5
7229
330
7225
100
AcDbEntity
  8
0
  6
ByBlock
 62
     0
100
AcDbLine
 10
0.0
 20
0.0
 30
0.0
 11
-1.0
 21
0.0
 31
0.0
  0
ENDBLK
  5
722A
330
7225
100
AcDbEntity
  8
0
100
AcDbBlockEnd
  0
BLOCK
  5
722C
330
722B
100
AcDbEntity
  8
0
100
AcDbBlockBegin
  2
aclt
 70
     0
 10
0.0
 20
0.0
 30
0.0
  3
aclt
  1

  0
ENDBLK
  5
722D
330
722B
100
AcDbEntity
  8
0
100
AcDbBlockEnd
  0
BLOCK
  5
FC2D
330
FC23
100
AcDbEntity
  8
0
100
AcDbBlockBegin
  2
*D2
 70
     1
 10
0.0
 20
0.0
 30
0.0
  3
*D2
  1

  0
LINE
  5
FD37
330
FC23
100
AcDbEntity
  8
dim
 62
     7
370
    -2
100
AcDbLine
 10
292.5231544027072
 20
235.6285852258376
 30
0.0
 11
292.5231544027072
 21
247.6890100241845
 31
0.0
  0
LINE
  5
FD38
330
FC23
100
AcDbEntity
  8
dim
 62
     7
370
    -2
100
AcDbLine
 10
392.5231544027072
 20
235.6285852258376
 30
0.0
 11
392.5231544027072
 21
247.6890100241845
 31
0.0
  0
LINE
  5
FD39
330
FC23
100
AcDbEntity
  8
dim
 62
     7
370
    -2
100
AcDbLine
 10
295.5231544027071
 20
246.6890100241847
 30
0.0
 11
389.5231544027072
 21
246.6890100241847
 31
0.0
  0
INSERT
  5
FD3A
330
FC23
100
AcDbEntity
  8
dim
 62
     7
370
    -2
100
AcDbBlockReference
  2
_OPEN
 10
292.5231544027072
 20
246.6890100241847
 30
0.0
 41
3.0
 42
3.0
 43
3.0
 50
180.0
  0
INSERT
  5
FD3B
330
FC23
100
AcDbEntity
  8
dim
 62
     7
370
    -2
100
AcDbBlockReference
  2
_OPEN
 10
392.5231544027072
 20
246.6890100241847
 30
0.0
 41
3.0
 42
3.0
 43
3.0
  0
MTEXT
  5
FD3C
330
FC23
100
AcDbEntity
  8
dim
 62
     0
100
AcDbMText
 10
342.5231544027071
 20
248.6890100241847
 30
0.0
 40
3.0
 41
0.0
 71
     5
 72
     1
  1
\A1;100
 73
     1
 44
1.0
  0
POINT
  5
FD3D
330
FC23
100
AcDbEntity
  8
DEFPOINTS
 62
     0
100
AcDbPoint
 10
292.5231544027072
 20
235.1285852258375
 30
0.0
  0
POINT
  5
FD3E
330
FC23
100
AcDbEntity
  8
DEFPOINTS
 62
     0
100
AcDbPoint
 10
392.5231544027072
 20
235.1285852258375
 30
0.0
  0
POINT
  5
FD3F
330
FC23
100
AcDbEntity
  8
DEFPOINTS
 62
     0
100
AcDbPoint
 10
392.5231544027072
 20
246.6890100241847
 30
0.0
  0
ENDBLK
  5
FC2E
330
FC23
100
AcDbEntity
  8
0
100
AcDbBlockEnd
  0
BLOCK
  5
FC45
330
FC3B
100
AcDbEntity
  8
0
100
AcDbBlockBegin
  2
*D3
 70
     1
 10
0.0
 20
0.0
 30
0.0
  3
*D3
  1

  0
LINE
  5
FD40
330
FC3B
100
AcDbEntity
  8
dim
 62
     7
370
    -2
100
AcDbLine
 10
295.0117384970072
 20
138.1171693200377
 30
0.0
 11
281.8212589829153
 21
138.1171693200377
 31
0.0
  0
LINE
  5
FD41
330
FC3B
100
AcDbEntity
  8
dim
 62
     7
370
    -2
100
AcDbLine
 10
295.0117384970072
 20
238.1171693200375
 30
0.0
 11
281.8212589829153
 21
238.1171693200375
 31
0.0
  0
LINE
  5
FD42
330
FC3B
100
AcDbEntity
  8
dim
 62
     7
370
    -2
100
AcDbLine
 10
282.8212589829153
 20
141.1171693200375
 30
0.0
 11
282.8212589829153
 21
235.1171693200375
 31
0.0
  0
INSERT
  5
FD43
330
FC3B
100
AcDbEntity
  8
dim
 62
     7
370
    -2
100
AcDbBlockReference
  2
_OPEN
 10
282.8212589829153
 20
138.1171693200377
 30
0.0
 41
3.0
 42
3.0
 43
3.0
 50
270.0
  0
INSERT
  5
FD44
330
FC3B
100
AcDbEntity
  8
dim
 62
     7
370
    -2
100
AcDbBlockReference
  2
_OPEN
 10
282.8212589829153
 20
238.1171693200375
 30
0.0
 41
3.0
 42
3.0
 43
3.0
 50
90.0
  0
MTEXT
  5
FD45
330
FC3B
100
AcDbEntity
  8
dim
 62
     0
100
AcDbMText
 10
280.8212589829153
 20
188.1171693200375
 30
0.0
 40
3.0
 41
0.0
 71
     5
 72
     1
  1
\A1;100
 11
0.0000000000000001
 21
1.0
 31
0.0
 73
     1
 44
1.0
  0
POINT
  5
FD46
330
FC3B
100
AcDbEntity
  8
DEFPOINTS
 62
     0
100
AcDbPoint
 10
295.5117384970071
 20
138.1171693200377
 30
0.0
  0
POINT
  5
FD47
330
FC3B
100
AcDbEntity
  8
DEFPOINTS
 62
     0
100
AcDbPoint
 10
295.5117384970071
 20
238.1171693200375
 30
0.0
  0
POINT
  5
FD48
330
FC3B
100
AcDbEntity
  8
DEFPOINTS
 62
     0
100
AcDbPoint
 10
282.8212589829153
 20
238.1171693200375
 30
0.0
  0
ENDBLK
  5
FC46
330
FC3B
100
AcDbEntity
  8
0
100
AcDbBlockEnd
  0
BLOCK
  5
FC5D
330
FC53
100
AcDbEntity
  8
0
100
AcDbBlockBegin
  2
*D4
 70
     1
 10
0.0
 20
0.0
 30
0.0
  3
*D4
  1

  0
LINE
  5
FD49
330
FC53
100
AcDbEntity
  8
dim
 62
     7
370
    -2
100
AcDbLine
 10
442.8375103764071
 20
138.1171693200375
 30
0.0
 11
452.5780742654077
 21
138.1171693200375
 31
0.0
  0
LINE
  5
FD4A
330
FC53
100
AcDbEntity
  8
dim
 62
     7
370
    -2
100
AcDbLine
 10
442.8375103764071
 20
238.1171693200375
 30
0.0
 11
452.5780742654077
 21
238.1171693200375
 31
0.0
  0
LINE
  5
FD4B
330
FC53
100
AcDbEntity
  8
dim
 62
     7
370
    -2
100
AcDbLine
 10
451.5780742654079
 20
141.1171693200375
 30
0.0
 11
451.5780742654079
 21
235.1171693200375
 31
0.0
  0
INSERT
  5
FD4C
330
FC53
100
AcDbEntity
  8
dim
 62
     7
370
    -2
100
AcDbBlockReference
  2
_OPEN
 10
451.5780742654079
 20
138.1171693200375
 30
0.0
 41
3.0
 42
3.0
 43
3.0
 50
270.0
  0
INSERT
  5
FD4D
330
FC53
100
AcDbEntity
  8
dim
 62
     7
370
    -2
100
AcDbBlockReference
  2
_OPEN
 10
451.5780742654079
 20
238.1171693200375
 30
0.0
 41
3.0
 42
3.0
 43
3.0
 50
90.0
  0
MTEXT
  5
FD4E
330
FC53
100
AcDbEntity
  8
dim
 62
     0
100
AcDbMText
 10
449.5780742654077
 20
188.1171693200375
 30
0.0
 40
3.0
 41
0.0
 71
     5
 72
     1
  1
\A1;100
 11
0.0000000000000001
 21
1.0
 31
0.0
 73
     1
 44
1.0
  0
POINT
  5
FD4F
330
FC53
100
AcDbEntity
  8
DEFPOINTS
 62
     0
100
AcDbPoint
 10
442.3375103764072
 20
138.1171693200375
 30
0.0
  0
POINT
  5
FD50
330
FC53
100
AcDbEntity
  8
DEFPOINTS
 62
     0
100
AcDbPoint
 10
442.3375103764071
 20
238.1171693200375
 30
0.0
  0
POINT
  5
FD51
330
FC53
100
AcDbEntity
  8
DEFPOINTS
 62
     0
100
AcDbPoint
 10
451.5780742654079
 20
238.1171693200375
 30
0.0
  0
ENDBLK
  5
FC5E
330
FC53
100
AcDbEntity
  8
0
100
AcDbBlockEnd
  0
BLOCK
  5
FC75
330
FC6B
100
AcDbEntity
  8
0
100
AcDbBlockBegin
  2
*D5
 70
     1
 10
0.0
 20
0.0
 30
0.0
  3
*D5
  1

  0
LINE
  5
FD52
330
FC6B
100
AcDbEntity
  8
dim
 62
     7
370
    -2
100
AcDbLine
 10
442.3375103764071
 20
241.6171693200375
 30
0.0
 11
442.3375103764071
 21
247.0070131374018
 31
0.0
  0
LINE
  5
FD53
330
FC6B
100
AcDbEntity
  8
dim
 62
     7
370
    -2
100
AcDbLine
 10
425.3375103764072
 20
209.1600340530376
 30
0.0
 11
425.3375103764072
 21
247.0070131374018
 31
0.0
  0
LINE
  5
FD54
330
FC6B
100
AcDbEntity
  8
dim
 62
     7
370
    -2
100
AcDbLine
 10
439.337510376407
 20
246.0070131374015
 30
0.0
 11
428.337510376407
 21
246.0070131374015
 31
0.0
  0
INSERT
  5
FD55
330
FC6B
100
AcDbEntity
  8
dim
 62
     7
370
    -2
100
AcDbBlockReference
  2
_OPEN
 10
442.3375103764071
 20
246.0070131374015
 30
0.0
 41
3.0
 42
3.0
 43
3.0
  0
INSERT
  5
FD56
330
FC6B
100
AcDbEntity
  8
dim
 62
     7
370
    -2
100
AcDbBlockReference
  2
_OPEN
 10
425.3375103764072
 20
246.0070131374015
 30
0.0
 41
3.0
 42
3.0
 43
3.0
 50
180.0
  0
MTEXT
  5
FD57
330
FC6B
100
AcDbEntity
  8
dim
 62
     0
100
AcDbMText
 10
433.8375103764071
 20
248.0070131374015
 30
0.0
 40
3.0
 41
0.0
 71
     5
 72
     1
  1
\A1;17
 73
     1
 44
1.0
  0
POINT
  5
FD58
330
FC6B
100
AcDbEntity
  8
DEFPOINTS
 62
     0
100
AcDbPoint
 10
442.3375103764071
 20
241.1171693200375
 30
0.0
  0
POINT
  5
FD59
330
FC6B
100
AcDbEntity
  8
DEFPOINTS
 62
     0
100
AcDbPoint
 10
425.3375103764072
 20
208.6600340530377
 30
0.0
  0
POINT
  5
FD5A
330
FC6B
100
AcDbEntity
  8
DEFPOINTS
 62
     0
100
AcDbPoint
 10
425.3375103764072
 20
246.0070131374015
 30
0.0
  0
ENDBLK
  5
FC76
330
FC6B
100
AcDbEntity
  8
0
100
AcDbBlockEnd
  0
BLOCK
  5
FC8E
330
FC84
100
AcDbEntity
  8
0
100
AcDbBlockBegin
  2
*D6
 70
     1
 10
0.0
 20
0.0
 30
0.0
  3
*D6
  1

  0
LINE
  5
FD5B
330
FC84
100
AcDbEntity
  8
dim
 62
     7
370
    -2
100
AcDbLine
 10
292.5231544027072
 20
83.79325191711226
 30
0.0
 11
292.5231544027072
 21
74.97773003757675
 31
0.0
  0
LINE
  5
FD5C
330
FC84
100
AcDbEntity
  8
dim
 62
     7
370
    -2
100
AcDbLine
 10
392.523154402707
 20
83.79325191711226
 30
0.0
 11
392.523154402707
 21
74.97773003757675
 31
0.0
  0
LINE
  5
FD5D
330
FC84
100
AcDbEntity
  8
dim
 62
     7
370
    -2
100
AcDbLine
 10
295.5231544027071
 20
75.97773003757675
 30
0.0
 11
389.5231544027071
 21
75.97773003757675
 31
0.0
  0
INSERT
  5
FD5E
330
FC84
100
AcDbEntity
  8
dim
 62
     7
370
    -2
100
AcDbBlockReference
  2
_OPEN
 10
292.5231544027072
 20
75.97773003757675
 30
0.0
 41
3.0
 42
3.0
 43
3.0
 50
180.0
  0
INSERT
  5
FD5F
330
FC84
100
AcDbEntity
  8
dim
 62
     7
370
    -2
100
AcDbBlockReference
  2
_OPEN
 10
392.523154402707
 20
75.97773003757675
 30
0.0
 41
3.0
 42
3.0
 43
3.0
  0
MTEXT
  5
FD60
330
FC84
100
AcDbEntity
  8
dim
 62
     0
100
AcDbMText
 10
342.5231544027071
 20
77.97773003757675
 30
0.0
 40
3.0
 41
0.0
 71
     5
 72
     1
  1
\A1;100
 73
     1
 44
1.0
  0
POINT
  5
FD61
330
FC84
100
AcDbEntity
  8
DEFPOINTS
 62
     0
100
AcDbPoint
 10
292.5231544027072
 20
84.29325191711226
 30
0.0
  0
POINT
  5
FD62
330
FC84
100
AcDbEntity
  8
DEFPOINTS
 62
     0
100
AcDbPoint
 10
392.523154402707
 20
84.29325191711226
 30
0.0
  0
POINT
  5
FD63
330
FC84
100
AcDbEntity
  8
DEFPOINTS
 62
     0
100
AcDbPoint
 10
392.523154402707
 20
75.97773003757675
 30
0.0
  0
ENDBLK
  5
FC8F
330
FC84
100
AcDbEntity
  8
0
100
AcDbBlockEnd
  0
BLOCK
  5
FCA6
330
FC9C
100
AcDbEntity
  8
0
100
AcDbBlockBegin
  2
*D7
 70
     1
 10
0.0
 20
0.0
 30
0.0
  3
*D7
  1

  0
LINE
  5
FD64
330
FC9C
100
AcDbEntity
  8
dim
 62
     7
370
    -2
100
AcDbLine
 10
289.0231544027071
 20
84.29325191711226
 30
0.0
 11
284.3058003299016
 21
84.29325191711226
 31
0.0
  0
LINE
  5
FD65
330
FC9C
100
AcDbEntity
  8
dim
 62
     7
370
    -2
100
AcDbLine
 10
301.5755064056071
 20
101.2932519171122
 30
0.0
 11
284.3058003299016
 21
101.2932519171122
 31
0.0
  0
LINE
  5
FD66
330
FC9C
100
AcDbEntity
  8
dim
 62
     7
370
    -2
100
AcDbLine
 10
285.3058003299016
 20
87.29325191711227
 30
0.0
 11
285.3058003299016
 21
98.29325191711227
 31
0.0
  0
INSERT
  5
FD67
330
FC9C
100
AcDbEntity
  8
dim
 62
     7
370
    -2
100
AcDbBlockReference
  2
_OPEN
 10
285.3058003299016
 20
84.29325191711226
 30
0.0
 41
3.0
 42
3.0
 43
3.0
 50
270.0
  0
INSERT
  5
FD68
330
FC9C
100
AcDbEntity
  8
dim
 62
     7
370
    -2
100
AcDbBlockReference
  2
_OPEN
 10
285.3058003299016
 20
101.2932519171122
 30
0.0
 41
3.0
 42
3.0
 43
3.0
 50
90.0
  0
MTEXT
  5
FD69
330
FC9C
100
AcDbEntity
  8
dim
 62
     0
100
AcDbMText
 10
283.3058003299015
 20
92.79325191711231
 30
0.0
 40
3.0
 41
0.0
 71
     5
 72
     1
  1
\A1;17
 11
0.0000000000000001
 21
1.0
 31
0.0
 73
     1
 44
1.0
  0
POINT
  5
FD6A
330
FC9C
100
AcDbEntity
  8
DEFPOINTS
 62
     0
100
AcDbPoint
 10
289.5231544027071
 20
84.29325191711226
 30
0.0
  0
POINT
  5
FD6B
330
FC9C
100
AcDbEntity
  8
DEFPOINTS
 62
     0
100
AcDbPoint
 10
302.0755064056068
 20
101.2932519171122
 30
0.0
  0
POINT
  5
FD6C
330
FC9C
100
AcDbEntity
  8
DEFPOINTS
 62
     0
100
AcDbPoint
 10
285.3058003299016
 20
101.2932519171122
 30
0.0
  0
ENDBLK
  5
FCA7
330
FC9C
100
AcDbEntity
  8
0
100
AcDbBlockEnd
  0
BLOCK
  5
FCBE
330
FCB4
100
AcDbEntity
  8
0
100
AcDbBlockBegin
  2
*D8
 70
     1
 10
0.0
 20
0.0
 30
0.0
  3
*D8
  1

  0
ARC
  5
FD6D
330
FCB4
100
AcDbEntity
  8
dim
 62
     7
370
    -2
100
AcDbCircle
 10
559.4352471629231
 20
188.1171693200375
 30
0.0
 40
236.2008545718859
100
AcDbArc
 50
176.7277217273931
 51
179.272278272582
  0
INSERT
  5
FD6E
330
FCB4
100
AcDbEntity
  8
dim
 62
     7
370
    -2
100
AcDbBlockReference
  2
_OPEN
 10
323.8097660013678
 20
204.5937080304232
 30
0.0
 41
3.0
 42
3.0
 43
3.0
 50
86.36386086368419
  0
INSERT
  5
FD6F
330
FCB4
100
AcDbEntity
  8
dim
 62
     7
370
    -2
100
AcDbBlockReference
  2
_OPEN
 10
323.2343925910372
 20
188.1171693200375
 30
0.0
 41
3.0
 42
3.0
 43
3.0
 50
269.636139136291
  0
MTEXT
  5
FD70
330
FCB4
100
AcDbEntity
  8
dim
 62
     0
100
AcDbMText
 10
321.3794981156725
 20
196.4302592587536
 30
0.0
 40
3.0
 41
0.0
 71
     5
 72
     1
  1
\A1;4°
 11
0.034899496702717
 21
0.9993908270190882
 31
0.0
 73
     1
 44
1.0
  0
POINT
  5
FD71
330
FCB4
100
AcDbEntity
  8
DEFPOINTS
 62
     0
100
AcDbPoint
 10
323.490171818287
 20
199.1064878204372
 30
0.0
  0
POINT
  5
FD72
330
FCB4
100
AcDbEntity
  8
DEFPOINTS
 62
     0
100
AcDbPoint
 10
395.5231544027073
 20
188.1171693200375
 30
0.0
  0
POINT
  5
FD73
330
FCB4
100
AcDbEntity
  8
DEFPOINTS
 62
     0
100
AcDbPoint
 10
375.5984031151072
 20
200.9722937421376
 30
0.0
  0
POINT
  5
FD74
330
FCB4
100
AcDbEntity
  8
DEFPOINTS
 62
     0
100
AcDbPoint
 10
305.8727641798071
 20
205.8479853836375
 30
0.0
  0
POINT
  5
FD75
330
FCB4
100
AcDbEntity
  8
DEFPOINTS
 62
     0
100
AcDbPoint
 10
289.5231544027071
 20
188.1171693200375
 30
0.0
  0
ENDBLK
  5
FCBF
330
FCB4
100
AcDbEntity
  8
0
100
AcDbBlockEnd
  0
BLOCK
  5
FCD6
330
FCCC
100
AcDbEntity
  8
0
100
AcDbBlockBegin
  2
*D9
 70
     1
 10
0.0
 20
0.0
 30
0.0
  3
*D9
  1

  0
ARC
  5
FD76
330
FCCC
100
AcDbEntity
  8
dim
 62
     7
370
    -2
100
AcDbCircle
 10
558.0014700895142
 20
188.1171693200375
 30
0.0
 40
234.7562528165193
100
AcDbArc
 50
180.7321999141994
 51
183.2678000857983
  0
INSERT
  5
FD77
330
FCCC
100
AcDbEntity
  8
dim
 62
     7
370
    -2
100
AcDbBlockReference
  2
_OPEN
 10
323.2452172729948
 20
188.1171693200378
 30
0.0
 41
3.0
 42
3.0
 43
3.0
 50
90.36609995709971
  0
INSERT
  5
FD78
330
FCCC
100
AcDbEntity
  8
dim
 62
     7
370
    -2
100
AcDbBlockReference
  2
_OPEN
 10
323.8170717060471
 20
171.7414009341819
 30
0.0
 41
3.0
 42
3.0
 43
3.0
 50
273.633900042898
  0
MTEXT
  5
FD79
330
FCCC
100
AcDbEntity
  8
dim
 62
     0
100
AcDbMText
 10
325.3870060933468
 20
179.9940932423854
 30
0.0
 40
3.0
 41
0.0
 71
     5
 72
     1
  1
\A1;4°
 11
0.034899496702482
 21
-0.9993908270190964
 31
0.0
 73
     1
 44
1.0
  0
POINT
  5
FD7A
330
FCCC
100
AcDbEntity
  8
DEFPOINTS
 62
     0
100
AcDbPoint
 10
323.3087795991213
 20
182.6546363147159
 30
0.0
  0
POINT
  5
FD7B
330
FCCC
100
AcDbEntity
  8
DEFPOINTS
 62
     0
100
AcDbPoint
 10
375.6589653503071
 20
175.3665392818374
 30
0.0
  0
POINT
  5
FD7C
330
FCCC
100
AcDbEntity
  8
DEFPOINTS
 62
     0
100
AcDbPoint
 10
395.5231544027072
 20
188.1171693200375
 30
0.0
  0
POINT
  5
FD7D
330
FCCC
100
AcDbEntity
  8
DEFPOINTS
 62
     0
100
AcDbPoint
 10
289.5231544027071
 20
188.1171693200375
 30
0.0
  0
POINT
  5
FD7E
330
FCCC
100
AcDbEntity
  8
DEFPOINTS
 62
     0
100
AcDbPoint
 10
305.798248524707
 20
170.4814020741376
 30
0.0
  0
ENDBLK
  5
FCD7
330
FCCC
100
AcDbEntity
  8
0
100
AcDbBlockEnd
  0
BLOCK
  5
FD33
330
FD31
100
AcDbEntity
  8
0
100
AcDbBlockBegin
  2
lt1_1
 70
     0
 10
0.0
 20
0.0
 30
0.0
  3
lt1_1
  1

  0
INSERT
  5
FD32
330
FD31
100
AcDbEntity
  8
0
  6
Continuous
100
AcDbBlockReference
  2
aclt
 10
0.0
 20
0.0
 30
0.0
  0
ENDBLK
  5
FD34
330
FD31
100
AcDbEntity
  8
0
100
AcDbBlockEnd
  0
ENDSEC
  0
SECTION
  2
ENTITIES
  0
INSERT
  5
7257
330
20
100
AcDbEntity
  8
0
  6
Continuous
100
AcDbBlockReference
  2
aclt
 10
0.0
 20
0.0
 30
0.0
  0
ARC
  5
BB90
330
20
100
AcDbEntity
  8
0
100
AcDbCircle
 10
440.837510376407
 20
140.2560419904376
 30
0.0
 40
2.0
100
AcDbArc
 50
180.0
 51
265.0
  0
ARC
  5
BB91
330
20
100
AcDbEntity
  8
0
100
AcDbCircle
 10
440.837510376407
 20
235.9782966497375
 30
0.0
 40
2.0
100
AcDbArc
 50
94.99999999999982
 51
180.0000000000006
  0
ARC
  5
BB92
330
20
100
AcDbEntity
  8
0
100
AcDbCircle
 10
390.3842416846071
 20
85.79325191711228
 30
0.0
 40
2.0
100
AcDbArc
 50
4.999900009700422
 51
89.99885271709933
  0
ARC
  5
BB93
330
20
100
AcDbEntity
  8
0
100
AcDbCircle
 10
390.2770276916072
 20
87.01917121251234
 30
0.0
 40
2.0
100
AcDbArc
 50
5.000464952600163
 51
38.50626324690202
  0
ARC
  5
BB94
330
20
100
AcDbEntity
  8
0
100
AcDbCircle
 10
294.7847273561071
 20
87.19572256901233
 30
0.0
 40
2.0
100
AcDbArc
 50
151.0152750600993
 51
175.0000000000004
  0
ARC
  5
BB95
330
20
100
AcDbEntity
  8
0
100
AcDbCircle
 10
294.6620270731072
 20
85.79325191711228
 30
0.0
 40
2.0
100
AcDbArc
 50
90.0
 51
175.0000000000004
  0
ARC
  5
BB96
102
{ACAD_REACTORS
330
FCB2
102
}
330
20
100
AcDbEntity
  8
0
100
AcDbCircle
 10
302.0755064056068
 20
98.29325191711227
 30
0.0
 40
3.0
100
AcDbArc
 50
90.0
 51
151.0152750600993
  0
ARC
  5
BB97
330
20
100
AcDbEntity
  8
0
100
AcDbCircle
 10
380.0294509347072
 20
98.29325191711227
 30
0.0
 40
3.0
100
AcDbArc
 50
38.50590148730063
 51
90.0
  0
ARC
  5
BBA8
330
20
100
AcDbEntity
  8
0
100
AcDbCircle
 10
266.8231544027069
 20
188.1171693200375
 30
0.0
 40
30.1609003688
100
AcDbArc
 50
336.7105033704991
 51
23.28949666290069
  0
ARC
  5
BBA9
330
20
100
AcDbEntity
  8
0
100
AcDbCircle
 10
266.8231544027069
 20
188.1171693200375
 30
0.0
 40
31.1457081218
100
AcDbArc
 50
332.9622754537997
 51
27.03772454620085
  0
ARC
  5
BBAA
330
20
100
AcDbEntity
  8
0
100
AcDbCircle
 10
405.2231544027071
 20
188.1171693200375
 30
0.0
 40
21.1457081218
100
AcDbArc
 50
137.8008005546004
 51
222.1991994454004
  0
ARC
  5
BBAB
330
20
100
AcDbEntity
  8
0
100
AcDbCircle
 10
405.2231544027071
 20
188.1171693200375
 30
0.0
 40
20.1609003688
100
AcDbArc
 50
138.4146208415004
 51
221.5853791479998
  0
LINE
  5
E04F
330
20
100
AcDbEntity
  8
0
100
AcDbLine
 10
440.6631988909071
 20
138.2636525942374
 30
0.0
 11
442.3375103764072
 21
138.1171693200375
 31
0.0
  0
LINE
  5
E051
330
20
100
AcDbEntity
  8
0
100
AcDbLine
 10
440.6631988909071
 20
141.2522366885376
 30
0.0
 11
442.3375103764072
 21
141.1057534143376
 31
0.0
  0
LINE
  5
E053
330
20
100
AcDbEntity
  8
0
100
AcDbLine
 10
438.8375103768072
 20
141.2522336821376
 30
0.0
 11
440.663202367507
 21
141.2522377155374
 31
0.0
  0
LWPOLYLINE
  5
E05D
330
20
100
AcDbEntity
  8
0
100
AcDbPolyline
 90
        4
 70
     0
 43
0.0
 10
438.1722018036071
 20
144.0547063109374
 10
438.1596905154068
 20
144.0642380145376
 10
438.1198432810071
 20
144.1174900283374
 10
438.0554416377072
 20
144.2148588971375
  0
LINE
  5
E05E
330
20
100
AcDbEntity
  8
0
100
AcDbLine
 10
438.3663907743071
 20
152.8748756822374
 30
0.0
 11
439.4372633928071
 21
152.8751995276375
 31
0.0
  0
LINE
  5
E05F
330
20
100
AcDbEntity
  8
0
100
AcDbLine
 10
438.1596994298072
 20
232.1701106623375
 30
0.0
 11
438.1721999382071
 21
232.1796296150377
 31
0.0
  0
LINE
  5
E064
330
20
100
AcDbEntity
  8
0
100
AcDbLine
 10
438.1219742447071
 20
232.0830477797377
 30
0.0
 11
438.0979488560071
 21
232.0594611048377
 31
0.0
  0
LWPOLYLINE
  5
E066
330
20
100
AcDbEntity
  8
0
100
AcDbPolyline
 90
        3
 70
     0
 43
0.0
 10
438.0259556763071
 20
144.2793889612375
 10
438.0979488560071
 20
144.1748775353375
 10
438.1219742447071
 20
144.1512908604376
  0
LINE
  5
E067
330
20
100
AcDbEntity
  8
0
100
AcDbLine
 10
438.0979488560071
 20
232.0594611048377
 30
0.0
 11
438.0259556763071
 21
231.9549496788375
 31
0.0
  0
LINE
  5
E069
330
20
100
AcDbEntity
  8
0
100
AcDbLine
 10
425.7237614632071
 20
165.9455664756374
 30
0.0
 11
438.8375103764071
 21
142.6724329962375
 31
0.0
  0
LINE
  5
E06A
330
20
100
AcDbEntity
  8
0
100
AcDbLine
 10
425.7394341650072
 20
166.0290446124375
 30
0.0
 11
437.4646345876072
 21
145.2166145697376
 31
0.0
  0
LINE
  5
E06C
330
20
100
AcDbEntity
  8
0
100
AcDbLine
 10
437.4678479667071
 20
145.2184249068374
 30
0.0
 11
425.7394341650072
 21
166.0365587520375
 31
0.0
  0
LWPOLYLINE
  5
E06E
330
20
100
AcDbEntity
  8
0
100
AcDbPolyline
 90
        5
 70
     0
 43
0.0
 10
437.4678479667071
 20
145.2184249068374
 10
437.6211065830071
 20
144.9500087576375
 10
437.775156986807
 20
144.6871345414375
 10
437.914486989707
 20
144.4563176537376
 10
438.0259556763071
 20
144.2793889612375
  0
LINE
  5
E071
330
20
100
AcDbEntity
  8
0
100
AcDbLine
 10
425.7394341650072
 20
165.9217408987375
 30
0.0
 11
425.7237650065071
 21
165.9455601863375
 31
0.0
  0
LINE
  5
E074
330
20
100
AcDbEntity
  8
0
100
AcDbLine
 10
425.7394341650072
 20
210.3125977414376
 30
0.0
 11
425.7237650065071
 21
210.2887784538375
 31
0.0
  0
LWPOLYLINE
  5
E075
330
20
100
AcDbEntity
  8
0
100
AcDbPolyline
 90
        5
 70
     0
 43
0.0
 10
438.0259556763071
 20
231.9549496788375
 10
437.914486989707
 20
231.7780209864376
 10
437.775156986807
 20
231.5472040987376
 10
437.6211065830071
 20
231.2843298825375
 10
437.4678479667071
 20
231.0159137333375
  0
LWPOLYLINE
  5
E076
330
20
100
AcDbEntity
  8
0
100
AcDbPolyline
 90
        4
 70
     0
 43
0.0
 10
437.9698452775071
 20
231.8829917727375
 10
438.0555767335072
 20
232.0196903400375
 10
438.1198981026072
 20
232.1169277929377
 10
438.1596994298072
 20
232.1701106623375
  0
LINE
  5
E079
330
20
100
AcDbEntity
  8
0
100
AcDbLine
 10
438.8375103764071
 20
233.5619056439376
 30
0.0
 11
425.7237614632071
 21
210.2887721645377
 31
0.0
  0
LINE
  5
E07B
330
20
100
AcDbEntity
  8
0
100
AcDbLine
 10
425.7394341650072
 20
210.2052940276375
 30
0.0
 11
437.4646345876072
 21
231.0177240703376
 31
0.0
  0
LINE
  5
E07C
330
20
100
AcDbEntity
  8
0
100
AcDbLine
 10
437.4678479667071
 20
231.0159137333375
 30
0.0
 11
425.7394341650072
 21
210.1977798881377
 31
0.0
  0
LINE
  5
E07E
330
20
100
AcDbEntity
  8
0
100
AcDbLine
 10
425.5200617675073
 20
166.5177387142376
 30
0.0
 11
425.7394341650072
 21
166.0290446124375
 31
0.0
  0
LINE
  5
E080
330
20
100
AcDbEntity
  8
0
100
AcDbLine
 10
425.5184325140072
 20
166.3945259757376
 30
0.0
 11
425.7394341650072
 21
165.9217408987375
 31
0.0
  0
LINE
  5
E081
330
20
100
AcDbEntity
  8
0
100
AcDbLine
 10
425.5200617675073
 20
171.7029732216373
 30
0.0
 11
425.7394341650072
 21
171.2399777899376
 31
0.0
  0
LINE
  5
E082
330
20
100
AcDbEntity
  8
0
100
AcDbLine
 10
425.625439260107
 20
166.1356399926376
 30
0.0
 11
425.7237536659072
 21
165.9455803171375
 31
0.0
  0
LINE
  5
E088
330
20
100
AcDbEntity
  8
0
100
AcDbLine
 10
438.661870785507
 20
149.6547671904376
 30
0.0
 11
438.8380477836071
 21
149.3499523558377
 31
0.0
  0
LINE
  5
E089
330
20
100
AcDbEntity
  8
0
100
AcDbLine
 10
437.6211065830071
 20
151.2674692071376
 30
0.0
 11
437.4678479667071
 21
151.5286632241376
 31
0.0
  0
LWPOLYLINE
  5
E08A
330
20
100
AcDbEntity
  8
0
100
AcDbPolyline
 90
        9
 70
     0
 43
0.0
 10
437.5178555831072
 20
151.4521322512376
 10
437.6341400503071
 20
151.2545868924376
 10
437.7528851674071
 20
151.0487813932375
 10
437.8670142360071
 20
150.8469731965375
 10
437.9698452775071
 20
150.6610076112376
 10
438.0555767335072
 20
150.5014471374376
 10
438.1198981026072
 20
150.3764115999373
 10
438.1596994298072
 20
150.2920544861376
 10
438.1731833914072
 20
150.2522885410375
  0
LINE
  5
E08B
330
20
100
AcDbEntity
  8
0
100
AcDbLine
 10
437.4678479667071
 20
151.5286632241376
 30
0.0
 11
425.7394341650072
 21
171.2399777899376
 31
0.0
  0
LINE
  5
E08C
330
20
100
AcDbEntity
  8
0
100
AcDbLine
 10
425.7394341650072
 20
171.2474919294376
 30
0.0
 11
437.5178555831072
 21
151.4521322512376
 31
0.0
  0
LINE
  5
E08D
330
20
100
AcDbEntity
  8
0
100
AcDbLine
 10
438.661870785507
 20
149.6547671904376
 30
0.0
 11
425.7394341650072
 21
171.3728117180375
 31
0.0
  0
LINE
  5
E097
330
20
100
AcDbEntity
  8
0
100
AcDbLine
 10
437.4678479667071
 20
224.7056754160376
 30
0.0
 11
425.7394341650072
 21
204.9943608502375
 31
0.0
  0
LINE
  5
E098
330
20
100
AcDbEntity
  8
0
100
AcDbLine
 10
425.7394341650072
 20
204.9868467106377
 30
0.0
 11
437.5178555831072
 21
224.7822063889376
 31
0.0
  0
LINE
  5
E099
330
20
100
AcDbEntity
  8
0
100
AcDbLine
 10
425.7394341650072
 20
204.8615269220375
 30
0.0
 11
438.661870785507
 21
226.5795714497377
 31
0.0
  0
LINE
  5
E09A
330
20
100
AcDbEntity
  8
0
100
AcDbLine
 10
437.4678479667071
 20
224.7056754160376
 30
0.0
 11
437.6211065830071
 21
224.9668694329375
 31
0.0
  0
LINE
  5
E09B
330
20
100
AcDbEntity
  8
0
100
AcDbLine
 10
438.8380477836071
 20
226.8843862843377
 30
0.0
 11
438.661870785507
 21
226.5795714497377
 31
0.0
  0
LWPOLYLINE
  5
E09C
330
20
100
AcDbEntity
  8
0
100
AcDbPolyline
 90
        4
 70
     0
 43
0.0
 10
437.6211065830071
 20
224.9668694329375
 10
437.775156986807
 20
225.2363415338376
 10
437.914486989707
 20
225.4870022154375
 10
438.0259556763071
 20
225.6952717653375
  0
LINE
  5
E0A1
330
20
100
AcDbEntity
  8
0
100
AcDbLine
 10
425.625439260107
 20
210.0986986475377
 30
0.0
 11
425.7237536659072
 21
210.2887583229377
 31
0.0
  0
LINE
  5
E0A2
330
20
100
AcDbEntity
  8
0
100
AcDbLine
 10
425.7394341650072
 20
204.9943608502375
 30
0.0
 11
425.5200617675073
 21
204.5313654185376
 31
0.0
  0
LINE
  5
E0A3
330
20
100
AcDbEntity
  8
0
100
AcDbLine
 10
425.5184325140072
 20
209.8398126643377
 30
0.0
 11
425.7394341650072
 21
210.3125977414376
 31
0.0
  0
LINE
  5
E0A4
330
20
100
AcDbEntity
  8
0
100
AcDbLine
 10
425.7394341650072
 20
210.2052940276375
 30
0.0
 11
425.5200617675073
 21
209.7165999258375
 31
0.0
  0
LWPOLYLINE
  5
E0A6
330
20
100
AcDbEntity
  8
0
100
AcDbPolyline
 90
        3
 70
     0
 43
0.0
 10
425.3375103764072
 20
167.4180869741376
 10
425.4156216842073
 20
166.7379645805374
 10
425.625439260107
 20
166.1356399926376
  0
LWPOLYLINE
  5
E0A7
330
20
100
AcDbEntity
  8
0
100
AcDbPolyline
 90
        5
 70
     0
 43
0.0
 10
425.7394341650072
 20
171.3728117180375
 10
425.6999973864068
 20
171.6631336721375
 10
425.8144777017071
 20
172.0238361231373
 10
426.0761854400072
 20
172.4338571466376
 10
426.4697246496071
 20
172.8691577934377
  0
LINE
  5
E0A8
330
20
100
AcDbEntity
  8
0
100
AcDbLine
 10
425.3837873702072
 20
167.0360866836375
 30
0.0
 11
425.5200617675073
 21
166.5102245747377
 31
0.0
  0
LINE
  5
E0A9
330
20
100
AcDbEntity
  8
0
100
AcDbLine
 10
425.3830871174073
 20
166.8984114358376
 30
0.0
 11
425.5184325140072
 21
166.3945259757376
 31
0.0
  0
LINE
  5
E0AA
330
20
100
AcDbEntity
  8
0
100
AcDbLine
 10
425.3837873702072
 20
172.1934126624375
 30
0.0
 11
425.5200617675073
 21
171.6954590820376
 31
0.0
  0
LINE
  5
E0AE
330
20
100
AcDbEntity
  8
0
100
AcDbLine
 10
438.0979488560071
 20
150.3947941163375
 30
0.0
 11
438.0259556763071
 21
150.5390668748376
 31
0.0
  0
LWPOLYLINE
  5
E0AF
330
20
100
AcDbEntity
  8
0
100
AcDbPolyline
 90
        4
 70
     0
 43
0.0
 10
438.0259556763071
 20
150.5390668748376
 10
437.914486989707
 20
150.7473364247376
 10
437.775156986807
 20
150.9979971062375
 10
437.6211065830071
 20
151.2674692071376
  0
LINE
  5
E0B5
330
20
100
AcDbEntity
  8
0
100
AcDbLine
 10
440.2196101076071
 20
150.6523312407376
 30
0.0
 11
440.6631988909071
 21
149.8848505643375
 31
0.0
  0
LINE
  5
E0B6
330
20
100
AcDbEntity
  8
0
100
AcDbLine
 10
438.3663844283072
 20
152.8750996436377
 30
0.0
 11
426.4697246496071
 21
172.8691577934377
 31
0.0
  0
LWPOLYLINE
  5
E0C1
330
20
100
AcDbEntity
  8
0
100
AcDbPolyline
 90
       11
 70
     0
 43
0.0
 10
435.5622114895072
 20
173.2518752235376
 10
435.833617598907
 20
173.1165031800375
 10
436.0996238600072
 20
173.0487050375377
 10
436.3533193169072
 20
173.0530106233375
 10
436.5832446109073
 20
173.1305399245375
 10
436.7753765766072
 20
173.2713993051376
 10
436.9331860900071
 20
173.4691187333375
 10
437.0592791066072
 20
173.7258850004377
 10
437.1476631052072
 20
174.0295116460376
 10
437.1985800167071
 20
174.3680121872373
 10
437.2149151341073
 20
174.7356664748376
  0
LINE
  5
E0C4
330
20
100
AcDbEntity
  8
0
100
AcDbLine
 10
425.3375103764072
 20
172.8691577934377
 30
0.0
 11
426.4697246496071
 21
172.8691577934377
 31
0.0
  0
LINE
  5
E0CC
330
20
100
AcDbEntity
  8
0
100
AcDbLine
 10
426.4697246496071
 20
203.3651808466375
 30
0.0
 11
438.3663844283072
 21
223.3591942175376
 31
0.0
  0
LINE
  5
E0D2
330
20
100
AcDbEntity
  8
0
100
AcDbLine
 10
440.6631988909071
 20
226.3494880758376
 30
0.0
 11
440.2196101076071
 21
225.5820073994375
 31
0.0
  0
LWPOLYLINE
  5
E0D8
330
20
100
AcDbEntity
  8
0
100
AcDbPolyline
 90
        9
 70
     0
 43
0.0
 10
440.2196101076071
 20
225.5820073994375
 10
440.114467847207
 20
225.3948170832376
 10
440.0048156869072
 20
225.1869376086375
 10
439.8913404062072
 20
224.9549563113375
 10
439.7760324165071
 20
224.6958524981375
 10
439.6627834200073
 20
224.4072916543375
 10
439.5584465688072
 20
224.0878738454375
 10
439.4749705047072
 20
223.7370353140377
 10
439.4372634274072
 20
223.3592573814376
  0
LWPOLYLINE
  5
E0D9
330
20
100
AcDbEntity
  8
0
100
AcDbPolyline
 90
        9
 70
     0
 43
0.0
 10
438.661870785507
 20
226.5795714497377
 10
438.5382293745071
 20
226.3403916329377
 10
438.4188068617071
 20
226.0691028117375
 10
438.3078899359071
 20
225.7592731325374
 10
438.212704841507
 20
225.4040888519376
 10
438.1448640907072
 20
224.9964864043377
 10
438.1220085522071
 20
224.5284297142375
 10
438.1764985340072
 20
223.9910663461377
 10
438.3663987505071
 20
223.3592182876376
  0
LWPOLYLINE
  5
E0DA
330
20
100
AcDbEntity
  8
0
100
AcDbPolyline
 90
        3
 70
     0
 43
0.0
 10
438.0259556763071
 20
225.6952717653375
 10
438.0979488560071
 20
225.8395445238376
 10
438.1231757750071
 20
225.9055191261376
  0
LINE
  5
E0DF
330
20
100
AcDbEntity
  8
0
100
AcDbLine
 10
425.5200617675073
 20
204.5388795581375
 30
0.0
 11
425.3837873702072
 21
204.0409259777375
 31
0.0
  0
LINE
  5
E0E0
330
20
100
AcDbEntity
  8
0
100
AcDbLine
 10
425.3830871174073
 20
209.3359272043374
 30
0.0
 11
425.5184325140072
 21
209.8398126643377
 31
0.0
  0
LINE
  5
E0E1
330
20
100
AcDbEntity
  8
0
100
AcDbLine
 10
425.5200617675073
 20
209.7241140654376
 30
0.0
 11
425.3837873702072
 21
209.1982519564376
 31
0.0
  0
LWPOLYLINE
  5
E0E2
330
20
100
AcDbEntity
  8
0
100
AcDbPolyline
 90
        5
 70
     0
 43
0.0
 10
425.7394341650072
 20
204.8615269220375
 10
425.6999942984071
 20
204.5712317613375
 10
425.8144463219072
 20
204.2105668098376
 10
426.0761122711071
 20
203.8005758864374
 10
426.4697246496071
 20
203.3651808466375
  0
LWPOLYLINE
  5
E0E3
330
20
100
AcDbEntity
  8
0
100
AcDbPolyline
 90
        3
 70
     0
 43
0.0
 10
425.3375103764072
 20
208.8162516660375
 10
425.4156216842073
 20
209.4963740596376
 10
425.625439260107
 20
210.0986986475377
  0
LINE
  5
E0E4
330
20
100
AcDbEntity
  8
0
100
AcDbLine
 10
425.3375103764072
 20
208.8162516660375
 30
0.0
 11
425.3830871174073
 21
209.3359272043374
 31
0.0
  0
LINE
  5
E0E5
330
20
100
AcDbEntity
  8
0
100
AcDbLine
 10
425.3837873702072
 20
209.2057660960374
 30
0.0
 11
425.3375103764072
 21
208.6600340530377
 31
0.0
  0
LINE
  5
E0E6
330
20
100
AcDbEntity
  8
0
100
AcDbLine
 10
425.3375103764072
 20
167.5743045871375
 30
0.0
 11
425.3837873702072
 21
167.0285725441376
 31
0.0
  0
LINE
  5
E0E7
330
20
100
AcDbEntity
  8
0
100
AcDbLine
 10
425.3375103764072
 20
167.4180869741376
 30
0.0
 11
425.3830871174073
 21
166.8984114358376
 31
0.0
  0
LWPOLYLINE
  5
E0E8
330
20
100
AcDbEntity
  8
0
100
AcDbPolyline
 90
        7
 70
     0
 43
0.0
 10
426.4697246496071
 20
185.8855303468375
 10
426.9611110469072
 20
183.7358833076376
 10
427.815975246107
 20
181.5415341564376
 10
429.0817542113073
 20
179.3296671541376
 10
430.7919467594071
 20
177.1596428471376
 10
432.9477258846073
 20
175.1147595743375
 10
435.5622114895072
 20
173.2518752235376
  0
LWPOLYLINE
  5
E0E9
330
20
100
AcDbEntity
  8
0
100
AcDbPolyline
 90
        7
 70
     0
 43
0.0
 10
426.9186717142071
 20
185.9781298653374
 10
427.4100864360071
 20
183.9182688068374
 10
428.2650354892071
 20
181.8169458060376
 10
429.530813626807
 20
179.7013742012372
 10
431.2406573078071
 20
177.6296523390375
 10
433.3955788572072
 20
175.6824178320375
 10
436.0111585541071
 20
173.9133806742376
  0
LINE
  5
E0EC
330
20
100
AcDbEntity
  8
0
100
AcDbLine
 10
438.1231757750071
 20
150.3288195140374
 30
0.0
 11
438.0979488560071
 21
150.3947941163375
 31
0.0
  0
LWPOLYLINE
  5
E120
330
20
100
AcDbEntity
  8
0
100
AcDbPolyline
 90
       11
 70
     0
 43
0.0
 10
436.0111585541071
 20
173.9133806742376
 10
436.1468442448072
 20
173.7631051778374
 10
436.2798505640069
 20
173.6642763891374
 10
436.4067507247072
 20
173.6210630770375
 10
436.5216270528073
 20
173.6361041049375
 10
436.6177284552072
 20
173.7049386589376
 10
436.6966103953071
 20
173.8227660810373
 10
436.7596898150073
 20
173.9919442232376
 10
436.8038454512072
 20
174.2048762212376
 10
436.8293167410072
 20
174.4540580592375
 10
436.8375103764072
 20
174.7356664748376
  0
LINE
  5
E12B
330
20
100
AcDbEntity
  8
0
100
AcDbLine
 10
437.2149151341073
 20
174.7356664746376
 30
0.0
 11
436.8375103764072
 21
174.7356664746376
 31
0.0
  0
LWPOLYLINE
  5
E130
330
20
100
AcDbEntity
  8
0
100
AcDbPolyline
 90
        7
 70
     0
 43
0.0
 10
436.0111585541071
 20
202.3209579659375
 10
433.3958728913072
 20
200.5521512847376
 10
431.2412720078071
 20
198.6053287863376
 10
429.5311676144072
 20
196.5334664060376
 10
428.2652428135071
 20
194.4178093441376
 10
427.4102036072071
 20
192.3164381831375
 10
426.9186717142071
 20
190.2562087747377
  0
LWPOLYLINE
  5
E131
330
20
100
AcDbEntity
  8
0
100
AcDbPolyline
 90
        7
 70
     0
 43
0.0
 10
435.5622114895072
 20
202.9824634165377
 10
432.9480218819072
 20
201.1198230042376
 10
430.7925648849073
 20
199.0753729930376
 10
429.0821100149071
 20
196.9051992778376
 10
427.8161835551072
 20
194.6932416245376
 10
426.9612283301071
 20
192.4988403636375
 10
426.4697246496071
 20
190.3488082933375
  0
LWPOLYLINE
  5
E16E
330
20
100
AcDbEntity
  8
0
100
AcDbPolyline
 90
        9
 70
     0
 43
0.0
 10
438.1731833914072
 20
225.9820500990377
 10
438.1596905154068
 20
225.9422633856376
 10
438.1198432810071
 20
225.8578167762375
 10
438.0554416377072
 20
225.7326352538377
 10
437.9696469744072
 20
225.5729676308376
 10
437.8668189132072
 20
225.3870163342376
 10
437.7527627071071
 20
225.1853428973376
 10
437.634100791807
 20
224.9796843750377
 10
437.5178555831072
 20
224.7822063889376
  0
LWPOLYLINE
  5
E172
330
20
100
AcDbEntity
  8
0
100
AcDbPolyline
 90
        5
 70
     0
 43
0.0
 10
426.4697246496071
 20
190.3488082933375
 10
426.2999895466071
 20
189.2700724313375
 10
426.245672733607
 20
188.1171693200375
 10
426.299990248107
 20
186.9642663360376
 10
426.4697246496071
 20
185.8855303468375
  0
LWPOLYLINE
  5
E173
330
20
100
AcDbEntity
  8
0
100
AcDbPolyline
 90
        5
 70
     0
 43
0.0
 10
426.9186717142071
 20
190.2562087747377
 10
426.8055311577072
 20
189.2221628116376
 10
426.7693037702072
 20
188.1171693200375
 10
426.8055313473069
 20
187.0121758433375
 10
426.9186717142071
 20
185.9781298653374
  0
LINE
  5
E174
330
20
100
AcDbEntity
  8
0
100
AcDbLine
 10
425.3837873702072
 20
204.0484401172377
 30
0.0
 11
425.3375103764072
 21
203.5319003949377
 31
0.0
  0
LWPOLYLINE
  5
E175
330
20
100
AcDbEntity
  8
0
100
AcDbPolyline
 90
        4
 70
     0
 43
0.0
 10
425.3375103764072
 20
203.3651808466375
 10
425.3831027674071
 20
203.8849449165375
 10
425.5184941629072
 20
204.3889107954377
 10
425.7394341650072
 20
204.8615269220375
  0
LINE
  5
E17B
102
{ACAD_REACTORS
330
FC81
102
}
330
20
100
AcDbEntity
  8
0
100
AcDbLine
 10
425.3375103764072
 20
203.5394145345374
 30
0.0
 11
425.3375103764072
 21
208.6600340530377
 31
0.0
  0
LINE
  5
E17C
330
20
100
AcDbEntity
  8
0
100
AcDbLine
 10
425.3375103764072
 20
172.7024382451374
 30
0.0
 11
425.3375103764072
 21
203.5319003949377
 31
0.0
  0
LINE
  5
E17D
330
20
100
AcDbEntity
  8
0
100
AcDbLine
 10
425.3375103764072
 20
167.5743045871375
 30
0.0
 11
425.3375103764072
 21
172.6949241056376
 31
0.0
  0
LINE
  5
E17E
330
20
100
AcDbEntity
  8
0
100
AcDbLine
 10
425.7394341650072
 20
210.2052940276375
 30
0.0
 11
425.7394341650072
 21
210.3125977414376
 31
0.0
  0
LINE
  5
E17F
330
20
100
AcDbEntity
  8
0
100
AcDbLine
 10
425.7394341650072
 20
204.8615269220375
 30
0.0
 11
425.7394341650072
 21
204.9868467106377
 31
0.0
  0
LINE
  5
E180
330
20
100
AcDbEntity
  8
0
100
AcDbLine
 10
425.7394341650072
 20
204.9943608502375
 30
0.0
 11
425.7394341650072
 21
210.1977798881377
 31
0.0
  0
LINE
  5
E181
330
20
100
AcDbEntity
  8
0
100
AcDbLine
 10
425.7394341650072
 20
171.2474919294376
 30
0.0
 11
425.7394341650072
 21
171.3728117180375
 31
0.0
  0
LINE
  5
E182
330
20
100
AcDbEntity
  8
0
100
AcDbLine
 10
425.7394341650072
 20
166.0365587520375
 30
0.0
 11
425.7394341650072
 21
171.2399777899376
 31
0.0
  0
LINE
  5
E184
330
20
100
AcDbEntity
  8
0
100
AcDbLine
 10
425.7394341650072
 20
165.9217408987375
 30
0.0
 11
425.7394341650072
 21
165.9455803171375
 31
0.0
  0
LINE
  5
E185
330
20
100
AcDbEntity
  8
0
100
AcDbLine
 10
426.4697246496071
 20
190.3488082933375
 30
0.0
 11
426.4697246496071
 21
203.3651808466375
 31
0.0
  0
LINE
  5
E186
330
20
100
AcDbEntity
  8
0
100
AcDbLine
 10
426.4697246496071
 20
172.8691577934377
 30
0.0
 11
426.4697246496071
 21
185.8855303468375
 31
0.0
  0
LWPOLYLINE
  5
E18C
330
20
100
AcDbEntity
  8
0
100
AcDbPolyline
 90
        4
 70
     0
 43
0.0
 10
425.3375103764072
 20
172.8691577934377
 10
425.3830623392071
 20
172.3496224560373
 10
425.5184081099072
 20
171.8456636841376
 10
425.7394341650072
 20
171.3728117180375
  0
LINE
  5
E18D
330
20
100
AcDbEntity
  8
0
100
AcDbLine
 10
425.3375103764072
 20
172.7024382451374
 30
0.0
 11
425.3837873702072
 21
172.1858985228374
 31
0.0
  0
LINE
  5
E1BB
330
20
100
AcDbEntity
  8
0
100
AcDbLine
 10
436.0111585541071
 20
202.3209579659375
 30
0.0
 11
436.0111585541071
 21
173.9133806742376
 31
0.0
  0
LINE
  5
E1BC
330
20
100
AcDbEntity
  8
0
100
AcDbLine
 10
436.8375103764072
 20
174.7356669245377
 30
0.0
 11
436.8375103764072
 21
201.4986717205375
 31
0.0
  0
LINE
  5
E1BD
330
20
100
AcDbEntity
  8
0
100
AcDbLine
 10
437.2149151341073
 20
174.7356664748376
 30
0.0
 11
437.2149151341073
 21
201.4986721653376
 31
0.0
  0
LWPOLYLINE
  5
E1C1
330
20
100
AcDbEntity
  8
0
100
AcDbPolyline
 90
       11
 70
     0
 43
0.0
 10
436.8375103764072
 20
201.4986721653376
 10
436.8293167410072
 20
201.7802805809377
 10
436.8038454513071
 20
202.0294624189375
 10
436.7596898150073
 20
202.2423944169374
 10
436.6966103953071
 20
202.4115725591376
 10
436.6177284552072
 20
202.5293999811375
 10
436.5216270529072
 20
202.5982345350374
 10
436.4067507242071
 20
202.6132755640376
 10
436.2798505659072
 20
202.5700622488376
 10
436.1468442400071
 20
202.4712334658376
 10
436.0111585541071
 20
202.3209579659375
  0
LWPOLYLINE
  5
E1C2
330
20
100
AcDbEntity
  8
0
100
AcDbPolyline
 90
        9
 70
     0
 43
0.0
 10
439.4372634274072
 20
152.8750812587375
 10
439.4750681840071
 20
152.4967658808375
 10
439.5587104928071
 20
152.1455488057377
 10
439.6631884677072
 20
151.8259311869375
 10
439.7765153007068
 20
151.5373392021374
 10
439.8918215729072
 20
151.2783558132376
 10
440.0052120175072
 20
151.0466232154375
 10
440.1147006951072
 20
150.8390947032374
 10
440.2196101076071
 20
150.6523312407376
  0
LWPOLYLINE
  5
E1C5
330
20
100
AcDbEntity
  8
0
100
AcDbPolyline
 90
        4
 70
     0
 43
0.0
 10
426.9186756757071
 20
190.2562108872377
 10
426.7581991840073
 20
190.2855911289374
 10
426.6071620324071
 20
190.3167510756375
 10
426.469829685107
 20
190.3488083553376
  0
LINE
  5
E1C8
330
20
100
AcDbEntity
  8
0
  6
CENTER
 62
     7
100
AcDbLine
 10
445.3375103764072
 20
188.1171693200375
 30
0.0
 11
422.337510376407
 21
188.1171693200375
 31
0.0
  0
LWPOLYLINE
  5
E1C9
330
20
100
AcDbEntity
  8
0
100
AcDbPolyline
 90
        4
 70
     0
 43
0.0
 10
426.9186598904071
 20
185.9781361667375
 10
426.7581582916071
 20
185.9487588562374
 10
426.6070937985071
 20
185.9175970386375
 10
426.4697311977072
 20
185.8855303472376
  0
LINE
  5
E1CC
330
20
100
AcDbEntity
  8
0
100
AcDbLine
 10
438.1231757750071
 20
150.3288195140374
 30
0.0
 11
438.1231757750071
 21
144.1536764011376
 31
0.0
  0
LINE
  5
E1CD
330
20
100
AcDbEntity
  8
0
100
AcDbLine
 10
438.1231757750071
 20
232.0806622390377
 30
0.0
 11
438.1231757750071
 21
225.9055191261376
 31
0.0
  0
LINE
  5
E1CE
330
20
100
AcDbEntity
  8
0
100
AcDbLine
 10
438.1731833914072
 20
150.2522885410375
 30
0.0
 11
438.1731833914072
 21
144.0573978924373
 31
0.0
  0
LINE
  5
E1CF
330
20
100
AcDbEntity
  8
0
100
AcDbLine
 10
438.1731833914072
 20
225.9820500990377
 30
0.0
 11
438.1731833914072
 21
232.1769407476374
 31
0.0
  0
LINE
  5
E1D0
330
20
100
AcDbEntity
  8
0
100
AcDbLine
 10
438.3663844283072
 20
223.3591942175376
 30
0.0
 11
438.3663844283072
 21
152.8750996436377
 31
0.0
  0
LINE
  5
E1D2
330
20
100
AcDbEntity
  8
0
100
AcDbLine
 10
438.8375103764071
 20
149.3476435702376
 30
0.0
 11
438.8375103764071
 21
140.2560419904376
 31
0.0
  0
LINE
  5
E1D4
330
20
100
AcDbEntity
  8
0
100
AcDbLine
 10
438.8375103764071
 20
226.8862061748377
 30
0.0
 11
438.8375103764071
 21
235.9782966497375
 31
0.0
  0
LINE
  5
E1DD
330
20
100
AcDbEntity
  8
0
100
AcDbLine
 10
439.4372634274072
 20
223.3592573814376
 30
0.0
 11
439.4372634274072
 21
152.8750812587375
 31
0.0
  0
LINE
  5
E1E8
330
20
100
AcDbEntity
  8
0
100
AcDbLine
 10
440.6631988909071
 20
149.8848505643375
 30
0.0
 11
440.6631988909071
 21
141.2522366885376
 31
0.0
  0
LINE
  5
E1E9
330
20
100
AcDbEntity
  8
0
100
AcDbLine
 10
440.6631988909071
 20
226.3494880758376
 30
0.0
 11
440.6631988909071
 21
234.9821019516376
 31
0.0
  0
LINE
  5
E1ED
330
20
100
AcDbEntity
  8
0
100
AcDbLine
 10
438.8375253596072
 20
226.8861801236377
 30
0.0
 11
438.8375103764071
 21
226.8866950699377
 31
0.0
  0
LWPOLYLINE
  5
E1EE
330
20
100
AcDbEntity
  8
0
100
AcDbPolyline
 90
       11
 70
     0
 43
0.0
 10
437.2149151341073
 20
201.4986721653376
 10
437.1985800148071
 20
201.8663264526376
 10
437.1476631058071
 20
202.2048269943375
 10
437.0592791064072
 20
202.5084536395377
 10
436.9331860900071
 20
202.7652199068377
 10
436.7753765766072
 20
202.9629393349376
 10
436.5832446109073
 20
203.1037987157377
 10
436.3533193170073
 20
203.1813280170374
 10
436.0996238602072
 20
203.1856336009375
 10
435.8336175971071
 20
203.1178354675377
 10
435.5622114895072
 20
202.9824634165377
  0
LWPOLYLINE
  5
E1F1
330
20
100
AcDbEntity
  8
0
100
AcDbPolyline
 90
        7
 70
     0
 43
0.0
 10
440.6631988909071
 20
141.2522366885376
 10
440.6244991244071
 20
140.4804661442375
 10
440.6001949531072
 20
139.7615087782374
 10
440.5919276288072
 20
139.1438545848375
 10
440.6001969598071
 20
138.6689365411377
 10
440.6245003348072
 20
138.3687234101375
 10
440.6631988909071
 20
138.2636525942374
  0
LINE
  5
E1FC
102
{ACAD_REACTORS
330
FC69
102
}
330
20
100
AcDbEntity
  8
0
100
AcDbLine
 10
442.3375103764072
 20
238.1171693200375
 30
0.0
 11
442.3375103764072
 21
138.1171693200375
 31
0.0
  0
LINE
  5
E1FD
102
{ACAD_REACTORS
330
FC69
330
FC81
102
}
330
20
100
AcDbEntity
  8
0
 62
     7
100
AcDbLine
 10
442.3375103764072
 20
135.1171693200375
 30
0.0
 11
442.3375103764071
 21
241.1171693200375
 31
0.0
  0
LWPOLYLINE
  5
E1FF
330
20
100
AcDbEntity
  8
0
100
AcDbPolyline
 90
        7
 70
     0
 43
0.0
 10
440.6631988909071
 20
234.9821019516376
 10
440.6244969556072
 20
235.7538792334377
 10
440.6001894532072
 20
236.4728243607375
 10
440.5919264823071
 20
237.0904709334376
 10
440.600198582207
 20
237.5653908516377
 10
440.6244999186069
 20
237.8656121882376
 10
440.6631988909071
 20
237.9706860458376
  0
LWPOLYLINE
  5
E200
330
20
100
AcDbEntity
  8
0
100
AcDbPolyline
 90
        4
 70
     0
 43
0.0
 10
436.0111598373072
 20
202.3209628538376
 10
435.8311339438072
 20
202.5118036038377
 10
435.6776450158071
 20
202.7379602201376
 10
435.5622098165071
 20
202.9824634165377
  0
LWPOLYLINE
  5
E207
330
20
100
AcDbEntity
  8
0
100
AcDbPolyline
 90
        4
 70
     0
 43
0.0
 10
436.0111598467071
 20
173.9133757483375
 10
435.8311282853073
 20
173.7225343187376
 10
435.6776326849071
 20
173.4963781363376
 10
435.5621899082072
 20
173.2518752283375
  0
LINE
  5
E20D
330
20
100
AcDbEntity
  8
0
100
AcDbLine
 10
437.2149112336073
 20
201.4986898747376
 30
0.0
 11
436.8375166411071
 21
201.4986751132374
 31
0.0
  0
LWPOLYLINE
  5
E213
330
20
100
AcDbEntity
  8
0
100
AcDbPolyline
 90
        9
 70
     0
 43
0.0
 10
438.3663885965072
 20
152.8750926385376
 10
438.1763307055072
 20
152.2423710374375
 10
438.1219877636072
 20
151.7045049952375
 10
438.1450466970072
 20
151.2362283467377
 10
438.2130605566072
 20
150.8286413059376
 10
438.3083308920072
 20
150.4736691007376
 10
438.4192205703071
 20
150.1642048849376
 10
438.5384948695072
 20
149.8933941594376
 10
438.661870785507
 20
149.6547671904376
  0
LINE
  5
E214
330
20
100
AcDbEntity
  8
0
100
AcDbLine
 10
438.1721999382071
 20
232.1796296150377
 30
0.0
 11
438.1731833914072
 21
232.1769407476374
 31
0.0
  0
LINE
  5
E218
330
20
100
AcDbEntity
  8
0
100
AcDbLine
 10
425.3375103764072
 20
203.3651808466375
 30
0.0
 11
426.4697246496071
 21
203.3651808466375
 31
0.0
  0
LINE
  5
E21C
330
20
100
AcDbEntity
  8
0
100
AcDbLine
 10
438.1731833914072
 20
144.0573978924373
 30
0.0
 11
438.1722018036071
 21
144.0547063109374
 31
0.0
  0
LINE
  5
E21D
330
20
100
AcDbEntity
  8
0
100
AcDbLine
 10
438.1231757750071
 20
232.0806622390377
 30
0.0
 11
438.1219742447071
 21
232.0830477797377
 31
0.0
  0
LWPOLYLINE
  5
E21E
330
20
100
AcDbEntity
  8
0
100
AcDbPolyline
 90
        4
 70
     0
 43
0.0
 10
438.8380477836071
 20
226.8843862843377
 10
438.8377494200072
 20
226.8849478995377
 10
438.8375701946071
 20
226.8857172797375
 10
438.8375253596072
 20
226.8861801236377
  0
LWPOLYLINE
  5
E228
330
20
100
AcDbEntity
  8
0
100
AcDbPolyline
 90
        4
 70
     0
 43
0.0
 10
438.8380477836071
 20
149.3499523558377
 10
438.8377494200072
 20
149.3493907405374
 10
438.8375701946071
 20
149.3486213603375
 10
438.8375103764071
 20
149.3476435702376
  0
LINE
  5
E229
330
20
100
AcDbEntity
  8
0
100
AcDbLine
 10
438.1219742447071
 20
144.1512908604376
 30
0.0
 11
438.1231757750071
 21
144.1536764011376
 31
0.0
  0
LWPOLYLINE
  5
E231
330
20
100
AcDbEntity
  8
0
100
AcDbPolyline
 90
        5
 70
     0
 43
0.0
 10
440.2196101076071
 20
225.5820073994375
 10
439.6158143297069
 20
225.9403516281377
 10
439.1145843841072
 20
226.2514608751376
 10
438.7819896151071
 20
226.4743264444375
 10
438.661870785507
 20
226.5795714497377
  0
LINE
  5
E236
330
20
100
AcDbEntity
  8
0
100
AcDbLine
 10
438.1382235256071
 20
225.8967692748377
 30
0.0
 11
438.1231757750071
 21
225.9055191261376
 31
0.0
  0
LINE
  5
E23E
330
20
100
AcDbEntity
  8
0
100
AcDbLine
 10
438.1231757750071
 20
150.3288195140374
 30
0.0
 11
438.1382243879071
 21
150.3375698667376
 31
0.0
  0
LWPOLYLINE
  5
E241
330
20
100
AcDbEntity
  8
0
100
AcDbPolyline
 90
        5
 70
     0
 43
0.0
 10
440.2196101076071
 20
150.6523312407376
 10
439.6158143702072
 20
150.2939870531375
 10
439.1145844233071
 20
149.9828778144375
 10
438.7819896262072
 20
149.7600122237376
 10
438.661870785507
 20
149.6547671904376
  0
LINE
  5
E248
330
20
100
AcDbEntity
  8
0
100
AcDbLine
 10
438.122549755907
 20
232.0832214165377
 30
0.0
 11
438.1731833914072
 21
232.0519641832377
 31
0.0
  0
LWPOLYLINE
  5
E24A
330
20
100
AcDbEntity
  8
0
100
AcDbPolyline
 90
        6
 70
     0
 43
0.0
 10
438.8380477836071
 20
226.8843862843377
 10
438.9395641462072
 20
226.8434687091376
 10
439.2045454258073
 20
226.7601467629375
 10
439.6057813253071
 20
226.6427168451374
 10
440.1062677615072
 20
226.5018507532376
 10
440.6631988909071
 20
226.3494880758376
  0
LINE
  5
E24B
330
20
100
AcDbEntity
  8
0
100
AcDbLine
 10
438.3663844283072
 20
223.3592574237377
 30
0.0
 11
439.4372634274072
 21
223.3592574237377
 31
0.0
  0
LWPOLYLINE
  5
E24D
330
20
100
AcDbEntity
  8
0
100
AcDbPolyline
 90
        6
 70
     0
 43
0.0
 10
438.8380477836071
 20
149.3499523558377
 10
438.9395641462072
 20
149.3908699309375
 10
439.2045454258073
 20
149.4741918771375
 10
439.6057813253071
 20
149.5916217950375
 10
440.1062677615072
 20
149.7324878869376
 10
440.6631988909071
 20
149.8848505643375
  0
LINE
  5
E252
330
20
100
AcDbEntity
  8
0
100
AcDbLine
 10
438.1731833914072
 20
144.1823744569376
 30
0.0
 11
438.1231757750071
 21
144.1536764011376
 31
0.0
  0
LINE
  5
E262
330
20
100
AcDbEntity
  8
0
100
AcDbLine
 10
440.6632032684071
 20
234.9821054655376
 30
0.0
 11
438.8375103770072
 21
234.9821007651375
 31
0.0
  0
LINE
  5
E264
330
20
100
AcDbEntity
  8
0
100
AcDbLine
 10
440.6631988909071
 20
234.9821019516376
 30
0.0
 11
442.3375103764072
 21
235.1285852258375
 31
0.0
  0
LINE
  5
E266
102
{ACAD_REACTORS
330
FC69
102
}
330
20
100
AcDbEntity
  8
0
100
AcDbLine
 10
440.6631988909071
 20
237.9706860458376
 30
0.0
 11
442.3375103764072
 21
238.1171693200375
 31
0.0
  0
LINE
  5
E26A
102
{ACAD_REACTORS
330
FC9A
102
}
330
20
100
AcDbEntity
  8
0
100
AcDbLine
 10
292.7923379599071
 20
87.37003405451231
 30
0.0
 11
292.5231544027072
 21
84.29325191711228
 31
0.0
  0
LINE
  5
E26D
330
20
100
AcDbEntity
  8
0
100
AcDbLine
 10
297.2659273437071
 20
88.75821468581234
 30
0.0
 11
297.1898744635071
 21
89.11290671041227
 31
0.0
  0
LINE
  5
E26F
330
20
100
AcDbEntity
  8
0
100
AcDbLine
 10
297.3602525161073
 20
88.68409407451229
 30
0.0
 11
297.2964570149071
 21
88.98162068281228
 31
0.0
  0
LINE
  5
E276
330
20
100
AcDbEntity
  8
0
100
AcDbLine
 10
298.3809100943071
 20
88.45757890211229
 30
0.0
 11
298.3701874871071
 21
88.50758651851231
 31
0.0
  0
LINE
  5
E277
330
20
100
AcDbEntity
  8
0
100
AcDbLine
 10
299.4512596266071
 20
99.74698120511231
 30
0.0
 11
293.0352295034071
 21
88.16487542771231
 31
0.0
  0
LWPOLYLINE
  5
E27E
330
20
100
AcDbEntity
  8
0
100
AcDbPolyline
 90
        3
 70
     0
 43
0.0
 10
297.3250339143072
 20
89.1629143268123
 10
297.2919102382073
 20
89.00965571051235
 10
297.2962226589073
 20
88.98317735131229
  0
LINE
  5
E282
330
20
100
AcDbEntity
  8
0
100
AcDbLine
 10
295.6582217712071
 20
85.96756340261229
 30
0.0
 11
295.5117384970071
 21
84.29325191711228
 31
0.0
  0
LINE
  5
E288
330
20
100
AcDbEntity
  8
0
100
AcDbLine
 10
295.6582227982071
 20
87.79325191671231
 30
0.0
 11
295.6582187648072
 21
85.96755992611228
 31
0.0
  0
LWPOLYLINE
  5
E28D
330
20
100
AcDbEntity
  8
0
100
AcDbPolyline
 90
        3
 70
     0
 43
0.0
 10
297.1611170594071
 20
88.93287993961228
 10
297.1556666639072
 20
88.99666150171229
 10
297.1898744635071
 20
89.11290671041227
  0
LWPOLYLINE
  5
E28E
330
20
100
AcDbEntity
  8
0
100
AcDbPolyline
 90
        5
 70
     0
 43
0.0
 10
297.2962226589073
 20
88.98317735131229
 10
297.3576999518073
 20
88.85560530671233
 10
297.5164237841072
 20
88.7162753038123
 10
297.7539891980072
 20
88.60480661721231
 10
298.0469943138071
 20
88.5328134375123
  0
LWPOLYLINE
  5
E290
330
20
100
AcDbEntity
  8
0
100
AcDbPolyline
 90
        4
 70
     0
 43
0.0
 10
294.4649505050071
 20
87.78350385551233
 10
294.4118933790072
 20
87.8476877610123
 10
294.3558500051072
 20
87.91293715091228
 10
294.2959637542072
 20
87.97956872691228
  0
LWPOLYLINE
  5
E293
330
20
100
AcDbEntity
  8
0
100
AcDbPolyline
 90
       13
 70
     0
 43
0.0
 10
294.2959637542072
 20
87.97956872691228
 10
294.2312257198071
 20
88.0474895966123
 10
294.1604964005072
 20
88.11617502491229
 10
294.0831005214072
 20
88.18481458881228
 10
293.9985152525071
 20
88.2521056263123
 10
293.9064620047073
 20
88.31618818851231
 10
293.8072140698072
 20
88.37475025761234
 10
293.7017028906071
 20
88.42503713511231
 10
293.5889797325073
 20
88.46177606831231
 10
293.4585661108071
 20
88.46737611131231
 10
293.3150590754073
 20
88.42974192191229
 10
293.1812580144073
 20
88.35350434911232
 10
293.0360078307073
 20
88.16627702291231
  0
LINE
  5
E295
330
20
100
AcDbEntity
  8
0
100
AcDbLine
 10
304.0299455315071
 20
101.2469749233123
 30
0.0
 11
303.8656608990073
 21
101.1107005260123
 31
0.0
  0
LINE
  5
E296
330
20
100
AcDbEntity
  8
0
100
AcDbLine
 10
303.9731181012072
 20
101.1107005260123
 30
0.0
 11
304.1374027336071
 21
101.2469749233123
 31
0.0
  0
LINE
  5
E29B
330
20
100
AcDbEntity
  8
0
100
AcDbLine
 10
303.8656608990073
 20
101.1107005260123
 30
0.0
 11
303.7146557144071
 21
100.8913281285122
 31
0.0
  0
LINE
  5
E29C
330
20
100
AcDbEntity
  8
0
100
AcDbLine
 10
303.8221129166073
 20
100.8913281285122
 30
0.0
 11
303.9731181012072
 21
101.1107005260123
 31
0.0
  0
LINE
  5
E29D
330
20
100
AcDbEntity
  8
0
100
AcDbLine
 10
302.1801411162072
 20
100.8913281285122
 30
0.0
 11
294.9243231205072
 21
87.79325191711228
 31
0.0
  0
LINE
  5
E29F
330
20
100
AcDbEntity
  8
0
100
AcDbLine
 10
303.7146557144071
 20
100.8913281285122
 30
0.0
 11
297.1898744635071
 21
89.11290671041227
 31
0.0
  0
LINE
  5
E2A0
330
20
100
AcDbEntity
  8
0
100
AcDbLine
 10
297.3250339143072
 20
89.1629143268123
 30
0.0
 11
303.8221129166073
 21
100.8913281285122
 31
0.0
  0
LWPOLYLINE
  5
E2BA
330
20
100
AcDbEntity
  8
0
100
AcDbPolyline
 90
        4
 70
     0
 43
0.0
 10
297.3894950579071
 20
88.66111531911229
 10
297.2586370624071
 20
88.76394338041228
 10
297.1790232205071
 20
88.87799958641233
 10
297.1611170594071
 20
88.93287993961228
  0
LWPOLYLINE
  5
E2C0
330
20
100
AcDbEntity
  8
0
100
AcDbPolyline
 90
        4
 70
     0
 43
0.0
 10
302.0755064056073
 20
101.2932519171122
 10
302.1118456593071
 20
101.2476751762122
 10
302.1470807631071
 20
101.1123297795121
 10
302.1801411162072
 20
100.8913281285122
  0
LWPOLYLINE
  5
E2C1
330
20
100
AcDbEntity
  8
0
100
AcDbPolyline
 90
        5
 70
     0
 43
0.0
 10
386.9959454835072
 20
88.5328134375123
 10
387.2715539144071
 20
88.60480661721231
 10
387.4821836433071
 20
88.7162753038123
 10
387.6072392841071
 20
88.85560530671233
 10
387.6273756430072
 20
88.90525011691233
  0
LINE
  5
E2C7
330
20
100
AcDbEntity
  8
0
100
AcDbLine
 10
298.0469943138071
 20
88.5328134375123
 30
0.0
 11
298.3701874871071
 21
88.50758651851231
 31
0.0
  0
LWPOLYLINE
  5
E2C8
330
20
100
AcDbEntity
  8
0
100
AcDbPolyline
 90
        5
 70
     0
 43
0.0
 10
298.2350280363072
 20
88.45757890211229
 10
297.9978186992072
 20
88.47107177811233
 10
297.7699525362073
 20
88.51091901251232
 10
297.563301678107
 20
88.57532065591231
 10
297.3894950579071
 20
88.66111531911229
  0
LWPOLYLINE
  5
E2C9
330
20
100
AcDbEntity
  8
0
100
AcDbPolyline
 90
        7
 70
     0
 43
0.0
 10
295.6582217712071
 20
85.96756340261229
 10
294.8864512269071
 20
86.00626316911229
 10
294.1674938609073
 20
86.0305673404123
 10
293.5498396675071
 20
86.03883466471229
 10
293.0749216238071
 20
86.03056533371233
 10
292.7747084928071
 20
86.00626195871226
 10
292.6696376769072
 20
85.96756340261229
  0
LINE
  5
E2CB
330
20
100
AcDbEntity
  8
0
100
AcDbLine
 10
392.523154402707
 20
84.29325191711228
 30
0.0
 11
292.5231544027072
 21
84.29325191711228
 31
0.0
  0
LINE
  5
E2CC
102
{ACAD_REACTORS
330
FC9A
330
FCB2
102
}
330
20
100
AcDbEntity
  8
0
 62
     7
100
AcDbLine
 10
289.5231544027071
 20
84.29325191711226
 30
0.0
 11
395.5231544027071
 21
84.29325191711226
 31
0.0
  0
LINE
  5
E2D9
330
20
100
AcDbEntity
  8
0
100
AcDbLine
 10
389.3880870343071
 20
85.96756340261229
 30
0.0
 11
295.6582217712071
 21
85.96756340261229
 31
0.0
  0
LINE
  5
E2DE
330
20
100
AcDbEntity
  8
0
100
AcDbLine
 10
386.6788482316072
 20
88.50758651851231
 30
0.0
 11
386.9959454835072
 21
88.5328134375123
 31
0.0
  0
LINE
  5
E2F8
330
20
100
AcDbEntity
  8
0
100
AcDbLine
 10
390.3842817324071
 20
87.79325191711228
 30
0.0
 11
294.6620270731072
 21
87.79325191711228
 31
0.0
  0
LINE
  5
E2F9
330
20
100
AcDbEntity
  8
0
100
AcDbLine
 10
386.8260916985072
 20
88.45757890211229
 30
0.0
 11
298.2350280363072
 21
88.45757890211229
 31
0.0
  0
LINE
  5
E2FA
330
20
100
AcDbEntity
  8
0
100
AcDbLine
 10
386.6788482316072
 20
88.50758651851231
 30
0.0
 11
298.3701874871071
 21
88.50758651851231
 31
0.0
  0
LWPOLYLINE
  5
E319
330
20
100
AcDbEntity
  8
0
100
AcDbPolyline
 90
        5
 70
     0
 43
0.0
 10
380.1340856454073
 20
100.8913281285122
 10
380.7969345154072
 20
100.9307649071123
 10
381.4149968185073
 20
100.8162845919122
 10
381.9521893151073
 20
100.5545768535123
 10
382.3770830351073
 20
100.1610376439119
  0
LINE
  5
E31C
330
20
100
AcDbEntity
  8
0
  6
CENTER
 62
     7
100
AcDbLine
 10
342.5231544027071
 20
81.29325191711226
 30
0.0
 11
342.5231544027071
 21
104.2932519171122
 31
0.0
  0
LWPOLYLINE
  5
E323
330
20
100
AcDbEntity
  8
0
100
AcDbPolyline
 90
        5
 70
     0
 43
0.0
 10
302.1801411162072
 20
100.8913281285122
 10
301.3410493788071
 20
100.9195038030122
 10
300.5639994690071
 20
100.7241609336122
 10
299.9156399524071
 20
100.3218497762123
 10
299.4512596266071
 20
99.74698120511231
  0
LINE
  5
E328
330
20
100
AcDbEntity
  8
0
100
AcDbLine
 10
378.3419291731072
 20
100.8913281285122
 30
0.0
 11
380.1340856454073
 21
100.8913281285122
 31
0.0
  0
LINE
  5
E329
330
20
100
AcDbEntity
  8
0
100
AcDbLine
 10
303.8221129166073
 20
100.8913281285122
 30
0.0
 11
378.2344719709072
 21
100.8913281285122
 31
0.0
  0
LINE
  5
E32A
330
20
100
AcDbEntity
  8
0
100
AcDbLine
 10
302.1801411162072
 20
100.8913281285122
 30
0.0
 11
303.7146557144071
 21
100.8913281285122
 31
0.0
  0
LINE
  5
E32B
330
20
100
AcDbEntity
  8
0
100
AcDbLine
 10
380.0294509347073
 20
101.2932519171122
 30
0.0
 11
302.0755064056073
 21
101.2932519171122
 31
0.0
  0
LWPOLYLINE
  5
E330
330
20
100
AcDbEntity
  8
0
100
AcDbPolyline
 90
        7
 70
     0
 43
0.0
 10
392.3766711285071
 20
85.96756340261229
 10
392.2716004272071
 20
86.00626316911229
 10
391.971390118207
 20
86.0305673404123
 10
391.4964748862071
 20
86.03883466471229
 10
390.8788205172072
 20
86.03056533371233
 10
390.1598585092071
 20
86.00626195871226
 10
389.3880870343071
 20
85.96756340261229
  0
LINE
  5
E331
330
20
100
AcDbEntity
  8
0
100
AcDbLine
 10
377.5377931138072
 20
101.2932519171122
 30
0.0
 11
377.7831431309071
 21
101.2469749233123
 31
0.0
  0
LINE
  5
E332
330
20
100
AcDbEntity
  8
0
100
AcDbLine
 10
377.8906003331072
 20
101.2469749233123
 30
0.0
 11
377.6452503160073
 21
101.2932519171122
 31
0.0
  0
LINE
  5
E333
330
20
100
AcDbEntity
  8
0
100
AcDbLine
 10
304.1374027336071
 20
101.2469749233123
 30
0.0
 11
304.3095223524072
 21
101.2932519171122
 31
0.0
  0
LINE
  5
E334
330
20
100
AcDbEntity
  8
0
100
AcDbLine
 10
304.2020651502072
 20
101.2932519171122
 30
0.0
 11
304.0299455315071
 21
101.2469749233123
 31
0.0
  0
LWPOLYLINE
  5
E335
330
20
100
AcDbEntity
  8
0
100
AcDbPolyline
 90
        4
 70
     0
 43
0.0
 10
387.4690564220072
 20
88.57518556001229
 10
387.2780622780071
 20
88.51086419091229
 10
387.059964911807
 20
88.47106286371229
 10
386.8260916985072
 20
88.45757890211229
  0
LWPOLYLINE
  5
E344
330
20
100
AcDbEntity
  8
0
100
AcDbPolyline
 90
        9
 70
     0
 43
0.0
 10
391.8421176602072
 20
88.26437369701233
 10
391.6089822856072
 20
88.4544315881123
 10
391.3876848776071
 20
88.50877452991232
 10
391.1843972737072
 20
88.48571559661229
 10
390.9980229741071
 20
88.41770173691228
 10
390.8292497420072
 20
88.32243140151232
 10
390.6769597061071
 20
88.21154172331231
 10
390.5396145370072
 20
88.09226742401234
 10
390.4152292163072
 20
87.96889150801229
  0
LWPOLYLINE
  5
E345
330
20
100
AcDbEntity
  8
0
100
AcDbPolyline
 90
        3
 70
     0
 43
0.0
 10
377.7831431309071
 20
101.2469749233123
 10
378.0179690509072
 20
101.1107005260123
 10
378.2344719709072
 20
100.8913281285122
  0
LINE
  5
E351
330
20
100
AcDbEntity
  8
0
100
AcDbLine
 10
387.5656460904071
 20
89.1629143268123
 30
0.0
 11
378.2344719709072
 21
100.8913281285122
 31
0.0
  0
LINE
  5
E352
330
20
100
AcDbEntity
  8
0
100
AcDbLine
 10
378.3419291731072
 20
100.8913281285122
 30
0.0
 11
387.7128895573072
 21
89.11290671041227
 31
0.0
  0
LINE
  5
E354
330
20
100
AcDbEntity
  8
0
100
AcDbLine
 10
390.4152292163072
 20
87.96889150801229
 30
0.0
 11
380.1340856454073
 21
100.8913281285122
 31
0.0
  0
LINE
  5
E355
330
20
100
AcDbEntity
  8
0
100
AcDbLine
 10
382.2843276941071
 20
100.2718972265122
 30
0.0
 11
382.1982404820072
 21
100.3661730209123
 31
0.0
  0
LINE
  5
E357
330
20
100
AcDbEntity
  8
0
100
AcDbLine
 10
382.1798497992071
 20
100.3850895599122
 30
0.0
 11
382.1985083909073
 21
100.3657358741123
 31
0.0
  0
LWPOLYLINE
  5
E358
330
20
100
AcDbEntity
  8
0
100
AcDbPolyline
 90
        3
 70
     0
 43
0.0
 10
378.3419291731072
 20
100.8913281285122
 10
378.1254262531072
 20
101.1107005260123
 10
377.8906003331072
 20
101.2469749233123
  0
LINE
  5
E366
330
20
100
AcDbEntity
  8
0
100
AcDbLine
 10
387.7128895573072
 20
89.11290671041227
 30
0.0
 11
387.7751985728071
 21
88.99662224321231
 31
0.0
  0
LINE
  5
E368
330
20
100
AcDbEntity
  8
0
100
AcDbLine
 10
391.8421176602072
 20
88.26437369701233
 30
0.0
 11
382.3770830351073
 21
100.1610376439119
 31
0.0
  0
LWPOLYLINE
  5
E369
330
20
100
AcDbEntity
  8
0
100
AcDbPolyline
 90
        4
 70
     0
 43
0.0
 10
380.0294509347073
 20
101.2932519171122
 10
380.0657803846073
 20
101.2476999543123
 10
380.1010206148072
 20
101.1123541836121
 10
380.1340856454073
 20
100.8913281285122
  0
LWPOLYLINE
  5
E36D
330
20
100
AcDbEntity
  8
0
100
AcDbPolyline
 90
        4
 70
     0
 43
0.0
 10
387.7748610976071
 20
88.85548475221233
 10
387.7283090450071
 20
88.76374805751231
 10
387.6221684448072
 20
88.66091701601233
 10
387.4690564220072
 20
88.57518556001229
  0
LINE
  5
E374
330
20
100
AcDbEntity
  8
0
100
AcDbLine
 10
386.6788482316072
 20
88.50758651851231
 30
0.0
 11
386.6639335941071
 21
88.45757890211229
 31
0.0
  0
LINE
  5
E37B
330
20
100
AcDbEntity
  8
0
100
AcDbLine
 10
387.627027927907
 20
88.90340908021233
 30
0.0
 11
387.5411806372071
 21
88.61556980851231
 31
0.0
  0
LINE
  5
E37D
330
20
100
AcDbEntity
  8
0
100
AcDbLine
 10
387.7128895573072
 20
89.11290671041227
 30
0.0
 11
387.5692471746071
 21
88.63128500241231
 31
0.0
  0
LWPOLYLINE
  5
E380
330
20
100
AcDbEntity
  8
0
100
AcDbPolyline
 90
        3
 70
     0
 43
0.0
 10
387.6273756430072
 20
88.90525011691233
 10
387.6358037169072
 20
89.00965571051235
 10
387.5656460904071
 20
89.1629143268123
  0
LWPOLYLINE
  5
E383
330
20
100
AcDbEntity
  8
0
100
AcDbPolyline
 90
        3
 70
     0
 43
0.0
 10
387.7751985728071
 20
88.99662224321231
 10
387.7804799266071
 20
88.87787712611231
 10
387.7748610976071
 20
88.85548475221233
  0
LINE
  5
E388
330
20
100
AcDbEntity
  8
0
100
AcDbLine
 10
389.3880870343071
 20
85.96756340261229
 30
0.0
 11
389.5345703085071
 21
84.29325191711228
 31
0.0
  0
LWPOLYLINE
  5
E389
330
20
100
AcDbEntity
  8
0
100
AcDbPolyline
 90
        5
 70
     0
 43
0.0
 10
392.3378621387072
 20
86.41115218591233
 10
392.1527188777072
 20
87.01494792331232
 10
391.7293544268071
 20
87.51617787021229
 10
391.1235743465072
 20
87.84877266731227
 10
390.4152292163072
 20
87.96889150801229
  0
LINE
  5
E38E
330
20
100
AcDbEntity
  8
0
100
AcDbLine
 10
389.3880870287071
 20
87.79325191711228
 30
0.0
 11
389.3880870287071
 21
85.96756340261229
 31
0.0
  0
LINE
  5
E391
330
20
100
AcDbEntity
  8
0
100
AcDbLine
 10
390.4152292163072
 20
87.96889150801229
 30
0.0
 11
390.430642706407
 21
87.79271450991229
 31
0.0
  0
LINE
  5
E392
102
{ACAD_REACTORS
330
FC9A
102
}
330
20
100
AcDbEntity
  8
0
100
AcDbLine
 10
392.2694156733072
 20
87.1934988661123
 30
0.0
 11
392.523154402707
 21
84.29325191711228
 31
0.0
  0
LWPOLYLINE
  5
E4C6
330
20
100
AcDbEntity
  8
0
100
AcDbPolyline
 90
        4
 70
     0
 43
0.0
 10
293.5889797325073
 20
145.1157010118377
 10
293.3150590754073
 20
145.9013575494376
 10
293.1812580144073
 20
146.3660366211376
 10
293.0360078307073
 20
146.8563113125376
  0
LWPOLYLINE
  5
E4C7
330
20
100
AcDbEntity
  8
0
100
AcDbPolyline
 90
        5
 70
     0
 43
0.0
 10
294.0831005214072
 20
143.7058422146374
 10
293.9064620047073
 20
144.1882712300376
 10
293.8072140698072
 20
144.4672582796375
 10
293.7017028906071
 20
144.7752476453375
 10
293.5889797325073
 20
145.1157010118377
  0
LINE
  5
E4C8
330
20
100
AcDbEntity
  8
0
100
AcDbLine
 10
294.3558500051072
 20
142.9751006198373
 30
0.0
 11
294.0831005214072
 21
143.7058422146374
 31
0.0
  0
LINE
  5
E4C9
330
20
100
AcDbEntity
  8
0
100
AcDbLine
 10
294.4649505050071
 20
142.6899587993377
 30
0.0
 11
294.3558500051072
 21
142.9751006198373
 31
0.0
  0
LWPOLYLINE
  5
E4CD
330
20
100
AcDbEntity
  8
0
100
AcDbPolyline
 90
        7
 70
     0
 43
0.0
 10
295.6582217712071
 20
138.2636525942374
 10
294.8864512269071
 20
138.3687232956374
 10
294.1674938609073
 20
138.6689336046375
 10
293.5498396675071
 20
139.1438488365373
 10
293.0749216238071
 20
139.7615032055377
 10
292.7747084928071
 20
140.4804652136377
 10
292.6696376769072
 20
141.2522366885377
  0
LWPOLYLINE
  5
E4CE
330
20
100
AcDbEntity
  8
0
100
AcDbPolyline
 90
        7
 70
     0
 43
0.0
 10
295.6582217712071
 20
140.2560419904377
 10
295.4012619031071
 20
140.2895553732377
 10
295.1602599046072
 20
140.3888545909375
 10
294.9534060495071
 20
140.5473055887376
 10
294.7948831628071
 20
140.7541950286377
 10
294.6955475795072
 20
140.9952467189377
 10
294.6620270731072
 20
141.2522366885377
  0
LWPOLYLINE
  5
E4CF
330
20
100
AcDbEntity
  8
0
100
AcDbPolyline
 90
        9
 70
     0
 43
0.0
 10
295.5117384970071
 20
138.1171693200377
 10
294.9284652931073
 20
138.1742837593374
 10
294.3674595134071
 20
138.3437596846377
 10
293.8502924537072
 20
138.6195192303375
 10
293.3971021724071
 20
138.9911489284377
 10
293.0254830239072
 20
139.4443392849377
 10
292.7497361770072
 20
139.9614952395376
 10
292.5802674633071
 20
140.5224871775375
 10
292.5231544027072
 20
141.1057534143376
  0
LINE
  5
E4D5
330
20
100
AcDbEntity
  8
0
100
AcDbLine
 10
294.3586598999072
 20
233.2666076858375
 30
0.0
 11
294.4649457959071
 21
233.5443740467376
 31
0.0
  0
LINE
  5
E4D6
330
20
100
AcDbEntity
  8
0
100
AcDbLine
 10
294.0916770218072
 20
232.5517384666377
 30
0.0
 11
294.3586598999072
 21
233.2666076858375
 31
0.0
  0
LINE
  5
E4D7
330
20
100
AcDbEntity
  8
0
100
AcDbLine
 10
293.9170427402071
 20
232.0755163493377
 30
0.0
 11
294.0916770218072
 21
232.5517384666377
 31
0.0
  0
LWPOLYLINE
  5
E4E3
330
20
100
AcDbEntity
  8
0
100
AcDbPolyline
 90
        5
 70
     0
 43
0.0
 10
294.4649487278073
 20
142.6899512395376
 10
293.7910334864072
 20
142.7520327938375
 10
293.2293998522071
 20
142.8662912203374
 10
292.8425687037071
 20
143.0190817740376
 10
292.6696376769072
 20
143.1930899795377
  0
LWPOLYLINE
  5
E4E4
330
20
100
AcDbEntity
  8
0
100
AcDbPolyline
 90
        4
 70
     0
 43
0.0
 10
294.4649487278073
 20
142.6899512395376
 10
294.5297382375071
 20
142.6863890186377
 10
294.5954764245072
 20
142.6815866059377
 10
294.6620270731072
 20
142.6756222170377
  0
LINE
  5
E4E5
330
20
100
AcDbEntity
  8
0
100
AcDbLine
 10
295.5117384970071
 20
138.1171693200377
 30
0.0
 11
389.5345703085071
 21
138.1171693200375
 31
0.0
  0
LINE
  5
E4E6
330
20
100
AcDbEntity
  8
0
100
AcDbLine
 10
389.3880870343071
 20
138.2636525942374
 30
0.0
 11
295.6582217712071
 21
138.2636525942374
 31
0.0
  0
LINE
  5
E4E8
330
20
100
AcDbEntity
  8
0
100
AcDbLine
 10
389.3880870343071
 20
140.2560419904376
 30
0.0
 11
295.6582217712071
 21
140.2560419904377
 31
0.0
  0
LINE
  5
E4EC
330
20
100
AcDbEntity
  8
0
100
AcDbLine
 10
390.3842817324071
 20
141.2522336821376
 30
0.0
 11
392.3766313850073
 21
141.2522377155374
 31
0.0
  0
LINE
  5
E4ED
330
20
100
AcDbEntity
  8
0
100
AcDbLine
 10
294.6620270731072
 20
141.2522366941376
 30
0.0
 11
292.6696376769072
 21
141.2522366941376
 31
0.0
  0
LWPOLYLINE
  5
E4F0
330
20
100
AcDbEntity
  8
0
100
AcDbPolyline
 90
        7
 70
     0
 43
0.0
 10
386.6788482316072
 20
150.3288195140374
 10
386.9959454835072
 20
150.3947941163375
 10
387.2715539144073
 20
150.5390668748376
 10
387.4821836433073
 20
150.7473364247376
 10
387.6072392841072
 20
150.9979971062375
 10
387.6358037169073
 20
151.2674692071376
 10
387.5656460904071
 20
151.5286632241376
  0
LWPOLYLINE
  5
E4F5
330
20
100
AcDbEntity
  8
0
100
AcDbPolyline
 90
        4
 70
     0
 43
0.0
 10
293.5994680260071
 20
231.1493297760375
 10
293.7125370248073
 20
231.4909755943376
 10
293.8182005386071
 20
231.7983650382376
 10
293.9170427402071
 20
232.0755163493377
  0
LWPOLYLINE
  5
E4F6
330
20
100
AcDbEntity
  8
0
100
AcDbPolyline
 90
        4
 70
     0
 43
0.0
 10
293.0360296642072
 20
229.3781492395373
 10
293.1845114262072
 20
229.8806678266376
 10
293.3218319732071
 20
230.3542026293377
 10
293.5994680260071
 20
231.1493297760375
  0
LWPOLYLINE
  5
E4F7
330
20
100
AcDbEntity
  8
0
100
AcDbPolyline
 90
        9
 70
     0
 43
0.0
 10
292.5231544027072
 20
235.1285852258375
 10
292.5802688420071
 20
235.7118584296375
 10
292.7497447673072
 20
236.2728642094376
 10
293.0255043130072
 20
236.7900312690377
 10
293.3971340111073
 20
237.2432215504377
 10
293.8503243676072
 20
237.6148406988376
 10
294.3674803222073
 20
237.8905875458376
 10
294.9284722602071
 20
238.0600562595377
 10
295.5117384970071
 20
238.1171693200375
  0
LWPOLYLINE
  5
E4F8
330
20
100
AcDbEntity
  8
0
100
AcDbPolyline
 90
        4
 70
     0
 43
0.0
 10
294.5672873212073
 20
173.5113740172377
 10
294.5358760259071
 20
173.6675704180376
 10
294.5350612998073
 20
173.8184921623376
 10
294.5648706976072
 20
173.9590434438375
  0
LWPOLYLINE
  5
E501
330
20
100
AcDbEntity
  8
0
100
AcDbPolyline
 90
        9
 70
     0
 43
0.0
 10
298.2350280363072
 20
144.0573978924373
 10
297.9978186992072
 20
144.0642380145376
 10
297.7699525362073
 20
144.1174900283374
 10
297.563301678107
 20
144.2148588971375
 10
297.3894950579071
 20
144.3516687378376
 10
297.2586370624071
 20
144.5210565923376
 10
297.1790232205071
 20
144.7135229938375
 10
297.1556666639072
 20
144.9179200901377
 10
297.1898744635071
 20
145.1221463981377
  0
LINE
  5
E516
330
20
100
AcDbEntity
  8
0
100
AcDbLine
 10
293.0352295034071
 20
146.8596523391376
 30
0.0
 11
292.7923379599071
 21
146.8596523391376
 31
0.0
  0
LWPOLYLINE
  5
E52B
330
20
100
AcDbEntity
  8
0
100
AcDbPolyline
 90
        3
 70
     0
 43
0.0
 10
294.9243231205072
 20
142.6724329962375
 10
294.7917553008073
 20
142.6685567775377
 10
294.6620270731072
 20
142.6756222170377
  0
LWPOLYLINE
  5
E52C
330
20
100
AcDbEntity
  8
0
100
AcDbPolyline
 90
        4
 70
     0
 43
0.0
 10
390.430642706407
 20
149.3499523558377
 10
390.4152028762072
 20
149.3493907405374
 10
390.3997500686072
 20
149.3486213603375
 10
390.3842817324071
 20
149.3476435702376
  0
LWPOLYLINE
  5
E52E
330
20
100
AcDbEntity
  8
0
100
AcDbPolyline
 90
        6
 70
     0
 43
0.0
 10
390.430642706407
 20
149.3499523558377
 10
391.0149956986071
 20
149.3908699309375
 10
391.5390221664072
 20
149.4741918771375
 10
391.9599858749073
 20
149.5916217950375
 10
392.2458091262071
 20
149.7324878869376
 10
392.3766711285073
 20
149.8848505643375
  0
LINE
  5
E52F
330
20
100
AcDbEntity
  8
0
100
AcDbLine
 10
294.9243231205072
 20
142.6724329962375
 30
0.0
 11
390.3842817324071
 21
149.3476435702376
 31
0.0
  0
LINE
  5
E530
330
20
100
AcDbEntity
  8
0
100
AcDbLine
 10
386.8260916985072
 20
150.2522885410375
 30
0.0
 11
298.2350280363072
 21
144.0573978924373
 31
0.0
  0
LINE
  5
E531
330
20
100
AcDbEntity
  8
0
100
AcDbLine
 10
386.6788482316072
 20
150.3288195140374
 30
0.0
 11
298.3701874871071
 21
144.1536764011376
 31
0.0
  0
LWPOLYLINE
  5
E53D
330
20
100
AcDbEntity
  8
0
100
AcDbPolyline
 90
        4
 70
     0
 43
0.0
 10
294.5672926123073
 20
202.7229646218374
 10
294.5358821026072
 20
202.5667696415377
 10
294.5350685638071
 20
202.4158493669375
 10
294.5648794556071
 20
202.2752996662374
  0
LWPOLYLINE
  5
E53E
330
20
100
AcDbEntity
  8
0
100
AcDbPolyline
 90
        8
 70
     0
 43
0.0
 10
297.1556648352071
 20
231.3164868418377
 10
297.1790774686073
 20
231.5210244784374
 10
297.2588268993071
 20
231.7136079082377
 10
297.3898159537072
 20
231.8829917727375
 10
297.5636444268071
 20
232.0196903400375
 10
297.770181412407
 20
232.1169277929377
 10
297.9978965112072
 20
232.1701106623375
 10
298.2350280363072
 20
232.1769407476374
  0
LWPOLYLINE
  5
E541
330
20
100
AcDbEntity
  8
0
100
AcDbPolyline
 90
       13
 70
     0
 43
0.0
 10
293.6517615563071
 20
200.0421000521376
 10
293.6569709234071
 20
200.5124724417376
 10
293.6726026405072
 20
200.9425933788377
 10
293.6989700903071
 20
201.3370282566377
 10
293.7367254203073
 20
201.6971514090377
 10
293.7868006335071
 20
202.0220505601376
 10
293.8511053949071
 20
202.3113359548375
 10
293.9316287814071
 20
202.5583112756375
 10
294.0283442811073
 20
202.7487832445376
 10
294.1429217924073
 20
202.8720281237375
 10
294.2767619647073
 20
202.9157314922377
 10
294.4219282283071
 20
202.8644893581375
 10
294.5672942386071
 20
202.7229646218374
  0
LINE
  5
E542
330
20
100
AcDbEntity
  8
0
100
AcDbLine
 10
292.5231544027072
 20
235.1285852258375
 30
0.0
 11
292.5231544027072
 21
141.1057534143376
 31
0.0
  0
LINE
  5
E543
330
20
100
AcDbEntity
  8
0
100
AcDbLine
 10
292.6696376769072
 20
234.9821019516376
 30
0.0
 11
292.6696376769072
 21
233.0412487086375
 31
0.0
  0
LINE
  5
E544
330
20
100
AcDbEntity
  8
0
100
AcDbLine
 10
292.6696376769072
 20
141.2522366885377
 30
0.0
 11
292.6696376769072
 21
143.1930899795377
 31
0.0
  0
LINE
  5
E545
330
20
100
AcDbEntity
  8
0
100
AcDbLine
 10
292.7923379599071
 20
146.8596523587376
 30
0.0
 11
292.7923379599071
 21
229.3746862814376
 31
0.0
  0
LINE
  5
E546
330
20
100
AcDbEntity
  8
0
100
AcDbLine
 10
293.0352295034071
 20
146.8538213257374
 30
0.0
 11
293.0352295034071
 21
229.3807089180376
 31
0.0
  0
LINE
  5
E547
330
20
100
AcDbEntity
  8
0
100
AcDbLine
 10
293.6517615563071
 20
176.1922385879377
 30
0.0
 11
293.6517615563071
 21
200.0421000521376
 31
0.0
  0
LINE
  5
E548
330
20
100
AcDbEntity
  8
0
100
AcDbLine
 10
294.5265104827072
 20
176.1922392664376
 30
0.0
 11
294.5265104827072
 21
200.0420993927376
 31
0.0
  0
LINE
  5
E54B
330
20
100
AcDbEntity
  8
0
100
AcDbLine
 10
294.6620270731072
 20
234.9821019516376
 30
0.0
 11
294.6620270731072
 21
233.5587164231375
 31
0.0
  0
LINE
  5
E54C
330
20
100
AcDbEntity
  8
0
100
AcDbLine
 10
294.6620270731072
 20
141.2522366885377
 30
0.0
 11
294.6620270731072
 21
142.6756222170377
 31
0.0
  0
LWPOLYLINE
  5
E54D
330
20
100
AcDbEntity
  8
0
100
AcDbPolyline
 90
        7
 70
     0
 43
0.0
 10
292.7923379599071
 20
229.3746862814376
 10
292.7876497191071
 20
229.8362025863375
 10
292.7756679065073
 20
230.3599001847377
 10
292.7577079879071
 20
230.9448216021376
 10
292.7340141466073
 20
231.5902121636375
 10
292.7048548190072
 20
232.2871162167376
 10
292.6696376769072
 20
233.0412487086375
  0
LWPOLYLINE
  5
E54F
330
20
100
AcDbEntity
  8
0
100
AcDbPolyline
 90
        7
 70
     0
 43
0.0
 10
299.3465287045072
 20
191.5140543642376
 10
299.4699072569072
 20
190.5235680060376
 10
299.5538470828071
 20
189.3775575931377
 10
299.5845817731071
 20
188.1065450441376
 10
299.5527664261073
 20
186.8350230561375
 10
299.4683688607072
 20
185.6951284448376
 10
299.3465287045072
 20
184.7202842759377
  0
LWPOLYLINE
  5
E551
330
20
100
AcDbEntity
  8
0
100
AcDbPolyline
 90
        7
 70
     0
 43
0.0
 10
299.4512596266071
 20
191.6163555712374
 10
299.6390278896071
 20
190.5932917448376
 10
299.7700291785071
 20
189.4145792608376
 10
299.8159345963068
 20
188.1061386079377
 10
299.7683274221071
 20
186.7971801812374
 10
299.636767494707
 20
185.6247239550377
 10
299.4512596266071
 20
184.6179830688375
  0
LWPOLYLINE
  5
E552
330
20
100
AcDbEntity
  8
0
100
AcDbPolyline
 90
       13
 70
     0
 43
0.0
 10
294.5265104827072
 20
200.0421000521376
 10
294.4432643405071
 20
200.4729097577377
 10
294.3721169720071
 20
200.8615318622377
 10
294.3129733203073
 20
201.2128022529377
 10
294.2664026947073
 20
201.5285037044376
 10
294.2335005012072
 20
201.8082283579377
 10
294.2157765700071
 20
202.0517600625375
 10
294.2159515192071
 20
202.2534288624377
 10
294.2369183046071
 20
202.4016021068375
 10
294.2816733626072
 20
202.4874485956376
 10
294.3538844454071
 20
202.4991821728375
 10
294.4509349306071
 20
202.4260310847377
 10
294.5648675963072
 20
202.2752936131376
  0
LINE
  5
E553
330
20
100
AcDbEntity
  8
0
100
AcDbLine
 10
304.9413316457072
 20
169.7503750381375
 30
0.0
 11
304.9160327993071
 21
169.7897168114375
 31
0.0
  0
LINE
  5
E557
330
20
100
AcDbEntity
  8
0
100
AcDbLine
 10
305.8196006084072
 20
170.4481978390376
 30
0.0
 11
305.798248524707
 21
170.4814020741376
 31
0.0
  0
LINE
  5
E578
330
20
100
AcDbEntity
  8
0
100
AcDbLine
 10
391.8421079104072
 20
152.8748756822374
 30
0.0
 11
392.2694156702072
 21
152.8751995276375
 31
0.0
  0
LINE
  5
E579
330
20
100
AcDbEntity
  8
0
100
AcDbLine
 10
298.5281196880072
 20
149.0733881380374
 30
0.0
 11
298.4874145178072
 21
149.0705417553374
 31
0.0
  0
LINE
  5
E57B
330
20
100
AcDbEntity
  8
0
100
AcDbLine
 10
385.8784666479071
 20
155.1815194231375
 30
0.0
 11
385.8377614778071
 21
155.1786730403376
 31
0.0
  0
LINE
  5
E58B
330
20
100
AcDbEntity
  8
0
100
AcDbLine
 10
304.9160327993071
 20
206.4446218287375
 30
0.0
 11
304.9413316457072
 21
206.4839636020376
 31
0.0
  0
LINE
  5
E58F
330
20
100
AcDbEntity
  8
0
100
AcDbLine
 10
305.798248524707
 20
205.7529365660374
 30
0.0
 11
305.8196006084072
 21
205.7861408010376
 31
0.0
  0
LWPOLYLINE
  5
E591
330
20
100
AcDbEntity
  8
0
100
AcDbPolyline
 90
        7
 70
     0
 43
0.0
 10
299.3465287045072
 20
184.7202842759377
 10
298.9899614869072
 20
182.9167888605374
 10
298.4582894363073
 20
181.0645423922377
 10
297.7455198455073
 20
179.2082778477373
 10
296.8583659527071
 20
177.3947780352373
 10
295.8018359421073
 20
175.6462879230376
 10
294.5648675963072
 20
173.9590450269376
  0
LWPOLYLINE
  5
E592
330
20
100
AcDbEntity
  8
0
100
AcDbPolyline
 90
        7
 70
     0
 43
0.0
 10
299.4512596266071
 20
184.6179830688375
 10
299.0875137935073
 20
182.7601099752375
 10
298.5449724696072
 20
180.8508465814376
 10
297.8173326055072
 20
178.9361219733376
 10
296.9111932887071
 20
177.0638362311375
 10
295.8314590696073
 20
175.2566496269374
 10
294.5672942386071
 20
173.5113740182374
  0
LINE
  5
E594
330
20
100
AcDbEntity
  8
0
100
AcDbLine
 10
302.0755064056073
 20
208.8162516660375
 30
0.0
 11
302.1801411162072
 21
210.3125977414376
 31
0.0
  0
LWPOLYLINE
  5
E597
330
20
100
AcDbEntity
  8
0
100
AcDbPolyline
 90
        7
 70
     0
 43
0.0
 10
292.6696376769072
 20
143.1930899795377
 10
292.7051316769071
 20
143.9534833574375
 10
292.7343736198072
 20
144.6532731235377
 10
292.7579994157071
 20
145.2981334065376
 10
292.7758281367072
 20
145.8803449603377
 10
292.7876940889071
 20
146.4006728397374
 10
292.7923379599071
 20
146.8596523587376
  0
LINE
  5
E59F
330
20
100
AcDbEntity
  8
0
100
AcDbLine
 10
295.6582229577071
 20
237.9706360006377
 30
0.0
 11
295.6582182572071
 21
235.9782966497375
 31
0.0
  0
LINE
  5
E5A0
330
20
100
AcDbEntity
  8
0
100
AcDbLine
 10
295.6582227982071
 20
140.2560419904377
 30
0.0
 11
295.6582187648072
 21
138.2636923378375
 31
0.0
  0
LINE
  5
E5C5
330
20
100
AcDbEntity
  8
0
100
AcDbLine
 10
299.4512596266071
 20
184.6179830688375
 30
0.0
 11
299.4512596266071
 21
167.4180869741376
 31
0.0
  0
LINE
  5
E5C6
330
20
100
AcDbEntity
  8
0
100
AcDbLine
 10
299.4512596266071
 20
208.8162516660375
 30
0.0
 11
299.4512596266071
 21
191.6163555712374
 31
0.0
  0
LINE
  5
E5CA
330
20
100
AcDbEntity
  8
0
100
AcDbLine
 10
302.0755064056073
 20
167.4180869741376
 30
0.0
 11
302.1801411162072
 21
165.9217408987375
 31
0.0
  0
LINE
  5
E5CD
330
20
100
AcDbEntity
  8
0
100
AcDbLine
 10
297.580043901507
 20
229.9888801605376
 30
0.0
 11
297.5300490594071
 21
230.3589981053375
 31
0.0
  0
LINE
  5
E5D1
330
20
100
AcDbEntity
  8
0
100
AcDbLine
 10
297.1898744635071
 20
231.1121922419375
 30
0.0
 11
297.1556648352071
 21
231.3164868418377
 31
0.0
  0
LINE
  5
E5D3
330
20
100
AcDbEntity
  8
0
100
AcDbLine
 10
293.0352295034071
 20
229.3807089180376
 30
0.0
 11
299.4512596266071
 21
208.8162516660375
 31
0.0
  0
LWPOLYLINE
  5
E5E1
330
20
100
AcDbEntity
  8
0
100
AcDbPolyline
 90
        5
 70
     0
 43
0.0
 10
302.1801411162072
 20
165.9217408987375
 10
301.3410493788071
 20
166.1677374600377
 10
300.5639994690071
 20
166.5202962778377
 10
299.9156399524071
 20
166.9492931706376
 10
299.4512596266071
 20
167.4180869741376
  0
LWPOLYLINE
  5
E619
330
20
100
AcDbEntity
  8
0
100
AcDbPolyline
 90
        5
 70
     0
 43
0.0
 10
302.1801411162072
 20
210.3125977414376
 10
301.3410493788071
 20
210.0666011801376
 10
300.5639994690071
 20
209.7140423622377
 10
299.9156399524071
 20
209.2850454695375
 10
299.4512596266071
 20
208.8162516660375
  0
LINE
  5
E628
330
20
100
AcDbEntity
  8
0
100
AcDbLine
 10
299.4512596266071
 20
167.4180869741376
 30
0.0
 11
293.0352295034071
 21
146.8538213257374
 31
0.0
  0
LINE
  5
E62B
330
20
100
AcDbEntity
  8
0
100
AcDbLine
 10
297.580043901507
 20
146.2454584796375
 30
0.0
 11
297.5300490594071
 21
145.8753405347374
 31
0.0
  0
LWPOLYLINE
  5
E62D
330
20
100
AcDbEntity
  8
0
100
AcDbPolyline
 90
        7
 70
     0
 43
0.0
 10
297.3250339143072
 20
145.2184249068374
 10
297.2919102382073
 20
144.9500087576377
 10
297.3576999518073
 20
144.6871345414375
 10
297.5164237841072
 20
144.4563176537376
 10
297.7539891980072
 20
144.2793889612375
 10
298.0469943138071
 20
144.1748775353375
 10
298.3701874871071
 20
144.1536764011376
  0
LINE
  5
E651
330
20
100
AcDbEntity
  8
0
100
AcDbLine
 10
302.0755064056073
 20
208.8162516660375
 30
0.0
 11
302.0755064056073
 21
167.4180869741376
 31
0.0
  0
LINE
  5
E677
330
20
100
AcDbEntity
  8
0
100
AcDbLine
 10
294.9243231205072
 20
233.5619056439376
 30
0.0
 11
302.1801411162072
 21
210.3125977414376
 31
0.0
  0
LINE
  5
E678
330
20
100
AcDbEntity
  8
0
100
AcDbLine
 10
303.8656608990073
 20
209.7241140654376
 30
0.0
 11
297.1898744635071
 21
231.1121922419375
 31
0.0
  0
LINE
  5
E679
330
20
100
AcDbEntity
  8
0
100
AcDbLine
 10
304.9413316457072
 20
206.4839636020376
 30
0.0
 11
298.4874145178072
 21
227.1637968848377
 31
0.0
  0
LINE
  5
E67A
330
20
100
AcDbEntity
  8
0
100
AcDbLine
 10
297.3250339143072
 20
231.0159137333375
 30
0.0
 11
303.9731181012072
 21
209.7165999258375
 31
0.0
  0
LINE
  5
E67F
330
20
100
AcDbEntity
  8
0
100
AcDbLine
 10
303.8656608990073
 20
209.7241140654376
 30
0.0
 11
304.9160327993071
 21
206.4446218287375
 31
0.0
  0
LINE
  5
E680
330
20
100
AcDbEntity
  8
0
100
AcDbLine
 10
304.9905484544071
 20
206.5396706463376
 30
0.0
 11
303.9731181012072
 21
209.7165999258375
 31
0.0
  0
LINE
  5
E681
330
20
100
AcDbEntity
  8
0
100
AcDbLine
 10
297.580043901507
 20
229.9888801605376
 30
0.0
 11
298.4874145178072
 21
227.1637968848377
 31
0.0
  0
LINE
  5
E685
330
20
100
AcDbEntity
  8
0
100
AcDbLine
 10
297.1898744635071
 20
231.1121922419375
 30
0.0
 11
297.580043901507
 21
229.9888801605376
 31
0.0
  0
LWPOLYLINE
  5
E688
330
20
100
AcDbEntity
  8
0
100
AcDbPolyline
 90
        7
 70
     0
 43
0.0
 10
294.5672942386071
 20
202.7229646218374
 10
295.8308419371073
 20
200.9786260268377
 10
296.9101995104071
 20
199.1723450699377
 10
297.8155413213073
 20
197.3023728495377
 10
298.5438211112072
 20
195.3869739511373
 10
299.0872102261072
 20
193.4754979517375
 10
299.4512596266071
 20
191.6163555712374
  0
LWPOLYLINE
  5
E689
330
20
100
AcDbEntity
  8
0
100
AcDbPolyline
 90
        7
 70
     0
 43
0.0
 10
294.5648675963072
 20
202.2752936131376
 10
295.8012315312073
 20
200.5889578021375
 10
296.8573924262071
 20
198.8413459814376
 10
297.7437666505073
 20
197.0300866036373
 10
298.4571576995072
 20
195.1731825672377
 10
298.9896640217072
 20
193.3187832553374
 10
299.3465287045072
 20
191.5140543642376
  0
LWPOLYLINE
  5
E69C
330
20
100
AcDbEntity
  8
0
100
AcDbPolyline
 90
        4
 70
     0
 43
0.0
 10
299.4512630496071
 20
184.6179830690376
 10
299.4039751019073
 20
184.6526960975374
 10
299.3688960840072
 20
184.6869484426376
 10
299.3464892957071
 20
184.7202883885374
  0
LINE
  5
E6BE
330
20
100
AcDbEntity
  8
0
100
AcDbLine
 10
302.0755064056073
 20
167.4180869741376
 30
0.0
 11
299.4512596266071
 21
167.4180869741376
 31
0.0
  0
LWPOLYLINE
  5
E6CA
330
20
100
AcDbEntity
  8
0
100
AcDbPolyline
 90
        4
 70
     0
 43
0.0
 10
299.4500250534071
 20
191.6163514269376
 10
299.4032337023073
 20
191.5815734561377
 10
299.3685507167072
 20
191.5473256392376
 10
299.3464318110071
 20
191.5140441809377
  0
LWPOLYLINE
  5
E6DD
330
20
100
AcDbEntity
  8
0
100
AcDbPolyline
 90
       13
 70
     0
 43
0.0
 10
294.5648675963072
 20
173.9590450269376
 10
294.4628535504071
 20
173.8214662227375
 10
294.3715142002071
 20
173.7429612765373
 10
294.2937907361071
 20
173.7380943470377
 10
294.241252551507
 20
173.8183966151376
 10
294.2167251080073
 20
173.9679239656377
 10
294.2153994039072
 20
174.1733497830376
 10
294.2331023630072
 20
174.4221254713377
 10
294.2663672199071
 20
174.7055893684374
 10
294.3131245766073
 20
175.0224979137376
 10
294.3723544104071
 20
175.3741555296374
 10
294.4435677621072
 20
175.7630373559375
 10
294.5265104827072
 20
176.1922385879377
  0
LINE
  5
E6E0
330
20
100
AcDbEntity
  8
0
100
AcDbLine
 10
297.580043901507
 20
146.2454584796375
 30
0.0
 11
297.1898744635071
 21
145.1221463981377
 31
0.0
  0
LINE
  5
E6E3
330
20
100
AcDbEntity
  8
0
100
AcDbLine
 10
304.0299455315071
 20
167.0285725441376
 30
0.0
 11
304.9160327993071
 21
169.7897168114375
 31
0.0
  0
LINE
  5
E6E4
330
20
100
AcDbEntity
  8
0
100
AcDbLine
 10
303.9731181012072
 20
166.5177387142376
 30
0.0
 11
304.9905484544071
 21
169.6946679938375
 31
0.0
  0
LINE
  5
E6E5
330
20
100
AcDbEntity
  8
0
100
AcDbLine
 10
297.580043901507
 20
146.2454584796375
 30
0.0
 11
298.4874145178072
 21
149.0705417553374
 31
0.0
  0
LINE
  5
E6E9
330
20
100
AcDbEntity
  8
0
100
AcDbLine
 10
304.0299455315071
 20
167.0285725441376
 30
0.0
 11
297.1898744635071
 21
145.1221463981377
 31
0.0
  0
LINE
  5
E6EA
330
20
100
AcDbEntity
  8
0
100
AcDbLine
 10
297.3250339143072
 20
145.2184249068374
 30
0.0
 11
303.9731181012072
 21
166.5177387142376
 31
0.0
  0
LINE
  5
E6ED
330
20
100
AcDbEntity
  8
0
100
AcDbLine
 10
302.1801411162072
 20
165.9217408987375
 30
0.0
 11
294.9243231205072
 21
142.6724329962375
 31
0.0
  0
LINE
  5
E6EE
330
20
100
AcDbEntity
  8
0
100
AcDbLine
 10
304.9413316457072
 20
169.7503750381375
 30
0.0
 11
298.4874145178072
 21
149.0705417553374
 31
0.0
  0
LINE
  5
E73A
330
20
100
AcDbEntity
  8
0
100
AcDbLine
 10
298.2350280363072
 20
232.1769407476374
 30
0.0
 11
298.2707352830071
 21
232.0741382784377
 31
0.0
  0
LWPOLYLINE
  5
E73C
330
20
100
AcDbEntity
  8
0
100
AcDbPolyline
 90
        9
 70
     0
 43
0.0
 10
304.9905484544071
 20
206.5396706463376
 10
305.0463850633072
 20
206.4019388194374
 10
305.1220187409071
 20
206.2740041487374
 10
305.2157801005071
 20
206.1586933968377
 10
305.3255984208071
 20
206.0585550280376
 10
305.4490477258072
 20
205.9758020577377
 10
305.5834002583071
 20
205.9122631347377
 10
305.7256870583072
 20
205.8693418072377
 10
305.8727641798071
 20
205.8479853836375
  0
LINE
  5
E73D
330
20
100
AcDbEntity
  8
0
100
AcDbLine
 10
305.0835398004072
 20
206.1981636497375
 30
0.0
 11
304.9413316457072
 21
206.4839636020376
 31
0.0
  0
LINE
  5
E77F
330
20
100
AcDbEntity
  8
0
100
AcDbLine
 10
380.0294509347073
 20
172.8691577934377
 30
0.0
 11
382.3770830351073
 21
172.8691577934377
 31
0.0
  0
LINE
  5
E781
330
20
100
AcDbEntity
  8
0
100
AcDbLine
 10
378.3419291731072
 20
171.2474919294376
 30
0.0
 11
380.1340856454073
 21
171.3728117180375
 31
0.0
  0
LINE
  5
E782
330
20
100
AcDbEntity
  8
0
100
AcDbLine
 10
303.8221129166073
 20
166.0365587520377
 30
0.0
 11
378.2344719709072
 21
171.2399777899376
 31
0.0
  0
LINE
  5
E783
330
20
100
AcDbEntity
  8
0
100
AcDbLine
 10
302.1801411162072
 20
165.9217408987375
 30
0.0
 11
303.7146557144071
 21
166.0290446124375
 31
0.0
  0
LINE
  5
E784
330
20
100
AcDbEntity
  8
0
100
AcDbLine
 10
377.6452503160073
 20
172.7024382451374
 30
0.0
 11
380.0294509347073
 21
172.8691577934377
 31
0.0
  0
LINE
  5
E785
330
20
100
AcDbEntity
  8
0
100
AcDbLine
 10
304.3095223524072
 20
167.5743045871375
 30
0.0
 11
377.5377931138072
 21
172.6949241056376
 31
0.0
  0
LINE
  5
E786
330
20
100
AcDbEntity
  8
0
100
AcDbLine
 10
302.0755064056073
 20
167.4180869741376
 30
0.0
 11
304.2020651502072
 21
167.5667904475377
 31
0.0
  0
LINE
  5
E78C
330
20
100
AcDbEntity
  8
0
100
AcDbLine
 10
305.8727641798071
 20
170.3863532565376
 30
0.0
 11
375.5984031151072
 21
175.2620448980376
 31
0.0
  0
LINE
  5
E78D
330
20
100
AcDbEntity
  8
0
100
AcDbLine
 10
375.6424421999073
 20
175.3306865524375
 30
0.0
 11
305.8196006084072
 21
170.4481978390376
 31
0.0
  0
LINE
  5
E78E
102
{ACAD_REACTORS
330
FCE2
102
}
330
20
100
AcDbEntity
  8
0
100
AcDbLine
 10
375.6589653503071
 20
175.3665392818374
 30
0.0
 11
305.798248524707
 21
170.4814020741376
 31
0.0
  0
LWPOLYLINE
  5
E7A5
330
20
100
AcDbEntity
  8
0
100
AcDbPolyline
 90
       13
 70
     0
 43
0.0
 10
294.5672942386071
 20
173.5113740182374
 10
294.4381470032071
 20
173.3817847967376
 10
294.3054946362071
 20
173.3207228300375
 10
294.1680363508073
 20
173.3466690959375
 10
294.0419685512072
 20
173.4661799316377
 10
293.9381679495073
 20
173.6598093965375
 10
293.8541101178071
 20
173.9118864107376
 10
293.7876539108072
 20
174.2076109996377
 10
293.7367569804071
 20
174.5369410861375
 10
293.6988734387071
 20
174.8984313155377
 10
293.6725249529071
 20
175.2932668792375
 10
293.6569294390071
 20
175.7236416509375
 10
293.6517615563071
 20
176.1922385879377
  0
LWPOLYLINE
  5
E7A7
330
20
100
AcDbEntity
  8
0
100
AcDbPolyline
 90
        4
 70
     0
 43
0.0
 10
304.9160327993071
 20
169.7897168114375
 10
305.1081267636071
 20
170.1338354953375
 10
305.4182519697071
 20
170.3769808152375
 10
305.798248524707
 20
170.4814020741376
  0
LINE
  5
E7A8
330
20
100
AcDbEntity
  8
0
100
AcDbLine
 10
305.0835398004072
 20
170.0361749904376
 30
0.0
 11
304.9413316457072
 21
169.7503750381375
 31
0.0
  0
LINE
  5
E7AA
330
20
100
AcDbEntity
  8
0
100
AcDbLine
 10
298.2707352830071
 20
144.1602003617376
 30
0.0
 11
298.2350280363072
 21
144.0573978924373
 31
0.0
  0
LWPOLYLINE
  5
E7CB
330
20
100
AcDbEntity
  8
0
100
AcDbPolyline
 90
        4
 70
     0
 43
0.0
 10
375.6589653503071
 20
175.3665392818374
 10
376.0497964353071
 20
175.3160195423376
 10
376.3907428123072
 20
175.1184015826376
 10
376.628859395707
 20
174.8043661508375
  0
LINE
  5
E7CE
330
20
100
AcDbEntity
  8
0
100
AcDbLine
 10
375.6424421999073
 20
175.3306865524375
 30
0.0
 11
375.9209834230072
 21
175.3106277906375
 31
0.0
  0
LINE
  5
E7D6
330
20
100
AcDbEntity
  8
0
100
AcDbLine
 10
390.9260006513072
 20
174.7356664746376
 30
0.0
 11
390.1434566178073
 21
174.7356664746376
 31
0.0
  0
LINE
  5
E7D8
330
20
100
AcDbEntity
  8
0
100
AcDbLine
 10
294.5265104827072
 20
176.1922385879377
 30
0.0
 11
293.6517615563071
 21
176.1922385879377
 31
0.0
  0
LWPOLYLINE
  5
E828
330
20
100
AcDbEntity
  8
0
100
AcDbPolyline
 90
        9
 70
     0
 43
0.0
 10
305.8727641798071
 20
170.3863532565376
 10
305.7256870229071
 20
170.3649968250376
 10
305.5834001506072
 20
170.3220754640373
 10
305.4490475554071
 20
170.2585364857377
 10
305.3255982391072
 20
170.1757834696375
 10
305.2157799659072
 20
170.0756451009374
 10
305.1220186750071
 20
169.9603343967377
 10
305.0463850472072
 20
169.8323997882375
 10
304.9905484544071
 20
169.6946679938375
  0
LINE
  5
E82A
330
20
100
AcDbEntity
  8
0
100
AcDbLine
 10
305.8196006084072
 20
170.4481978390376
 30
0.0
 11
305.5465617694072
 21
170.3895688420377
 31
0.0
  0
LINE
  5
E906
330
20
100
AcDbEntity
  8
0
100
AcDbLine
 10
389.3880870343071
 20
138.2636525942374
 30
0.0
 11
389.5345703085071
 21
138.1171693200375
 31
0.0
  0
LINE
  5
E907
102
{ACAD_REACTORS
330
FC39
102
}
330
20
100
AcDbEntity
  8
0
100
AcDbLine
 10
292.6696376769072
 20
234.9821019516376
 30
0.0
 11
292.5231544027072
 21
235.1285852258375
 31
0.0
  0
LWPOLYLINE
  5
E90C
330
20
100
AcDbEntity
  8
0
100
AcDbPolyline
 90
        3
 70
     0
 43
0.0
 10
305.5465617694072
 20
205.8447697981375
 10
305.2944843669071
 20
205.9821797918377
 10
305.0835398004072
 20
206.1981636497375
  0
LWPOLYLINE
  5
E90D
330
20
100
AcDbEntity
  8
0
100
AcDbPolyline
 90
        3
 70
     0
 43
0.0
 10
375.9209834230072
 20
175.3106277906375
 10
376.1897314004073
 20
175.2096374553372
 10
376.4286822123072
 20
175.0251133469374
  0
LINE
  5
E918
102
{ACAD_REACTORS
330
FCCA
330
FCE2
102
}
330
20
100
AcDbEntity
  8
0
  6
CENTER
 62
     7
100
AcDbLine
 10
395.5231544027072
 20
188.1171693200375
 30
0.0
 11
289.5231544027071
 21
188.1171693200375
 31
0.0
  0
LWPOLYLINE
  5
E943
330
20
100
AcDbEntity
  8
0
100
AcDbPolyline
 90
        3
 70
     0
 43
0.0
 10
375.9209834230072
 20
200.9237108495375
 10
376.1897314004073
 20
201.0247011848377
 10
376.4286822123072
 20
201.2092252932375
  0
LWPOLYLINE
  5
E944
330
20
100
AcDbEntity
  8
0
100
AcDbPolyline
 90
        3
 70
     0
 43
0.0
 10
305.5465617694072
 20
170.3895688420377
 10
305.2944843669071
 20
170.2521588483377
 10
305.0835398004072
 20
170.0361749904376
  0
LINE
  5
E947
330
20
100
AcDbEntity
  8
0
100
AcDbLine
 10
292.6696376769072
 20
141.2522366885377
 30
0.0
 11
292.5231544027072
 21
141.1057534143376
 31
0.0
  0
LINE
  5
E948
330
20
100
AcDbEntity
  8
0
100
AcDbLine
 10
389.3880870343071
 20
237.9706860458376
 30
0.0
 11
389.5345703085071
 21
238.1171693200375
 31
0.0
  0
LINE
  5
E995
330
20
100
AcDbEntity
  8
0
100
AcDbLine
 10
392.3766711285073
 20
141.2522366885376
 30
0.0
 11
392.5231544027072
 21
141.1057534143376
 31
0.0
  0
LINE
  5
E996
330
20
100
AcDbEntity
  8
0
100
AcDbLine
 10
295.6582217712071
 20
237.9706860458376
 30
0.0
 11
295.5117384970071
 21
238.1171693200375
 31
0.0
  0
LWPOLYLINE
  5
E999
330
20
100
AcDbEntity
  8
0
100
AcDbPolyline
 90
        4
 70
     0
 43
0.0
 10
305.798248524707
 20
205.7529365660374
 10
305.4182519697071
 20
205.8573578249377
 10
305.1081267636071
 20
206.1005031448376
 10
304.9160327993071
 20
206.4446218287375
  0
LINE
  5
E99C
330
20
100
AcDbEntity
  8
0
100
AcDbLine
 10
305.8196006084072
 20
205.7861408010376
 30
0.0
 11
305.5465617694072
 21
205.8447697981375
 31
0.0
  0
LINE
  5
E9EE
330
20
100
AcDbEntity
  8
0
100
AcDbLine
 10
294.5265104827072
 20
200.0421053399377
 30
0.0
 11
293.6517594735073
 21
200.0421007885377
 31
0.0
  0
LINE
  5
E9F4
330
20
100
AcDbEntity
  8
0
100
AcDbLine
 10
375.6424421999073
 20
200.9036520877375
 30
0.0
 11
375.9209834230072
 21
200.9237108495375
 31
0.0
  0
LINE
  5
EA1C
102
{ACAD_REACTORS
330
FC51
102
}
330
20
100
AcDbEntity
  8
0
100
AcDbLine
 10
295.6582217712071
 20
138.2636525942374
 30
0.0
 11
295.5117384970071
 21
138.1171693200377
 31
0.0
  0
LINE
  5
EA1D
330
20
100
AcDbEntity
  8
0
100
AcDbLine
 10
392.3766711285073
 20
234.9821019516376
 30
0.0
 11
392.5231544027072
 21
235.1285852258375
 31
0.0
  0
LINE
  5
EA40
330
20
100
AcDbEntity
  8
0
  6
CENTER
 62
     7
100
AcDbLine
 10
342.5231544027071
 20
135.1171693200375
 30
0.0
 11
342.5231544027071
 21
241.1171693200375
 31
0.0
  0
LWPOLYLINE
  5
EA7D
330
20
100
AcDbEntity
  8
0
100
AcDbPolyline
 90
       11
 70
     0
 43
0.0
 10
389.6111028537072
 20
173.2518752235376
 10
389.8270346674073
 20
173.1165031800375
 10
390.0386703397072
 20
173.0487050375377
 10
390.240511485707
 20
173.0530106233375
 10
390.4234409924071
 20
173.1305399245375
 10
390.5763019724073
 20
173.2713993051376
 10
390.7018558684072
 20
173.4691187333375
 10
390.8021759895071
 20
173.7258850004377
 10
390.8724946612072
 20
174.0295116460376
 10
390.9130043649073
 20
174.3680121872373
 10
390.9260006513072
 20
174.7356664748376
  0
LINE
  5
EA7F
330
20
100
AcDbEntity
  8
0
100
AcDbLine
 10
375.6589653503071
 20
200.8677993583376
 30
0.0
 11
305.798248524707
 21
205.7529365660374
 31
0.0
  0
LINE
  5
EA80
330
20
100
AcDbEntity
  8
0
100
AcDbLine
 10
375.6424421999073
 20
200.9036520877375
 30
0.0
 11
305.8196006084072
 21
205.7861408010376
 31
0.0
  0
LINE
  5
EA81
102
{ACAD_REACTORS
330
FCCA
102
}
330
20
100
AcDbEntity
  8
0
100
AcDbLine
 10
375.5984031151072
 20
200.9722937421376
 30
0.0
 11
305.8727641798071
 21
205.8479853836375
 31
0.0
  0
LINE
  5
EA88
330
20
100
AcDbEntity
  8
0
100
AcDbLine
 10
390.9260055533073
 20
201.4986898747376
 30
0.0
 11
390.1434566181072
 21
201.4986751132374
 31
0.0
  0
LINE
  5
EA89
330
20
100
AcDbEntity
  8
0
100
AcDbLine
 10
380.0294509347073
 20
203.3651808466375
 30
0.0
 11
382.3770830351073
 21
203.3651808466375
 31
0.0
  0
LWPOLYLINE
  5
EA8A
330
20
100
AcDbEntity
  8
0
100
AcDbPolyline
 90
        9
 70
     0
 43
0.0
 10
375.5984031151072
 20
200.9722937421376
 10
375.7470211680072
 20
200.9729731503376
 10
375.8938968131072
 20
200.9956742983376
 10
376.0357848147072
 20
201.0398966523375
 10
376.1695497246071
 20
201.1046634976376
 10
376.2922358212072
 20
201.1885435770377
 10
376.4011327820071
 20
201.2896830357376
 10
376.4938354047071
 20
201.4058464269374
 10
376.5682971605071
 20
201.5344668732376
  0
LWPOLYLINE
  5
EAE7
330
20
100
AcDbEntity
  8
0
100
AcDbPolyline
 90
       11
 70
     0
 43
0.0
 10
389.5581181730071
 20
173.9133806742376
 10
389.7418361013072
 20
173.7631051778374
 10
389.9083698902072
 20
173.6642763891374
 10
390.0523866299071
 20
173.6210630770375
 10
390.1665195041072
 20
173.6361041049375
 10
390.2444240377072
 20
173.7049386589376
 10
390.2889354281072
 20
173.8227660810373
 10
390.3005387659072
 20
173.9919442232376
 10
390.2782398819072
 20
174.2048762212376
 10
390.224863300007
 20
174.4540580592375
 10
390.1434566178073
 20
174.7356664748376
  0
LINE
  5
EAE9
330
20
100
AcDbEntity
  8
0
100
AcDbLine
 10
304.2020651502072
 20
208.6675481926373
 30
0.0
 11
302.0755064056073
 21
208.8162516660375
 31
0.0
  0
LINE
  5
EAEA
330
20
100
AcDbEntity
  8
0
100
AcDbLine
 10
377.5377931138072
 20
203.5394145345374
 30
0.0
 11
304.3095223524072
 21
208.6600340530377
 31
0.0
  0
LINE
  5
EAEB
330
20
100
AcDbEntity
  8
0
100
AcDbLine
 10
380.0294509347073
 20
203.3651808466375
 30
0.0
 11
377.6452503160073
 21
203.5319003949377
 31
0.0
  0
LINE
  5
EAEC
330
20
100
AcDbEntity
  8
0
100
AcDbLine
 10
303.7146557144071
 20
210.2052940276375
 30
0.0
 11
302.1801411162072
 21
210.3125977414376
 31
0.0
  0
LINE
  5
EAED
330
20
100
AcDbEntity
  8
0
100
AcDbLine
 10
378.2344719709072
 20
204.9943608502375
 30
0.0
 11
303.8221129166073
 21
210.1977798881377
 31
0.0
  0
LINE
  5
EAEE
330
20
100
AcDbEntity
  8
0
100
AcDbLine
 10
380.1340856454073
 20
204.8615269220375
 30
0.0
 11
378.3419291731072
 21
204.9868467106377
 31
0.0
  0
LINE
  5
EB18
330
20
100
AcDbEntity
  8
0
100
AcDbLine
 10
302.0755064056073
 20
208.8162516660375
 30
0.0
 11
299.4512596266071
 21
208.8162516660375
 31
0.0
  0
LINE
  5
EB86
330
20
100
AcDbEntity
  8
0
100
AcDbLine
 10
386.8260916985072
 20
150.2522885410375
 30
0.0
 11
386.7764246138071
 21
150.3491210554376
 31
0.0
  0
LINE
  5
EB8B
330
20
100
AcDbEntity
  8
0
100
AcDbLine
 10
387.7128895573072
 20
151.4521322512376
 30
0.0
 11
387.1701823957071
 21
152.5102112461375
 31
0.0
  0
LWPOLYLINE
  5
EB8C
330
20
100
AcDbEntity
  8
0
100
AcDbPolyline
 90
        9
 70
     0
 43
0.0
 10
376.5682971605071
 20
174.6998717669374
 10
376.4938353842073
 20
174.8284922431377
 10
376.4011327035071
 20
174.9446556890376
 10
376.292235668207
 20
175.0457951853376
 10
376.1695495249071
 20
175.1296752582374
 10
376.0357846326073
 20
175.1944420598376
 10
375.8938967007073
 20
175.2386643678374
 10
375.7470211318073
 20
175.2613654927373
 10
375.5984031151072
 20
175.2620448980376
  0
LINE
  5
EB8D
330
20
100
AcDbEntity
  8
0
100
AcDbLine
 10
376.4286822123072
 20
175.0251133469374
 30
0.0
 11
376.6092820726071
 21
174.7618863299376
 31
0.0
  0
LWPOLYLINE
  5
EBA1
330
20
100
AcDbEntity
  8
0
100
AcDbPolyline
 90
        4
 70
     0
 43
0.0
 10
382.5749612646073
 20
190.2562108872377
 10
382.534890381407
 20
190.2855911289374
 10
382.4682598120072
 20
190.3167510756375
 10
382.3769511519071
 20
190.3488083553376
  0
LWPOLYLINE
  5
EBD9
330
20
100
AcDbEntity
  8
0
100
AcDbPolyline
 90
        4
 70
     0
 43
0.0
 10
382.5750503224073
 20
185.9781361667375
 10
382.5349791001071
 20
185.9487588562374
 10
382.4683603440071
 20
185.9175970386375
 10
382.3770748075073
 20
185.8855303472376
  0
LWPOLYLINE
  5
EBDA
330
20
100
AcDbEntity
  8
0
100
AcDbPolyline
 90
        7
 70
     0
 43
0.0
 10
389.5581181730071
 20
202.3209579659375
 10
387.5531984403071
 20
200.5521512847376
 10
385.8991674964073
 20
198.6053287863376
 10
384.5849737865071
 20
196.5334664060376
 10
383.6113391014071
 20
194.4178093441376
 10
382.9533213806072
 20
192.3164381831375
 10
382.5749836149071
 20
190.2562087747377
  0
LWPOLYLINE
  5
EBDB
330
20
100
AcDbEntity
  8
0
100
AcDbPolyline
 90
        7
 70
     0
 43
0.0
 10
389.6111028537072
 20
202.9824634165377
 10
387.5312428810071
 20
201.1198230042376
 10
385.8163524546071
 20
199.0753729930376
 10
384.4555075453071
 20
196.9051992778376
 10
383.4483312622073
 20
194.6932416245376
 10
382.7681253791072
 20
192.4988403636375
 10
382.3770830351073
 20
190.3488082933375
  0
LWPOLYLINE
  5
EBF1
330
20
100
AcDbEntity
  8
0
100
AcDbPolyline
 90
        4
 70
     0
 43
0.0
 10
376.628859395707
 20
201.4299724893377
 10
376.3907428123072
 20
201.1159370575374
 10
376.0497964353071
 20
200.9183190978375
 10
375.6589653503071
 20
200.8677993583376
  0
LINE
  5
EBF2
330
20
100
AcDbEntity
  8
0
100
AcDbLine
 10
376.4286822123072
 20
201.2092252932375
 30
0.0
 11
376.6092820726071
 21
201.4724523101373
 31
0.0
  0
LINE
  5
EBF5
330
20
100
AcDbEntity
  8
0
100
AcDbLine
 10
386.7764246138071
 20
225.8852175846376
 30
0.0
 11
386.8260916985072
 21
225.9820500990377
 31
0.0
  0
LINE
  5
EBFA
330
20
100
AcDbEntity
  8
0
100
AcDbLine
 10
387.1701823957071
 20
223.7241273940377
 30
0.0
 11
387.7128895573072
 21
224.7822063889376
 31
0.0
  0
LINE
  5
EC44
330
20
100
AcDbEntity
  8
0
100
AcDbLine
 10
387.5656460904071
 20
151.5286632241376
 30
0.0
 11
378.0179690509072
 21
171.6954590820376
 31
0.0
  0
LINE
  5
EC45
330
20
100
AcDbEntity
  8
0
100
AcDbLine
 10
376.6092820726071
 20
174.7618863299376
 30
0.0
 11
385.8784666479071
 21
155.1815194231375
 31
0.0
  0
LINE
  5
EC46
330
20
100
AcDbEntity
  8
0
100
AcDbLine
 10
378.1254262531072
 20
171.7029732216373
 30
0.0
 11
387.7128895573072
 21
151.4521322512376
 31
0.0
  0
LINE
  5
EC47
330
20
100
AcDbEntity
  8
0
100
AcDbLine
 10
390.4152292163073
 20
149.6547671904376
 30
0.0
 11
380.1340856454073
 21
171.3728117180375
 31
0.0
  0
LINE
  5
EC48
330
20
100
AcDbEntity
  8
0
100
AcDbLine
 10
391.8421143440072
 20
152.8750996436377
 30
0.0
 11
382.3770830351073
 21
172.8691577934377
 31
0.0
  0
LINE
  5
EC49
330
20
100
AcDbEntity
  8
0
100
AcDbLine
 10
376.5682971605071
 20
174.6998717669374
 30
0.0
 11
378.0179690509072
 21
171.6954590820376
 31
0.0
  0
LINE
  5
EC4A
330
20
100
AcDbEntity
  8
0
100
AcDbLine
 10
378.1254262531072
 20
171.7029732216373
 30
0.0
 11
376.628859395707
 21
174.8043661508375
 31
0.0
  0
LINE
  5
EC4E
330
20
100
AcDbEntity
  8
0
100
AcDbLine
 10
387.1701823957071
 20
152.5102112461375
 30
0.0
 11
385.8784666479071
 21
155.1815194231375
 31
0.0
  0
LWPOLYLINE
  5
EC5F
330
20
100
AcDbEntity
  8
0
100
AcDbPolyline
 90
        5
 70
     0
 43
0.0
 10
380.1340856454073
 20
204.8615269220375
 10
380.796881797907
 20
204.5712317613375
 10
381.4149004467072
 20
204.2105668098376
 10
381.9520818844072
 20
203.8005758864374
 10
382.3770830351073
 20
203.3651808466375
  0
LINE
  5
EC64
330
20
100
AcDbEntity
  8
0
100
AcDbLine
 10
298.5281196880072
 20
227.1609505020377
 30
0.0
 11
298.4874145178072
 21
227.1637968848377
 31
0.0
  0
LINE
  5
EC66
330
20
100
AcDbEntity
  8
0
100
AcDbLine
 10
385.8784666479071
 20
221.0528192170375
 30
0.0
 11
385.8377614778071
 21
221.0556655997375
 31
0.0
  0
LINE
  5
EC68
330
20
100
AcDbEntity
  8
0
100
AcDbLine
 10
391.8421143440072
 20
223.3592574237377
 30
0.0
 11
392.2694156733072
 21
223.3592574237377
 31
0.0
  0
LWPOLYLINE
  5
EC6A
330
20
100
AcDbEntity
  8
0
100
AcDbPolyline
 90
        5
 70
     0
 43
0.0
 10
380.1340856454073
 20
171.3728117180375
 10
380.7969345154072
 20
171.6631336721375
 10
381.4149968185073
 20
172.0238361231373
 10
381.9521893151073
 20
172.4338571466376
 10
382.3770830351073
 20
172.8691577934377
  0
LINE
  5
EC7F
330
20
100
AcDbEntity
  8
0
100
AcDbLine
 10
387.1701823957071
 20
223.7241273940377
 30
0.0
 11
385.8784666479071
 21
221.0528192170375
 31
0.0
  0
LINE
  5
EC80
330
20
100
AcDbEntity
  8
0
100
AcDbLine
 10
378.0179690509072
 20
204.5388795581375
 30
0.0
 11
376.5682971605071
 21
201.5344668732376
 31
0.0
  0
LINE
  5
EC81
330
20
100
AcDbEntity
  8
0
100
AcDbLine
 10
377.8906003331072
 20
204.0409259777375
 30
0.0
 11
376.628859395707
 21
201.4299724893377
 31
0.0
  0
LINE
  5
EC82
330
20
100
AcDbEntity
  8
0
100
AcDbLine
 10
377.8906003331072
 20
204.0409259777375
 30
0.0
 11
387.7128895573072
 21
224.7822063889376
 31
0.0
  0
LINE
  5
EC83
330
20
100
AcDbEntity
  8
0
100
AcDbLine
 10
387.5656460904071
 20
224.7056754160376
 30
0.0
 11
378.0179690509072
 21
204.5388795581375
 31
0.0
  0
LINE
  5
EC87
330
20
100
AcDbEntity
  8
0
100
AcDbLine
 10
376.6092820726071
 20
201.4724523101373
 30
0.0
 11
385.8784666479071
 21
221.0528192170375
 31
0.0
  0
LINE
  5
EC88
330
20
100
AcDbEntity
  8
0
100
AcDbLine
 10
380.1340856454073
 20
204.8615269220375
 30
0.0
 11
390.4152292163073
 21
226.5795714497377
 31
0.0
  0
LINE
  5
EC89
330
20
100
AcDbEntity
  8
0
100
AcDbLine
 10
382.3770830351073
 20
203.3651808466375
 30
0.0
 11
391.8421143440072
 21
223.3591942175376
 31
0.0
  0
LINE
  5
ECA7
330
20
100
AcDbEntity
  8
0
100
AcDbLine
 10
387.1701823957071
 20
152.5102112461375
 30
0.0
 11
387.2712011535073
 21
152.1506532008374
 31
0.0
  0
LINE
  5
ECAB
330
20
100
AcDbEntity
  8
0
100
AcDbLine
 10
387.7128895573072
 20
151.4521322512376
 30
0.0
 11
387.7751985728071
 21
151.2545868924376
 31
0.0
  0
LINE
  5
ECAE
330
20
100
AcDbEntity
  8
0
100
AcDbLine
 10
375.6424421999073
 20
200.9036520877375
 30
0.0
 11
375.6589653503071
 21
200.8677993583376
 31
0.0
  0
LWPOLYLINE
  5
ECC5
330
20
100
AcDbEntity
  8
0
100
AcDbPolyline
 90
        6
 70
     0
 43
0.0
 10
390.430642706407
 20
226.8843862843377
 10
391.0149956986071
 20
226.8434687091376
 10
391.5390221664072
 20
226.7601467629375
 10
391.9599858749073
 20
226.6427168451374
 10
392.2458091262071
 20
226.5018507532376
 10
392.3766711285073
 20
226.3494880758376
  0
LINE
  5
ECC9
330
20
100
AcDbEntity
  8
0
100
AcDbLine
 10
298.3701874871071
 20
232.0806622390377
 30
0.0
 11
386.6788482316072
 21
225.9055191261376
 31
0.0
  0
LINE
  5
ECCA
330
20
100
AcDbEntity
  8
0
100
AcDbLine
 10
386.8260916985072
 20
225.9820500990377
 30
0.0
 11
298.2350280363072
 21
232.1769407476374
 31
0.0
  0
LINE
  5
ECCB
330
20
100
AcDbEntity
  8
0
100
AcDbLine
 10
294.9243231205072
 20
233.5619056439376
 30
0.0
 11
390.3842817324071
 21
226.8866950699377
 31
0.0
  0
LWPOLYLINE
  5
ECCC
330
20
100
AcDbEntity
  8
0
100
AcDbPolyline
 90
        4
 70
     0
 43
0.0
 10
390.430642706407
 20
226.8843862843377
 10
390.4152028762072
 20
226.8849478995377
 10
390.3997500686072
 20
226.8857172797375
 10
390.3842817324071
 20
226.8866950699377
  0
LINE
  5
ECCD
330
20
100
AcDbEntity
  8
0
100
AcDbLine
 10
293.0352231899071
 20
229.3746855777377
 30
0.0
 11
292.7923379599071
 21
229.3750279544374
 31
0.0
  0
LINE
  5
ED0B
330
20
100
AcDbEntity
  8
0
100
AcDbLine
 10
375.6589653503071
 20
175.3665392818374
 30
0.0
 11
375.6424421999073
 21
175.3306865524375
 31
0.0
  0
LINE
  5
ED10
330
20
100
AcDbEntity
  8
0
100
AcDbLine
 10
387.7751872575073
 20
224.9796843750377
 30
0.0
 11
387.7128895573072
 21
224.7822063889376
 31
0.0
  0
LINE
  5
ED14
330
20
100
AcDbEntity
  8
0
100
AcDbLine
 10
387.1701823957071
 20
223.7241273940377
 30
0.0
 11
387.2712011535073
 21
224.0836854393377
 31
0.0
  0
LWPOLYLINE
  5
ED15
330
20
100
AcDbEntity
  8
0
100
AcDbPolyline
 90
        7
 70
     0
 43
0.0
 10
387.5656460904071
 20
224.7056754160376
 10
387.6358037169073
 20
224.9668694329375
 10
387.6072392841072
 20
225.2363415338376
 10
387.4821836433073
 20
225.4870022154375
 10
387.2715539144073
 20
225.6952717653375
 10
386.9959454835072
 20
225.8395445238376
 10
386.6788482316072
 20
225.9055191261376
  0
LWPOLYLINE
  5
ED3E
330
20
100
AcDbEntity
  8
0
100
AcDbPolyline
 90
        7
 70
     0
 43
0.0
 10
382.3770830351073
 20
185.8855303468375
 10
382.7680320680071
 20
183.7358833076376
 10
383.4481655307071
 20
181.5415341564376
 10
384.4552244665073
 20
179.3296671541376
 10
385.815860671407
 20
177.1596428471376
 10
387.5310073844072
 20
175.1147595743375
 10
389.6111028537072
 20
173.2518752235376
  0
LWPOLYLINE
  5
ED3F
330
20
100
AcDbEntity
  8
0
100
AcDbPolyline
 90
        7
 70
     0
 43
0.0
 10
382.5749836149071
 20
185.9781298653374
 10
382.9532309021071
 20
183.9182688068374
 10
383.6111795992073
 20
181.8169458060376
 10
384.5847016828071
 20
179.7013742012372
 10
385.8986954778071
 20
177.6296523390375
 10
387.5529728509072
 20
175.6824178320375
 10
389.5581181730071
 20
173.9133806742376
  0
LWPOLYLINE
  5
ED40
330
20
100
AcDbEntity
  8
0
100
AcDbPolyline
 90
        4
 70
     0
 43
0.0
 10
389.5581127399071
 20
173.9133757483375
 10
389.6368862015071
 20
173.7225343187376
 10
389.6550118508071
 20
173.4963781363376
 10
389.6111299725071
 20
173.2518752283375
  0
LINE
  5
ED42
330
20
100
AcDbEntity
  8
0
100
AcDbLine
 10
376.6092820726071
 20
201.4724523101373
 30
0.0
 11
376.628859395707
 21
201.4299724893377
 31
0.0
  0
LWPOLYLINE
  5
ED4E
330
20
100
AcDbEntity
  8
0
100
AcDbPolyline
 90
        8
 70
     0
 43
0.0
 10
386.8260916985072
 20
225.9820500990377
 10
387.0600405697072
 20
225.9422633856376
 10
387.2782779069071
 20
225.8578167762375
 10
387.4693665256073
 20
225.7326352538377
 10
387.6224414220073
 20
225.5729676308376
 10
387.7284516835073
 20
225.3870163342376
 10
387.7805045830072
 20
225.1853428973376
 10
387.7751872575073
 20
224.9796843750377
  0
LINE
  5
ED65
330
20
100
AcDbEntity
  8
0
100
AcDbLine
 10
392.3766210833072
 20
234.9821054655376
 30
0.0
 11
390.3842817324071
 21
234.9821007651375
 31
0.0
  0
LINE
  5
ED66
330
20
100
AcDbEntity
  8
0
100
AcDbLine
 10
292.6696376769072
 20
234.9821019450377
 30
0.0
 11
294.6620270731072
 21
234.9821019450377
 31
0.0
  0
LINE
  5
ED6A
330
20
100
AcDbEntity
  8
0
100
AcDbLine
 10
389.3880870343071
 20
235.9782966497375
 30
0.0
 11
295.6582217712071
 21
235.9782966497375
 31
0.0
  0
LINE
  5
ED6C
330
20
100
AcDbEntity
  8
0
100
AcDbLine
 10
389.3880870343071
 20
237.9706860458376
 30
0.0
 11
295.6582217712071
 21
237.9706860458376
 31
0.0
  0
LINE
  5
ED6D
102
{ACAD_REACTORS
330
FC51
102
}
330
20
100
AcDbEntity
  8
0
100
AcDbLine
 10
389.5345703085071
 20
238.1171693200375
 30
0.0
 11
295.5117384970071
 21
238.1171693200375
 31
0.0
  0
LWPOLYLINE
  5
ED6E
330
20
100
AcDbEntity
  8
0
100
AcDbPolyline
 90
        3
 70
     0
 43
0.0
 10
294.6620270731072
 20
233.5587164231375
 10
294.7917553008073
 20
233.5657818625374
 10
294.9243231205072
 20
233.5619056439376
  0
LWPOLYLINE
  5
ED6F
330
20
100
AcDbEntity
  8
0
100
AcDbPolyline
 90
        4
 70
     0
 43
0.0
 10
294.4649457959071
 20
233.5443740467376
 10
294.5297351270072
 20
233.5479494210376
 10
294.5954748484071
 20
233.5527519057376
 10
294.6620270731072
 20
233.5587164231375
  0
LWPOLYLINE
  5
ED70
330
20
100
AcDbEntity
  8
0
100
AcDbPolyline
 90
        7
 70
     0
 43
0.0
 10
298.3701874871071
 20
232.0806622390377
 10
298.0469943138071
 20
232.0594611048377
 10
297.7539891980072
 20
231.9549496788375
 10
297.5164237841072
 20
231.7780209864376
 10
297.3576999518073
 20
231.5472040987376
 10
297.2919102382073
 20
231.2843298825375
 10
297.3250339143072
 20
231.0159137333375
  0
LWPOLYLINE
  5
ED71
330
20
100
AcDbEntity
  8
0
100
AcDbPolyline
 90
        5
 70
     0
 43
0.0
 10
294.4649443752071
 20
233.5443800896376
 10
293.7910306786071
 20
233.4822990454375
 10
293.2293983786071
 20
233.3680425329375
 10
292.8425682299072
 20
233.2152549681377
 10
292.6696376769072
 20
233.0412487086375
  0
LINE
  5
ED7D
330
20
100
AcDbEntity
  8
0
100
AcDbLine
 10
376.628859395707
 20
174.8043661508375
 30
0.0
 11
376.6092820726071
 21
174.7618863299376
 31
0.0
  0
LWPOLYLINE
  5
ED7E
330
20
100
AcDbEntity
  8
0
100
AcDbPolyline
 90
        4
 70
     0
 43
0.0
 10
389.5581127825071
 20
202.3209628538376
 10
389.6368812917073
 20
202.5118036038377
 10
389.6549984851071
 20
202.7379602201376
 10
389.6111049566072
 20
202.9824634165377
  0
LWPOLYLINE
  5
ED7F
330
20
100
AcDbEntity
  8
0
100
AcDbPolyline
 90
       11
 70
     0
 43
0.0
 10
390.1434566178073
 20
201.4986721653376
 10
390.2248632999073
 20
201.7802805809377
 10
390.2782398821072
 20
202.0294624189375
 10
390.3005387657072
 20
202.2423944169374
 10
390.2889354282072
 20
202.4115725591376
 10
390.2444240376071
 20
202.5293999811375
 10
390.1665195040073
 20
202.5982345350374
 10
390.0523866303072
 20
202.6132755640376
 10
389.9083698895072
 20
202.5700622488376
 10
389.7418361025072
 20
202.4712334658376
 10
389.5581181730071
 20
202.3209579659375
  0
LWPOLYLINE
  5
ED81
330
20
100
AcDbEntity
  8
0
100
AcDbPolyline
 90
        5
 70
     0
 43
0.0
 10
382.3770830351073
 20
190.3488082933375
 10
382.2313839192073
 20
189.2700724313375
 10
382.1798497992071
 20
188.1171693200375
 10
382.2313845683073
 20
186.9642663360376
 10
382.3770830351073
 20
185.8855303468375
  0
LWPOLYLINE
  5
ED83
330
20
100
AcDbEntity
  8
0
100
AcDbPolyline
 90
        5
 70
     0
 43
0.0
 10
382.5749836149071
 20
190.2562087747377
 10
382.4810747155073
 20
189.2221628116376
 10
382.4478579307072
 20
188.1171693200375
 10
382.4810747483073
 20
187.0121758433375
 10
382.5749836149071
 20
185.9781298653374
  0
LINE
  5
ED86
330
20
100
AcDbEntity
  8
0
100
AcDbLine
 10
380.0294509347073
 20
203.3651808466375
 30
0.0
 11
380.1340856454073
 21
204.8615269220375
 31
0.0
  0
LINE
  5
ED90
330
20
100
AcDbEntity
  8
0
100
AcDbLine
 10
380.0294509347073
 20
172.8691577934377
 30
0.0
 11
380.0294509347073
 21
203.3651808466375
 31
0.0
  0
LINE
  5
EDAD
330
20
100
AcDbEntity
  8
0
100
AcDbLine
 10
382.3770830351073
 20
190.3488082933375
 30
0.0
 11
382.3770830351073
 21
203.3651808466375
 31
0.0
  0
LINE
  5
EDAE
330
20
100
AcDbEntity
  8
0
100
AcDbLine
 10
382.3770830351073
 20
172.8691577934377
 30
0.0
 11
382.3770830351073
 21
185.8855303468375
 31
0.0
  0
LINE
  5
EDD0
330
20
100
AcDbEntity
  8
0
100
AcDbLine
 10
380.0294509347073
 20
172.8691577934377
 30
0.0
 11
380.1340856454073
 21
171.3728117180375
 31
0.0
  0
LWPOLYLINE
  5
EDDD
330
20
100
AcDbEntity
  8
0
100
AcDbPolyline
 90
        9
 70
     0
 43
0.0
 10
389.5345703085071
 20
238.1171693200375
 10
390.1178435123071
 20
238.0600548808375
 10
390.6788492921071
 20
237.8905789555374
 10
391.1960163517073
 20
237.6148194098376
 10
391.6492066331073
 20
237.2431897117376
 10
392.0208257815072
 20
236.7899993551376
 10
392.2965726285071
 20
236.2728434006377
 10
392.4660413422071
 20
235.7118514626376
 10
392.5231544027072
 20
235.1285852258375
  0
LWPOLYLINE
  5
EDDF
330
20
100
AcDbEntity
  8
0
100
AcDbPolyline
 90
        7
 70
     0
 43
0.0
 10
295.6582217712071
 20
235.9782966497375
 10
295.4012724145071
 20
235.9447826120375
 10
295.1603797832071
 20
235.8455449287375
 10
294.9535563361071
 20
235.6871809219375
 10
294.7949011811071
 20
235.4801788838376
 10
294.6955202702071
 20
235.2389915903376
 10
294.6620270731072
 20
234.9821019516376
  0
LWPOLYLINE
  5
EDE0
330
20
100
AcDbEntity
  8
0
100
AcDbPolyline
 90
        7
 70
     0
 43
0.0
 10
295.6582217712071
 20
237.9706860458376
 10
294.8864444894073
 20
237.8656133036376
 10
294.1674993620071
 20
237.5654074488377
 10
293.5498527894072
 20
237.0905027247375
 10
293.0749328712071
 20
236.4728553284376
 10
292.7747115345071
 20
235.7538846366376
 10
292.6696376769072
 20
234.9821019516376
  0
LINE
  5
EDEC
330
20
100
AcDbEntity
  8
0
100
AcDbLine
 10
390.430642706407
 20
226.8843862843377
 30
0.0
 11
390.4152292163073
 21
226.5795714497377
 31
0.0
  0
LINE
  5
EDED
330
20
100
AcDbEntity
  8
0
100
AcDbLine
 10
392.3766711285073
 20
226.3494880758376
 30
0.0
 11
392.3378621387072
 21
225.5820073994375
 31
0.0
  0
LINE
  5
EDEE
330
20
100
AcDbEntity
  8
0
100
AcDbLine
 10
392.3378621387072
 20
225.5820073994375
 30
0.0
 11
392.3190700619073
 21
225.1869376086375
 31
0.0
  0
LINE
  5
EDEF
330
20
100
AcDbEntity
  8
0
100
AcDbLine
 10
392.3190700619073
 20
225.1869376086375
 30
0.0
 11
392.2990541194071
 21
224.6958524981375
 31
0.0
  0
LINE
  5
EE14
330
20
100
AcDbEntity
  8
0
100
AcDbLine
 10
389.3880870287072
 20
140.2560419904376
 30
0.0
 11
389.3880870287072
 21
138.2636525942374
 31
0.0
  0
LINE
  5
EE15
330
20
100
AcDbEntity
  8
0
100
AcDbLine
 10
389.3880870277072
 20
237.9706860458376
 30
0.0
 11
389.3880870277072
 21
235.9782966497375
 31
0.0
  0
LINE
  5
EE19
330
20
100
AcDbEntity
  8
0
100
AcDbLine
 10
390.1434566178073
 20
174.7356669245377
 30
0.0
 11
390.1434566178073
 21
201.4986717205375
 31
0.0
  0
LINE
  5
EE1C
330
20
100
AcDbEntity
  8
0
100
AcDbLine
 10
390.3842817324071
 20
149.3476435702376
 30
0.0
 11
390.3842817324071
 21
141.2522366885376
 31
0.0
  0
LINE
  5
EE1D
330
20
100
AcDbEntity
  8
0
100
AcDbLine
 10
390.3842817324071
 20
226.8866950699377
 30
0.0
 11
390.3842817324071
 21
234.9821019516376
 31
0.0
  0
LWPOLYLINE
  5
EE20
330
20
100
AcDbEntity
  8
0
100
AcDbPolyline
 90
        8
 70
     0
 43
0.0
 10
387.7751985728071
 20
151.2545868924376
 10
387.7804799266072
 20
151.0487813932375
 10
387.7283090450071
 20
150.8469731965375
 10
387.6221684448072
 20
150.6610076112376
 10
387.4690564220072
 20
150.5014471374376
 10
387.2780622780073
 20
150.3764115999373
 10
387.0599649118073
 20
150.2920544861376
 10
386.8260916985072
 20
150.2522885410375
  0
LINE
  5
EE21
330
20
100
AcDbEntity
  8
0
100
AcDbLine
 10
392.3286837544072
 20
150.8390947032374
 30
0.0
 11
392.3766711285073
 21
149.8848505643375
 31
0.0
  0
LINE
  5
EE24
330
20
100
AcDbEntity
  8
0
100
AcDbLine
 10
390.4152292163073
 20
149.6547671904376
 30
0.0
 11
390.430642706407
 21
149.3499523558377
 31
0.0
  0
LWPOLYLINE
  5
EE25
330
20
100
AcDbEntity
  8
0
100
AcDbPolyline
 90
        7
 70
     0
 43
0.0
 10
390.3842817324071
 20
234.9821019516376
 10
390.3507676947072
 20
235.2390513083375
 10
390.2515300114071
 20
235.4799439395375
 10
390.0931660046073
 20
235.6867673867375
 10
389.8861639665071
 20
235.8454225417375
 10
389.6449766730071
 20
235.9448034525374
 10
389.3880870343071
 20
235.9782966497375
  0
LWPOLYLINE
  5
EE30
330
20
100
AcDbEntity
  8
0
100
AcDbPolyline
 90
        7
 70
     0
 43
0.0
 10
390.3842817324071
 20
141.2522366885376
 10
390.3507683495072
 20
140.9952768204376
 10
390.2514691319073
 20
140.7542748219376
 10
390.0930181340072
 20
140.5474209668372
 10
389.8861286942072
 20
140.3888980801376
 10
389.645077003907
 20
140.2895624968377
 10
389.3880870343071
 20
140.2560419904376
  0
LWPOLYLINE
  5
EE33
330
20
100
AcDbEntity
  8
0
100
AcDbPolyline
 90
        9
 70
     0
 43
0.0
 10
392.5231544027072
 20
141.1057534143376
 10
392.4660399635071
 20
140.5224802104376
 10
392.296564038207
 20
139.9614744307374
 10
392.020804492507
 20
139.4443073710377
 10
391.6491747944073
 20
138.9911170897374
 10
391.1959844378073
 20
138.6194979412377
 10
390.6788284833073
 20
138.3437510943375
 10
390.1178365453071
 20
138.1742823806374
 10
389.5345703085071
 20
138.1171693200375
  0
LWPOLYLINE
  5
EE34
330
20
100
AcDbEntity
  8
0
100
AcDbPolyline
 90
        5
 70
     0
 43
0.0
 10
392.2990541194071
 20
224.6958524981375
 10
392.2891461160073
 20
224.4072916543375
 10
392.2800178243073
 20
224.0878738454375
 10
392.2727146151073
 20
223.7370353140377
 10
392.2694156733072
 20
223.3592573814376
  0
LINE
  5
EE35
330
20
100
AcDbEntity
  8
0
100
AcDbLine
 10
390.9260006513072
 20
174.7356664748376
 30
0.0
 11
390.9260006513072
 21
201.4986721653376
 31
0.0
  0
LINE
  5
EE36
330
20
100
AcDbEntity
  8
0
100
AcDbLine
 10
391.8421143440072
 20
223.3591942175376
 30
0.0
 11
391.8421143440072
 21
152.8750996436377
 31
0.0
  0
LINE
  5
EE37
330
20
100
AcDbEntity
  8
0
100
AcDbLine
 10
392.2694156733072
 20
223.3592573814376
 30
0.0
 11
392.2694156733072
 21
152.8750812587375
 31
0.0
  0
LINE
  5
EE38
330
20
100
AcDbEntity
  8
0
100
AcDbLine
 10
392.3766711285073
 20
149.8848505643375
 30
0.0
 11
392.3766711285073
 21
141.2522366885376
 31
0.0
  0
LINE
  5
EE39
330
20
100
AcDbEntity
  8
0
100
AcDbLine
 10
392.3766711285073
 20
226.3494880758376
 30
0.0
 11
392.3766711285073
 21
234.9821019516376
 31
0.0
  0
LINE
  5
EE3A
102
{ACAD_REACTORS
330
FC39
102
}
330
20
100
AcDbEntity
  8
0
100
AcDbLine
 10
392.5231544027072
 20
141.1057534143376
 30
0.0
 11
392.5231544027072
 21
235.1285852258375
 31
0.0
  0
LWPOLYLINE
  5
EE3B
330
20
100
AcDbEntity
  8
0
100
AcDbPolyline
 90
        7
 70
     0
 43
0.0
 10
392.2694156733072
 20
152.8750812587375
 10
392.2727231609071
 20
152.4967658808375
 10
392.2800409147071
 20
152.1455488057377
 10
392.2891815531073
 20
151.8259311869375
 10
392.2990963663071
 20
151.5373392021374
 10
392.3091843579073
 20
151.2783558132376
 10
392.3286837544072
 20
150.8390947032374
  0
LWPOLYLINE
  5
EE3C
330
20
100
AcDbEntity
  8
0
100
AcDbPolyline
 90
       11
 70
     0
 43
0.0
 10
390.9260006513072
 20
201.4986721653376
 10
390.9130043634073
 20
201.8663264526376
 10
390.8724946617073
 20
202.2048269943375
 10
390.8021759894073
 20
202.5084536395377
 10
390.7018558684072
 20
202.7652199068377
 10
390.5763019723071
 20
202.9629393349376
 10
390.4234409925073
 20
203.1037987157377
 10
390.240511485707
 20
203.1813280170374
 10
390.0386703399071
 20
203.1856336009375
 10
389.8270346661071
 20
203.1178354675377
 10
389.6111028537072
 20
202.9824634165377
  0
LWPOLYLINE
  5
EE3E
330
20
100
AcDbEntity
  8
0
100
AcDbPolyline
 90
        7
 70
     0
 43
0.0
 10
392.3766711285073
 20
234.9821019516376
 10
392.2715983863072
 20
235.7538792334377
 10
391.9713925315073
 20
236.4728243607375
 10
391.4964878074071
 20
237.0904709334376
 10
390.8788404111072
 20
237.5653908516377
 10
390.1598697193073
 20
237.8656121882376
 10
389.3880870343071
 20
237.9706860458376
  0
LWPOLYLINE
  5
EE40
330
20
100
AcDbEntity
  8
0
100
AcDbPolyline
 90
        5
 70
     0
 43
0.0
 10
392.3378621387072
 20
225.5820073994375
 10
392.1527188521071
 20
225.9403516281377
 10
391.7293543667071
 20
226.2514608751376
 10
391.1235742914072
 20
226.4743264444375
 10
390.4152292163073
 20
226.5795714497377
  0
LWPOLYLINE
  5
EE41
330
20
100
AcDbEntity
  8
0
100
AcDbPolyline
 90
        9
 70
     0
 43
0.0
 10
390.4152292163073
 20
226.5795714497377
 10
390.5398988275073
 20
226.3403916329377
 10
390.6774748857071
 20
226.0691028117375
 10
390.8299257287072
 20
225.7592731325374
 10
390.9987728929073
 20
225.4040888519376
 10
391.1851229626071
 20
224.9964864043377
 10
391.3882740614072
 20
224.5284297142375
 10
391.6093374602072
 20
223.9910663461377
 10
391.8421257384072
 20
223.3592182876376
  0
LWPOLYLINE
  5
EE48
330
20
100
AcDbEntity
  8
0
100
AcDbPolyline
 90
        5
 70
     0
 43
0.0
 10
392.3378621387072
 20
150.6523312407376
 10
392.1527188777072
 20
150.2939870531375
 10
391.7293544268073
 20
149.9828778144375
 10
391.1235743465072
 20
149.7600122237376
 10
390.4152292163073
 20
149.6547671904376
  0
LWPOLYLINE
  5
EE49
330
20
100
AcDbEntity
  8
0
100
AcDbPolyline
 90
        9
 70
     0
 43
0.0
 10
391.8421176602072
 20
152.8750926385376
 10
391.6089822856072
 20
152.2423710374375
 10
391.3876848776071
 20
151.7045049952375
 10
391.1843972737072
 20
151.2362283467377
 10
390.9980229741071
 20
150.8286413059376
 10
390.8292497420072
 20
150.4736691007376
 10
390.6769597061073
 20
150.1642048849376
 10
390.5396145370072
 20
149.8933941594376
 10
390.4152292163073
 20
149.6547671904376
  0
LWPOLYLINE
  5
EE4A
330
20
100
AcDbEntity
  8
0
100
AcDbPolyline
 90
        7
 70
     0
 43
0.0
 10
392.3766711285073
 20
141.2522366885376
 10
392.2716004272072
 20
140.4804661442375
 10
391.971390118207
 20
139.7615087782374
 10
391.4964748862073
 20
139.1438545848375
 10
390.8788205172072
 20
138.6689365411377
 10
390.1598585092071
 20
138.3687234101375
 10
389.3880870343071
 20
138.2636525942374
  0
LINE
  5
FBEE
330
20
100
AcDbEntity
  8
3
100
AcDbLine
 10
518.5399745682262
 20
109.3499812996191
 30
0.0
 11
518.5399745682262
 21
77.34998129961899
 31
0.0
  0
MTEXT
  5
FBEF
330
20
100
AcDbEntity
  8
3
100
AcDbMText
 10
469.0653075779501
 20
107.4073407548747
 30
0.0
 40
2.799999999999998
 41
4.0944
 71
     1
 72
     5
  1
図　　番
 73
     1
 44
1.0
  0
LINE
  5
FBF1
330
20
100
AcDbEntity
  8
3
100
AcDbLine
 10
458.5399745682263
 20
89.34998129961909
 30
0.0
 11
468.5399745682262
 21
89.34998129961909
 31
0.0
  0
MTEXT
  5
FBF2
330
20
100
AcDbEntity
  8
3
100
AcDbMText
 10
459.7006541917427
 20
92.7085371744298
 30
0.0
 40
2.799999999999998
 41
9.237
 71
     1
 72
     5
  1
部番
 73
     1
 44
1.0
  0
LINE
  5
FBF3
330
20
100
AcDbEntity
  8
3
100
AcDbLine
 10
458.5399745682263
 20
93.34998129961901
 30
0.0
 11
458.5399745682263
 21
77.34998129961899
 31
0.0
  0
MTEXT
  5
FBF4
330
20
100
AcDbEntity
  8
3
100
AcDbMText
 10
462.2348995045629
 20
84.83644478477208
 30
0.0
 40
3.0
 41
6.3272
 71
     1
 72
     5
  1
/
 73
     1
 44
1.0
  0
MTEXT
  5
FBF5
330
20
100
AcDbEntity
  8
3
100
AcDbMText
 10
469.2107302285712
 20
91.4204643774895
 30
0.0
 40
2.799999999999998
 41
4.0944
 71
     1
 72
     5
  1
品　　名
 73
     1
 44
1.0
  0
LINE
  5
FBF7
330
20
100
AcDbEntity
  8
3
100
AcDbLine
 10
473.539974568226
 20
109.3499812996191
 30
0.0
 11
473.539974568226
 21
77.34998129961899
 31
0.0
  0
LINE
  5
FBF8
330
20
100
AcDbEntity
  8
3
100
AcDbLine
 10
468.5399745682262
 20
109.3499812996191
 30
0.0
 11
468.5399745682262
 21
77.34998129961899
 31
0.0
  0
MTEXT
  5
FBF9
330
20
100
AcDbEntity
  8
3
100
AcDbMText
 10
486.5235021933525
 20
103.6055318537624
 30
0.0
 40
4.0
 41
21.07853875442573
 71
     1
 72
     5
  1
ＮＲ４Ｆ
 73
     1
 44
1.0
  0
MTEXT
  5
FC09
330
20
100
AcDbEntity
  8
3
100
AcDbMText
 10
447.2687370664431
 20
83.01240616167886
 30
0.0
 40
3.0
 41
8.030599999999997
 71
     1
 72
     5
  1
m/m
 73
     1
 44
1.0
  0
LINE
  5
FC0A
330
20
100
AcDbEntity
  8
3
100
AcDbLine
 10
443.5399745682262
 20
93.34998129961901
 30
0.0
 11
443.5399745682262
 21
77.34998129961899
 31
0.0
  0
MTEXT
  5
FC0B
330
20
100
AcDbEntity
  8
3
100
AcDbMText
 10
427.8005580949044
 20
83.01240616167886
 30
0.0
 40
3.0
 41
8.030624239295669
 71
     1
 72
     5
  1
1/1
 73
     1
 44
1.0
  0
LINE
  5
FC0C
330
20
100
AcDbEntity
  8
3
100
AcDbLine
 10
438.5399745682263
 20
93.34998129961901
 30
0.0
 11
438.5399745682263
 21
77.34998129961899
 31
0.0
  0
MTEXT
  5
FC0D
330
20
100
AcDbEntity
  8
3
100
AcDbMText
 10
439.2804677873843
 20
93.37472818984293
 30
0.0
 40
2.799999999999998
 41
3.9807
 71
     1
 72
     5
  1
個数
 73
     1
 44
1.0
  0
MTEXT
  5
FC0E
330
20
100
AcDbEntity
  8
3
100
AcDbMText
 10
439.2804677873843
 20
84.96375506270068
 30
0.0
 40
2.799999999999998
 41
3.9807
 71
     1
 72
     5
  1
単位
 73
     1
 44
1.0
  0
MTEXT
  5
FC0F
330
20
100
AcDbEntity
  8
3
100
AcDbMText
 10
419.3306134030401
 20
107.6980110424404
 30
0.0
 40
2.799999999999998
 41
4.0944
 71
     1
 72
     5
  1
部品図
 73
     1
 44
1.0
  0
MTEXT
  5
FC10
330
20
100
AcDbEntity
  8
3
100
AcDbMText
 10
419.4528078385316
 20
93.37472818984293
 30
0.0
 40
2.799999999999998
 41
3.9807
 71
     1
 72
     5
  1
材料
 73
     1
 44
1.0
  0
MTEXT
  5
FC11
330
20
100
AcDbEntity
  8
3
100
AcDbMText
 10
419.4528078385316
 20
84.96375506270068
 30
0.0
 40
2.799999999999998
 41
3.9807
 71
     1
 72
     5
  1
尺度
 73
     1
 44
1.0
  0
LINE
  5
FC12
330
20
100
AcDbEntity
  8
3
100
AcDbLine
 10
423.539974568226
 20
109.3499812996191
 30
0.0
 11
423.539974568226
 21
77.34998129961899
 31
0.0
  0
LINE
  5
FC13
330
20
100
AcDbEntity
  8
3
100
AcDbLine
 10
418.5399745682262
 20
109.3499812996191
 30
0.0
 11
418.5399745682262
 21
77.34998129961899
 31
0.0
  0
LINE
  5
FC14
330
20
100
AcDbEntity
  8
3
100
AcDbLine
 10
418.5399745682262
 20
77.34998129961899
 30
0.0
 11
518.5399745682262
 21
77.34998129961899
 31
0.0
  0
LINE
  5
FC15
330
20
100
AcDbEntity
  8
3
100
AcDbLine
 10
418.5399745682262
 20
93.34998129961901
 30
0.0
 11
518.5399745682262
 21
93.34998129961901
 31
0.0
  0
LINE
  5
FC16
330
20
100
AcDbEntity
  8
3
100
AcDbLine
 10
418.5399745682262
 20
109.3499812996191
 30
0.0
 11
518.5399745682262
 21
109.3499812996191
 31
0.0
  0
LINE
  5
FC17
330
20
100
AcDbEntity
  8
3
100
AcDbLine
 10
418.5399745682262
 20
85.34998129961911
 30
0.0
 11
458.5399745682263
 21
85.34998129961911
 31
0.0
  0
MTEXT
  5
FC18
330
20
100
AcDbEntity
  8
3
100
AcDbMText
 10
433.0838709646861
 20
103.138933647546
 30
0.0
 40
4.0
 41
23.82046881679582
 71
     1
 72
     5
  1
セーフアイ
 73
     1
 44
1.0
  0
CIRCLE
  5
FC19
330
20
100
AcDbEntity
  8
3
 62
     7
100
AcDbCircle
 10
476.0408686402818
 20
157.4132079803499
 30
0.0
 40
2.0
  0
CIRCLE
  5
FC1B
330
20
100
AcDbEntity
  8
3
 62
     7
100
AcDbCircle
 10
476.1085941337486
 20
149.8317899854201
 30
0.0
 40
2.0
  0
LINE
  5
FC1C
330
20
100
AcDbEntity
  8
3
  6
Continuous
100
AcDbLine
 10
476.2431435527169
 20
132.8490406351293
 30
0.0
 11
511.3620263201466
 21
132.8490406351293
 31
0.0
  0
MTEXT
  5
FC1D
102
{ACAD_XDICTIONARY
360
FD08
102
}
330
20
100
AcDbEntity
  8
3
100
AcDbMText
 10
463.7951952099414
 20
159.0223094439245
 30
0.0
 40
3.0
 41
55.5006
 71
     1
 72
     5
  1
註）　１　ＰＣ\P　　　２　ＰＣ\P　　　　一般公差　±1.0\P　　　　表面アラサ　\U+25BD\U+25BD\U+25BD
 73
     1
 44
1.5
  0
LINE
  5
FC1E
330
20
100
AcDbEntity
  8
3
  6
Continuous
100
AcDbLine
 10
463.6479207286571
 20
155.3490406351293
 30
0.0
 11
516.8212346386996
 21
155.3490406351293
 31
0.0
  0
LINE
  5
FC1F
330
20
100
AcDbEntity
  8
3
  6
Continuous
100
AcDbLine
 10
463.6479207286571
 20
147.8490406351293
 30
0.0
 11
516.8212346386996
 21
147.8490406351293
 31
0.0
  0
LINE
  5
FC20
330
20
100
AcDbEntity
  8
3
  6
Continuous
100
AcDbLine
 10
476.2431435527169
 20
140.3490406351293
 30
0.0
 11
516.8212346386996
 21
140.3490406351293
 31
0.0
  0
DIMENSION
  5
FC22
102
{ACAD_XDICTIONARY
360
FC2F
102
}
102
{ACAD_REACTORS
330
FC39
102
}
330
20
100
AcDbEntity
  8
dim
100
AcDbDimension
  2
*D2
 10
392.5231544027072
 20
246.6890100241847
 30
0.0
 11
342.5231544027071
 21
248.6890100241847
 31
0.0
 70
    32
 71
     5
 42
100.0
  3
STD01$0
100
AcDbAlignedDimension
 13
292.5231544027072
 23
235.1285852258375
 33
0.0
 14
392.5231544027072
 24
235.1285852258375
 34
0.0
100
AcDbRotatedDimension
  0
DIMENSION
  5
FC3A
102
{ACAD_XDICTIONARY
360
FC47
102
}
102
{ACAD_REACTORS
330
FC51
102
}
330
20
100
AcDbEntity
  8
dim
100
AcDbDimension
  2
*D3
 10
282.8212589829153
 20
238.1171693200375
 30
0.0
 11
280.8212589829153
 21
188.1171693200375
 31
0.0
 70
    32
 71
     5
 42
100.0
  3
STD01$0
100
AcDbAlignedDimension
 13
295.5117384970071
 23
138.1171693200377
 33
0.0
 14
295.5117384970071
 24
238.1171693200375
 34
0.0
 50
90.0
100
AcDbRotatedDimension
  0
DIMENSION
  5
FC52
102
{ACAD_XDICTIONARY
360
FC5F
102
}
102
{ACAD_REACTORS
330
FC69
102
}
330
20
100
AcDbEntity
  8
dim
100
AcDbDimension
  2
*D4
 10
451.5780742654079
 20
238.1171693200375
 30
0.0
 11
449.5780742654077
 21
188.1171693200375
 31
0.0
 70
    32
 71
     5
 42
100.0
  3
STD01$0
100
AcDbAlignedDimension
 13
442.3375103764072
 23
138.1171693200375
 33
0.0
 14
442.3375103764071
 24
238.1171693200375
 34
0.0
 50
90.0
100
AcDbRotatedDimension
  0
DIMENSION
  5
FC6A
102
{ACAD_XDICTIONARY
360
FC77
102
}
102
{ACAD_REACTORS
330
FC81
102
}
330
20
100
AcDbEntity
  8
dim
100
AcDbDimension
  2
*D5
 10
425.3375103764072
 20
246.0070131374015
 30
0.0
 11
433.8375103764071
 21
248.0070131374015
 31
0.0
 70
    32
 71
     5
 42
16.99999999999985
  3
STD01$0
100
AcDbAlignedDimension
 13
442.3375103764071
 23
241.1171693200375
 33
0.0
 14
425.3375103764072
 24
208.6600340530377
 34
0.0
100
AcDbRotatedDimension
  0
DIMENSION
  5
FC83
102
{ACAD_XDICTIONARY
360
FC90
102
}
102
{ACAD_REACTORS
330
FC9A
102
}
330
20
100
AcDbEntity
  8
dim
100
AcDbDimension
  2
*D6
 10
392.523154402707
 20
75.97773003757675
 30
0.0
 11
342.5231544027071
 21
77.97773003757675
 31
0.0
 70
    32
 71
     5
 42
99.99999999999994
  3
STD01$0
100
AcDbAlignedDimension
 13
292.5231544027072
 23
84.29325191711226
 33
0.0
 14
392.523154402707
 24
84.29325191711226
 34
0.0
100
AcDbRotatedDimension
  0
DIMENSION
  5
FC9B
102
{ACAD_XDICTIONARY
360
FCA8
102
}
102
{ACAD_REACTORS
330
FCB2
102
}
330
20
100
AcDbEntity
  8
dim
100
AcDbDimension
  2
*D7
 10
285.3058003299016
 20
101.2932519171122
 30
0.0
 11
283.3058003299015
 21
92.79325191711231
 31
0.0
 70
    32
 71
     5
 42
17.00000000000001
  3
STD01$0
100
AcDbAlignedDimension
 13
289.5231544027071
 23
84.29325191711226
 33
0.0
 14
302.0755064056068
 24
101.2932519171122
 34
0.0
 50
90.0
100
AcDbRotatedDimension
  0
DIMENSION
  5
FCB3
102
{ACAD_XDICTIONARY
360
FCC0
102
}
102
{ACAD_REACTORS
330
FCCA
102
}
330
20
100
AcDbEntity
  8
dim
100
AcDbDimension
  2
*D8
 10
289.5231544027071
 20
188.1171693200375
 30
0.0
 11
321.3794981156725
 21
196.4302592587536
 31
0.0
 70
    34
 71
     5
 42
0.0698131700802054
  3
STD01$2
100
AcDb2LineAngularDimension
 13
375.5984031151072
 23
200.9722937421376
 33
0.0
 14
305.8727641798071
 24
205.8479853836375
 34
0.0
 15
395.5231544027072
 25
188.1171693200375
 35
0.0
 16
323.490171818287
 26
199.1064878204372
 36
0.0
  0
DIMENSION
  5
FCCB
102
{ACAD_XDICTIONARY
360
FCD8
102
}
102
{ACAD_REACTORS
330
FCE2
102
}
330
20
100
AcDbEntity
  8
dim
100
AcDbDimension
  2
*D9
 10
305.798248524707
 20
170.4814020741376
 30
0.0
 11
325.3870060933468
 21
179.9940932423854
 31
0.0
 70
    34
 71
     5
 42
0.0698131700797351
  3
STD01$2
100
AcDb2LineAngularDimension
 13
395.5231544027072
 23
188.1171693200375
 33
0.0
 14
289.5231544027071
 24
188.1171693200375
 34
0.0
 15
375.6589653503071
 25
175.3665392818374
 35
0.0
 16
323.3087795991213
 26
182.6546363147159
 36
0.0
  0
LEADER
  5
FCE4
330
20
100
AcDbEntity
  8
dim
100
AcDbLeader
  3
STD01
 76
     2
 10
306.3779021093058
 20
196.914537784218
 30
0.0
 10
276.307853944842
 20
209.8313716354605
 30
0.0
1001
ACAD
1000
DSTYLE
1002
{
1070
   147
1040
0.5
1070
    77
1070
     1
1002
}
  0
LEADER
  5
FCE6
330
20
100
AcDbEntity
  8
dim
100
AcDbLeader
  3
STD01
 76
     2
 10
305.3838512170857
 20
152.2024231310805
 30
0.0
 10
276.307853944842
 20
159.1576404286893
 30
0.0
1001
ACAD
1000
DSTYLE
1002
{
1070
   147
1040
0.5
1070
    77
1070
     1
1002
}
  0
CIRCLE
  5
FCE9
330
20
100
AcDbEntity
  8
3
 62
     7
100
AcDbCircle
 10
274.3722227712979
 20
210.6691920397418
 30
0.0
 40
2.0
  0
CIRCLE
  5
FCEA
330
20
100
AcDbEntity
  8
3
 62
     7
100
AcDbCircle
 10
274.3722227712979
 20
159.9954608329706
 30
0.0
 40
2.0
  0
MTEXT
  5
FCEE
330
20
100
AcDbEntity
  8
dim
100
AcDbMText
 10
273.8819463301552
 20
212.3080954445589
 30
0.0
 40
3.0
 41
2.205759530167142
 71
     1
 72
     5
  1
1
 73
     1
 44
1.0
  0
MTEXT
  5
FCEF
330
20
100
AcDbEntity
  8
dim
100
AcDbMText
 10
273.3485600692661
 20
161.6639842121298
 30
0.0
 40
3.0
 41
2.205759530167142
 71
     1
 72
     5
  1
2
 73
     1
 44
1.0
  0
INSERT
  5
FD36
330
20
100
AcDbEntity
  8
dim
100
AcDbBlockReference
  2
lt1_1
 10
229.5202732695729
 20
126.0590923117939
 30
0.0
  0
MTEXT
  5
FE18
330
20
100
AcDbEntity
  8
3
100
AcDbMText
 10
450.2266053449988
 20
75.20449236850855
 30
0.0
 40
4.0
 41
74.69590670254252
 71
     1
 72
     5
  1
製造元  大塚刷毛製造株式会社
 73
     1
 44
1.0
  0
LWPOLYLINE
  5
10056
330
20
100
AcDbEntity
  8
waku1
 62
     7
100
AcDbPolyline
 90
        3
 70
     0
 43
0.0
 10
250.4958716620236
 20
55.31438723077297
 10
245.4958716620236
 20
55.31438723077297
 10
245.4958716620236
 20
60.31438723077295
  0
LWPOLYLINE
  5
1016C
330
20
100
AcDbEntity
  8
waku1
 62
     7
100
AcDbPolyline
 90
        3
 70
     0
 43
0.0
 10
245.4958716620236
 20
260.3143872307729
 10
245.4958716620236
 20
265.3143872307729
 10
250.4958716620236
 20
265.3143872307729
  0
LWPOLYLINE
  5
101DA
330
20
100
AcDbEntity
  8
waku1
 62
     7
100
AcDbPolyline
 90
        3
 70
     0
 43
0.0
 10
542.4958716620237
 20
60.31438723077293
 10
542.4958716620237
 20
55.31438723077297
 10
537.4958716620239
 20
55.31438723077297
  0
LWPOLYLINE
  5
101EB
330
20
100
AcDbEntity
  8
waku1
 62
     7
100
AcDbPolyline
 90
        3
 70
     0
 43
0.0
 10
537.4958716620239
 20
265.3143872307729
 10
542.4958716620237
 20
265.3143872307729
 10
542.4958716620237
 20
260.3143872307729
  0
MTEXT
  5
1027E
330
20
100
AcDbEntity
  8
dim
100
AcDbMText
 10
267.3853961439488
 20
156.554050942055
 30
0.0
 40
3.0
 41
14.70681486530361
 71
     1
 72
     5
  1
片面反射
 73
     1
 44
1.0
  0
MTEXT
  5
10282
330
20
100
AcDbEntity
  8
3
100
AcDbMText
 10
494.1465349408439
 20
87.47853744721124
 30
0.0
 40
4.0
 41
4.478440729491616
 71
     1
 72
     5
  1
Y
 73
     1
 44
1.0
  0
ENDSEC
  0
SECTION
  2
OBJECTS
  0
DICTIONARY
  5
C
330
0
100
AcDbDictionary
281
     1
  3
ACAD_COLOR
350
1B
  3
ACAD_GROUP
350
D
  3
ACAD_LAYOUT
350
19
  3
ACAD_MATERIAL
350
1A
  3
ACAD_MLINESTYLE
350
16
  3
ACAD_PLOTSETTINGS
350
18
  3
ACAD_PLOTSTYLENAME
350
E
  3
AcadDim
350
FCE3
  3
AcDbVariableDictionary
350
FCFE
  0
DICTIONARY
  5
FD08
330
FC1D
100
AcDbDictionary
280
     1
281
     1
  3
ACAD_MTEXT_RT
360
FD09
  0
DICTIONARY
  5
FC2F
330
FC22
100
AcDbDictionary
280
     1
281
     1
  3
ACAD_DIMASSOC
360
FC39
  0
DICTIONARY
  5
FC47
330
FC3A
100
AcDbDictionary
280
     1
281
     1
  3
ACAD_DIMASSOC
360
FC51
  0
DICTIONARY
  5
FC5F
330
FC52
100
AcDbDictionary
280
     1
281
     1
  3
ACAD_DIMASSOC
360
FC69
  0
DICTIONARY
  5
FC77
330
FC6A
100
AcDbDictionary
280
     1
281
     1
  3
ACAD_DIMASSOC
360
FC81
  0
DICTIONARY
  5
FC90
330
FC83
100
AcDbDictionary
280
     1
281
     1
  3
ACAD_DIMASSOC
360
FC9A
  0
DICTIONARY
  5
FCA8
330
FC9B
100
AcDbDictionary
280
     1
281
     1
  3
ACAD_DIMASSOC
360
FCB2
  0
DICTIONARY
  5
FCC0
330
FCB3
100
AcDbDictionary
280
     1
281
     1
  3
ACAD_DIMASSOC
360
FCCA
  0
DICTIONARY
  5
FCD8
330
FCCB
100
AcDbDictionary
280
     1
281
     1
  3
ACAD_DIMASSOC
360
FCE2
  0
DICTIONARY
  5
1B
102
{ACAD_REACTORS
330
C
102
}
330
C
100
AcDbDictionary
281
     1
  0
DICTIONARY
  5
D
102
{ACAD_REACTORS
330
C
102
}
330
C
100
AcDbDictionary
281
     1
  0
DICTIONARY
  5
19
102
{ACAD_REACTORS
330
C
102
}
330
C
100
AcDbDictionary
281
     1
  3
Model
350
23
  3
レイアウト1
350
FCF4
  0
DICTIONARY
  5
1A
102
{ACAD_REACTORS
330
C
102
}
330
C
100
AcDbDictionary
281
     1
  0
DICTIONARY
  5
16
102
{ACAD_REACTORS
330
C
102
}
330
C
100
AcDbDictionary
281
     1
  3
Standard
350
17
  0
DICTIONARY
  5
18
102
{ACAD_REACTORS
330
C
102
}
330
C
100
AcDbDictionary
281
     1
  0
ACDBDICTIONARYWDFLT
  5
E
102
{ACAD_REACTORS
330
C
102
}
330
C
100
AcDbDictionary
281
     1
  3
Normal
350
F
100
AcDbDictionaryWithDefault
340
F
  0
XRECORD
  5
FCE3
102
{ACAD_REACTORS
330
C
102
}
330
C
100
AcDbXrecord
280
     1
 90
   990106
  3
OPEN
 60
     4
 61
     0
 62
     4
 63
     4
 64
     1
 65
     0
 66
     0
 67
     3
 68
     1
 69
     0
 70
     0
 71
     0
 72
     0
 40
0.0
170
     1
  0
DICTIONARY
  5
FCFE
102
{ACAD_REACTORS
330
C
102
}
330
C
100
AcDbDictionary
281
     1
  3
DIMASSOC
350
FD00
  3
HIDETEXT
350
FCFF
  3
PROJECTNAME
350
FD01
  0
XRECORD
  5
FD09
102
{ACAD_REACTORS
330
FD08
102
}
330
FD08
100
AcDbXrecord
280
     1
 40
69011.0
  1
駐）　１　ＰＣ\P　　　２　ＰＣ\P　　　　一般公差　%%p1.0\P　　　　表面アラサ　\U+25BD\U+25BD\U+25BD
  0
DIMASSOC
  5
FC39
102
{ACAD_REACTORS
330
FC2F
102
}
330
FC2F
100
AcDbDimAssoc
330
FC22
 90
        3
 70
     0
 71
     0
  1
AcDbOsnapPointRef
 72
     1
331
E907
 73
     2
 91
        0
 40
1.0
 10
292.5231544027072
 20
235.1285852258375
 30
0.0
 75
     0
  1
AcDbOsnapPointRef
 72
     1
331
EE3A
 73
     2
 91
        0
 40
1.0
 10
392.5231544027072
 20
235.1285852258375
 30
0.0
 75
     0
  0
DIMASSOC
  5
FC51
102
{ACAD_REACTORS
330
FC47
102
}
330
FC47
100
AcDbDimAssoc
330
FC3A
 90
        3
 70
     0
 71
     0
  1
AcDbOsnapPointRef
 72
     1
331
EA1C
 73
     2
 91
        0
 40
0.9999999999999998
 10
295.5117384970071
 20
138.1171693200377
 30
0.0
 75
     0
  1
AcDbOsnapPointRef
 72
     1
331
ED6D
 73
     2
 91
        0
 40
1.0
 10
295.5117384970071
 20
238.1171693200375
 30
0.0
 75
     0
  0
DIMASSOC
  5
FC69
102
{ACAD_REACTORS
330
FC5F
102
}
330
FC5F
100
AcDbDimAssoc
330
FC52
 90
        3
 70
     0
 71
     0
  1
AcDbOsnapPointRef
 72
     1
331
E1FC
 73
     2
 91
        0
 40
1.0
 10
442.3375103764072
 20
138.1171693200375
 30
0.0
 75
     0
  1
AcDbOsnapPointRef
 72
    11
331
E266
 73
     2
 91
        0
 40
0.9999999999999658
 10
442.3375103764071
 20
238.1171693200375
 30
0.0
332
E1FD
 74
     2
 92
        0
 75
     0
  0
DIMASSOC
  5
FC81
102
{ACAD_REACTORS
330
FC77
102
}
330
FC77
100
AcDbDimAssoc
330
FC6A
 90
        3
 70
     0
 71
     0
  1
AcDbOsnapPointRef
 72
     1
331
E1FD
 73
     2
 91
        0
 40
0.9999999999999998
 10
442.3375103764071
 20
241.1171693200375
 30
0.0
 75
     0
  1
AcDbOsnapPointRef
 72
     1
331
E17B
 73
     2
 91
        0
 40
1.0
 10
425.3375103764072
 20
208.6600340530377
 30
0.0
 75
     0
  0
DIMASSOC
  5
FC9A
102
{ACAD_REACTORS
330
FC90
102
}
330
FC90
100
AcDbDimAssoc
330
FC83
 90
        3
 70
     0
 71
     0
  1
AcDbOsnapPointRef
 72
    11
331
E2CC
 73
     2
 91
        0
 40
0.0283018867924534
 10
292.5231544027072
 20
84.29325191711226
 30
0.0
332
E26A
 74
     2
 92
        0
 75
     0
  1
AcDbOsnapPointRef
 72
    11
331
E392
 73
     2
 91
        0
 40
1.0
 10
392.523154402707
 20
84.29325191711226
 30
0.0
332
E2CC
 74
     2
 92
        0
 75
     0
  0
DIMASSOC
  5
FCB2
102
{ACAD_REACTORS
330
FCA8
102
}
330
FCA8
100
AcDbDimAssoc
330
FC9B
 90
        3
 70
     0
 71
     0
  1
AcDbOsnapPointRef
 72
    13
331
E2CC
 73
     2
 91
        0
 40
0.0
 10
289.5231544027071
 20
84.29325191711226
 30
0.0
 75
     0
  1
AcDbOsnapPointRef
 72
    13
331
BB96
 73
     2
 91
        0
 40
1.570796326794896
 10
302.0755064056068
 20
101.2932519171122
 30
0.0
 75
     0
  0
DIMASSOC
  5
FCCA
102
{ACAD_REACTORS
330
FCC0
102
}
330
FCC0
100
AcDbDimAssoc
330
FCB3
 90
       15
 70
     0
 71
     0
  1
AcDbOsnapPointRef
 72
    13
331
EA81
 73
     2
 91
        0
 40
0.0
 10
375.5984031151072
 20
200.9722937421376
 30
0.0
 75
     0
  1
AcDbOsnapPointRef
 72
     1
331
EA81
 73
     2
 91
        0
 40
1.0
 10
305.8727641798071
 20
205.8479853836375
 30
0.0
 75
     0
  1
AcDbOsnapPointRef
 72
    13
331
E918
 73
     2
 91
        0
 40
0.0
 10
395.5231544027072
 20
188.1171693200375
 30
0.0
 75
     0
  1
AcDbOsnapPointRef
 72
     1
331
E918
 73
     2
 91
        0
 40
1.0
 10
289.5231544027071
 20
188.1171693200375
 30
0.0
 75
     0
  0
DIMASSOC
  5
FCE2
102
{ACAD_REACTORS
330
FCD8
102
}
330
FCD8
100
AcDbDimAssoc
330
FCCB
 90
       15
 70
     0
 71
     0
  1
AcDbOsnapPointRef
 72
    13
331
E918
 73
     2
 91
        0
 40
0.0
 10
395.5231544027072
 20
188.1171693200375
 30
0.0
 75
     0
  1
AcDbOsnapPointRef
 72
     1
331
E918
 73
     2
 91
        0
 40
1.0
 10
289.5231544027071
 20
188.1171693200375
 30
0.0
 75
     0
  1
AcDbOsnapPointRef
 72
    13
331
E78E
 73
     2
 91
        0
 40
0.0
 10
375.6589653503071
 20
175.3665392818374
 30
0.0
 75
     0
  1
AcDbOsnapPointRef
 72
     1
331
E78E
 73
     2
 91
        0
 40
0.9999999999999998
 10
305.798248524707
 20
170.4814020741376
 30
0.0
 75
     0
  0
LAYOUT
  5
23
102
{ACAD_XDICTIONARY
360
FD06
102
}
102
{ACAD_REACTORS
330
19
102
}
330
19
100
AcDbPlotSettings
  1

  2
DocuCom PDF Driver
  4
A4
  6

 40
3.174999952316281
 41
3.174999952316281
 42
3.175003051757812
 43
3.17498779296875
 44
209.9733276367186
 45
296.9683227539062
 46
-3.209999999999999
 47
-3.22
 48
0.0
 49
0.0
140
0.0
141
0.0
142
1.0
143
1.0
 70
 11956
 72
     1
 73
     1
 74
     1
  7
monochrome.ctb
 75
    16
147
1.0
148
-245.4727494715161
149
-55.29419049538467
100
AcDbLayout
  1
Model
 70
     1
 71
     0
 10
0.0
 20
0.0
 11
12.0
 21
9.0
 12
0.0
 22
0.0
 32
0.0
 14
0.0
 24
0.0
 34
0.0
 15
0.0
 25
0.0
 35
0.0
146
0.0
 13
0.0
 23
0.0
 33
0.0
 16
1.0
 26
0.0
 36
0.0
 17
0.0
 27
1.0
 37
0.0
 76
     0
330
20
  0
LAYOUT
  5
FCF4
102
{ACAD_XDICTIONARY
360
FD0A
102
}
102
{ACAD_REACTORS
330
19
102
}
330
19
100
AcDbPlotSettings
  1

  2
京セラ LS-6700S
  4

  6

 40
0.0
 41
0.0
 42
0.0
 43
0.0
 44
0.0
 45
0.0
 46
0.0
 47
0.0
 48
0.0
 49
0.0
140
0.0
141
0.0
142
1.0
143
1.0
 70
   688
 72
     0
 73
     0
 74
     5
  7
monochrome.ctb
 75
    16
147
1.0
148
0.0
149
0.0
100
AcDbLayout
  1
レイアウト1
 70
     1
 71
     1
 10
0.0
 20
0.0
 11
12.0
 21
9.0
 12
0.0
 22
0.0
 32
0.0
 14
0.0
 24
0.0
 34
0.0
 15
0.0
 25
0.0
 35
0.0
146
0.0
 13
0.0
 23
0.0
 33
0.0
 16
1.0
 26
0.0
 36
0.0
 17
0.0
 27
1.0
 37
0.0
 76
     0
330
FCF3
  0
MLINESTYLE
  5
17
102
{ACAD_REACTORS
330
16
102
}
330
16
100
AcDbMlineStyle
  2
STANDARD
 70
     0
  3

 62
   256
 51
90.0
 52
90.0
 71
     2
 49
0.5
 62
   256
  6
BYLAYER
 49
-0.5
 62
   256
  6
BYLAYER
  0
ACDBPLACEHOLDER
  5
F
102
{ACAD_REACTORS
330
E
102
}
330
E
  0
DICTIONARYVAR
  5
FD00
102
{ACAD_REACTORS
330
FCFE
102
}
330
FCFE
100
DictionaryVariables
280
     0
  1
2
  0
DICTIONARYVAR
  5
FCFF
102
{ACAD_REACTORS
330
FCFE
102
}
330
FCFE
100
DictionaryVariables
280
     0
  1
1
  0
DICTIONARYVAR
  5
FD01
102
{ACAD_REACTORS
330
FCFE
102
}
330
FCFE
100
DictionaryVariables
280
     0
  1

  0
DICTIONARY
  5
FD06
330
23
100
AcDbDictionary
280
     1
281
     1
  3
ACAD_XREC_ROUNDTRIP
360
FD07
  0
DICTIONARY
  5
FD0A
330
FCF4
100
AcDbDictionary
280
     1
281
     1
  3
ACAD_XREC_ROUNDTRIP
360
FD0B
  0
XRECORD
  5
FD07
102
{ACAD_REACTORS
330
FD06
102
}
330
FD06
100
AcDbXrecord
280
     1
102
SHADEPLOT
 70
     0
102
SHADEPLOTRESLEVEL
 70
     2
102
SHADEPLOTCUSTOMDPI
 70
   300
  0
XRECORD
  5
FD0B
102
{ACAD_REACTORS
330
FD0A
102
}
330
FD0A
100
AcDbXrecord
280
     1
102
SHADEPLOT
 70
     0
102
SHADEPLOTRESLEVEL
 70
     2
102
SHADEPLOTCUSTOMDPI
 70
   300
  0
ENDSEC
  0
EOF
