  0
SECTION
  2
HEADER
  9
$ACADVER
  1
AC1015
  9
$ACADMAINTVER
 70
    14
  9
$DWGCODEPAGE
  3
ANSI_932
  9
$INSBASE
 10
0.0
 20
0.0
 30
0.0
  9
$EXTMIN
 10
942.4020640364011
 20
319.9989397934134
 30
-0.0000000000000053
  9
$EXTMAX
 10
1239.432334134917
 20
530.0265482136847
 30
0.0000000000000099
  9
$LIMMIN
 10
0.0
 20
0.0
  9
$LIMMAX
 10
420.0
 20
297.0
  9
$ORTHOMODE
 70
     0
  9
$REGENMODE
 70
     1
  9
$FILLMODE
 70
     1
  9
$QTEXTMODE
 70
     0
  9
$MIRRTEXT
 70
     0
  9
$LTSCALE
 40
5.0
  9
$ATTMODE
 70
     1
  9
$TEXTSIZE
 40
3.0
  9
$TRACEWID
 40
1.0
  9
$TEXTSTYLE
  7
STANDARD
  9
$CLAYER
  8
3
  9
$CELTYPE
  6
CONTINUOUS
  9
$CECOLOR
 62
   256
  9
$CELTSCALE
 40
1.0
  9
$DISPSILH
 70
     0
  9
$DIMSCALE
 40
1.0
  9
$DIMASZ
 40
3.0
  9
$DIMEXO
 40
0.5
  9
$DIMDLI
 40
4.0
  9
$DIMRND
 40
0.0
  9
$DIMDLE
 40
0.0
  9
$DIMEXE
 40
1.0
  9
$DIMTP
 40
0.0
  9
$DIMTM
 40
0.0
  9
$DIMTXT
 40
3.0
  9
$DIMCEN
 40
0.0
  9
$DIMTSZ
 40
0.0
  9
$DIMTOL
 70
     0
  9
$DIMLIM
 70
     0
  9
$DIMTIH
 70
     0
  9
$DIMTOH
 70
     0
  9
$DIMSE1
 70
     0
  9
$DIMSE2
 70
     0
  9
$DIMTAD
 70
     1
  9
$DIMZIN
 70
     9
  9
$DIMBLK
  1

  9
$DIMASO
 70
     1
  9
$DIMSHO
 70
     1
  9
$DIMPOST
  1

  9
$DIMAPOST
  1

  9
$DIMALT
 70
     0
  9
$DIMALTD
 70
     4
  9
$DIMALTF
 40
0.0394
  9
$DIMLFAC
 40
1.0
  9
$DIMTOFL
 70
     0
  9
$DIMTVP
 40
0.0
  9
$DIMTIX
 70
     0
  9
$DIMSOXD
 70
     0
  9
$DIMSAH
 70
     1
  9
$DIMBLK1
  1
OPEN
  9
$DIMBLK2
  1
OPEN
  9
$DIMSTYLE
  2
STD01
  9
$DIMCLRD
 70
     7
  9
$DIMCLRE
 70
     7
  9
$DIMCLRT
 70
     0
  9
$DIMTFAC
 40
1.0
  9
$DIMGAP
 40
0.5
  9
$DIMJUST
 70
     0
  9
$DIMSD1
 70
     0
  9
$DIMSD2
 70
     0
  9
$DIMTOLJ
 70
     1
  9
$DIMTZIN
 70
     9
  9
$DIMALTZ
 70
     0
  9
$DIMALTTZ
 70
     0
  9
$DIMUPT
 70
     0
  9
$DIMDEC
 70
     3
  9
$DIMTDEC
 70
     3
  9
$DIMALTU
 70
     8
  9
$DIMALTTD
 70
     4
  9
$DIMTXSTY
  7
STANDARD
  9
$DIMAUNIT
 70
     0
  9
$DIMADEC
 70
     3
  9
$DIMALTRND
 40
0.0
  9
$DIMAZIN
 70
     2
  9
$DIMDSEP
 70
    46
  9
$DIMATFIT
 70
     3
  9
$DIMFRAC
 70
     0
  9
$DIMLDRBLK
  1
OPEN
  9
$DIMLUNIT
 70
     2
  9
$DIMLWD
 70
    -2
  9
$DIMLWE
 70
    -2
  9
$DIMTMOVE
 70
     0
  9
$LUNITS
 70
     2
  9
$LUPREC
 70
     4
  9
$SKETCHINC
 40
1.0
  9
$FILLETRAD
 40
0.0
  9
$AUNITS
 70
     0
  9
$AUPREC
 70
     0
  9
$MENU
  1
acad
  9
$ELEVATION
 40
0.0
  9
$PELEVATION
 40
0.0
  9
$THICKNESS
 40
0.0
  9
$LIMCHECK
 70
     0
  9
$CHAMFERA
 40
2.5
  9
$CHAMFERB
 40
2.5
  9
$CHAMFERC
 40
20.0
  9
$CHAMFERD
 40
0.0
  9
$SKPOLY
 70
     0
  9
$TDCREATE
 40
2454667.570764490
  9
$TDUCREATE
 40
2454667.195764490
  9
$TDUPDATE
 40
2455742.449357453
  9
$TDUUPDATE
 40
2455742.074357453
  9
$TDINDWG
 40
0.7211050694
  9
$TDUSRTIMER
 40
0.7211039005
  9
$USRTIMER
 70
     1
  9
$ANGBASE
 50
0.0
  9
$ANGDIR
 70
     0
  9
$PDMODE
 70
     3
  9
$PDSIZE
 40
5.0
  9
$PLINEWID
 40
0.0
  9
$SPLFRAME
 70
     0
  9
$SPLINETYPE
 70
     6
  9
$SPLINESEGS
 70
     8
  9
$HANDSEED
  5
4DAE
  9
$SURFTAB1
 70
     6
  9
$SURFTAB2
 70
     6
  9
$SURFTYPE
 70
     6
  9
$SURFU
 70
     6
  9
$SURFV
 70
     6
  9
$UCSBASE
  2

  9
$UCSNAME
  2

  9
$UCSORG
 10
0.0
 20
0.0
 30
0.0
  9
$UCSXDIR
 10
1.0
 20
0.0
 30
0.0
  9
$UCSYDIR
 10
0.0
 20
1.0
 30
0.0
  9
$UCSORTHOREF
  2

  9
$UCSORTHOVIEW
 70
     0
  9
$UCSORGTOP
 10
0.0
 20
0.0
 30
0.0
  9
$UCSORGBOTTOM
 10
0.0
 20
0.0
 30
0.0
  9
$UCSORGLEFT
 10
0.0
 20
0.0
 30
0.0
  9
$UCSORGRIGHT
 10
0.0
 20
0.0
 30
0.0
  9
$UCSORGFRONT
 10
0.0
 20
0.0
 30
0.0
  9
$UCSORGBACK
 10
0.0
 20
0.0
 30
0.0
  9
$PUCSBASE
  2

  9
$PUCSNAME
  2

  9
$PUCSORG
 10
0.0
 20
0.0
 30
0.0
  9
$PUCSXDIR
 10
1.0
 20
0.0
 30
0.0
  9
$PUCSYDIR
 10
0.0
 20
1.0
 30
0.0
  9
$PUCSORTHOREF
  2

  9
$PUCSORTHOVIEW
 70
     0
  9
$PUCSORGTOP
 10
0.0
 20
0.0
 30
0.0
  9
$PUCSORGBOTTOM
 10
0.0
 20
0.0
 30
0.0
  9
$PUCSORGLEFT
 10
0.0
 20
0.0
 30
0.0
  9
$PUCSORGRIGHT
 10
0.0
 20
0.0
 30
0.0
  9
$PUCSORGFRONT
 10
0.0
 20
0.0
 30
0.0
  9
$PUCSORGBACK
 10
0.0
 20
0.0
 30
0.0
  9
$USERI1
 70
     0
  9
$USERI2
 70
     0
  9
$USERI3
 70
     0
  9
$USERI4
 70
     0
  9
$USERI5
 70
     0
  9
$USERR1
 40
0.0
  9
$USERR2
 40
0.0
  9
$USERR3
 40
0.0
  9
$USERR4
 40
0.0
  9
$USERR5
 40
0.0
  9
$WORLDVIEW
 70
     1
  9
$SHADEDGE
 70
     3
  9
$SHADEDIF
 70
    70
  9
$TILEMODE
 70
     1
  9
$MAXACTVP
 70
    48
  9
$PINSBASE
 10
0.0
 20
0.0
 30
0.0
  9
$PLIMCHECK
 70
     0
  9
$PEXTMIN
 10
-148.5
 20
-105.0
 30
0.0
  9
$PEXTMAX
 10
148.5
 20
105.0
 30
0.0
  9
$PLIMMIN
 10
-146.03342843555
 20
-102.8752157966817
  9
$PLIMMAX
 10
143.4342758466318
 20
101.8823064994164
  9
$UNITMODE
 70
     0
  9
$VISRETAIN
 70
     1
  9
$PLINEGEN
 70
     0
  9
$PSLTSCALE
 70
     1
  9
$TREEDEPTH
 70
  3020
  9
$CMLSTYLE
  2
STANDARD
  9
$CMLJUST
 70
     0
  9
$CMLSCALE
 40
20.0
  9
$PROXYGRAPHICS
 70
     1
  9
$MEASUREMENT
 70
     1
  9
$CELWEIGHT
370
    -1
  9
$ENDCAPS
280
     0
  9
$JOINSTYLE
280
     0
  9
$LWDISPLAY
290
     0
  9
$INSUNITS
 70
     0
  9
$HYPERLINKBASE
  1

  9
$STYLESHEET
  1
monochrome.ctb
  9
$XEDIT
290
     1
  9
$CEPSNTYPE
380
     0
  9
$PSTYLEMODE
290
     1
  9
$FINGERPRINTGUID
  2
{357C0802-013E-11D5-8976-00004C990E2D}
  9
$VERSIONGUID
  2
{FEA8C08C-60ED-40F2-82E6-7E0DF8F2C108}
  9
$EXTNAMES
290
     1
  9
$PSVPSCALE
 40
0.0
  9
$OLESTARTUP
290
     0
  0
ENDSEC
  0
SECTION
  2
CLASSES
  0
CLASS
  1
ACDBDICTIONARYWDFLT
  2
AcDbDictionaryWithDefault
  3
AutoCAD 2000
 90
        0
280
     0
281
     0
  0
CLASS
  1
ACDBPLACEHOLDER
  2
AcDbPlaceHolder
  3
AutoCAD 2000
 90
        0
280
     0
281
     0
  0
CLASS
  1
LAYOUT
  2
AcDbLayout
  3
AutoCAD 2000
 90
        0
280
     0
281
     0
  0
CLASS
  1
DICTIONARYVAR
  2
AcDbDictionaryVar
  3
AutoCAD 2000
 90
        0
280
     0
281
     0
  0
CLASS
  1
DIMASSOC
  2
AcDbDimAssoc
  3
"AcDbDimAssoc|Product Desc:     AcDim ARX App For Dimension|Company:          Autodesk, Inc.|WEB Address:      www.autodesk.com"
 90
    32768
280
     0
281
     0
  0
ENDSEC
  0
SECTION
  2
TABLES
  0
TABLE
  2
VPORT
  5
8
330
0
100
AcDbSymbolTable
 70
     3
  0
VPORT
  5
4DAD
330
8
100
AcDbSymbolTableRecord
100
AcDbViewportTableRecord
  2
*Active
 70
     0
 10
0.0
 20
0.0
 11
1.0
 21
1.0
 12
1090.917199085659
 22
425.012744003549
 13
0.0
 23
0.0
 14
10.0
 24
10.0
 15
10.0
 25
10.0
 16
0.0
 26
0.0
 36
1.0
 17
0.0
 27
0.0
 37
0.0
 40
211.6247765451402
 41
1.527918781725888
 42
50.0
 43
0.0
 44
0.0
 50
0.0
 51
0.0
 71
     0
 72
   100
 73
     1
 74
     1
 75
     0
 76
     0
 77
     0
 78
     0
281
     0
 65
     1
110
0.0
120
0.0
130
0.0
111
1.0
121
0.0
131
0.0
112
0.0
122
1.0
132
0.0
 79
     0
146
0.0
  0
ENDTAB
  0
TABLE
  2
LTYPE
  5
5
330
0
100
AcDbSymbolTable
 70
     9
  0
LTYPE
  5
12
330
5
100
AcDbSymbolTableRecord
100
AcDbLinetypeTableRecord
  2
BYBLOCK
 70
     0
  3

 72
    65
 73
     0
 40
0.0
  0
LTYPE
  5
13
330
5
100
AcDbSymbolTableRecord
100
AcDbLinetypeTableRecord
  2
BYLAYER
 70
     0
  3

 72
    65
 73
     0
 40
0.0
  0
LTYPE
  5
14
330
5
100
AcDbSymbolTableRecord
100
AcDbLinetypeTableRecord
  2
CONTINUOUS
 70
     0
  3
Solid line
 72
    65
 73
     0
 40
0.0
  0
LTYPE
  5
22
330
5
100
AcDbSymbolTableRecord
100
AcDbLinetypeTableRecord
  2
BORDER
 70
     0
  3
Border __ __ _ __ __ _ __ __ _ __ __ _ __ __ _
 72
    65
 73
     6
 40
1.02
 49
0.36
 74
     0
 49
-0.08
 74
     0
 49
0.36
 74
     0
 49
-0.08
 74
     0
 49
0.06
 74
     0
 49
-0.08
 74
     0
  0
LTYPE
  5
23
330
5
100
AcDbSymbolTableRecord
100
AcDbLinetypeTableRecord
  2
CENTER
 70
     0
  3
Center ____ _ ____ _ ____ _ ____ _ ____ _ ____
 72
    65
 73
     4
 40
0.5800000000000001
 49
0.36
 74
     0
 49
-0.08
 74
     0
 49
0.06
 74
     0
 49
-0.08
 74
     0
  0
LTYPE
  5
24
330
5
100
AcDbSymbolTableRecord
100
AcDbLinetypeTableRecord
  2
DASHDOT
 70
     0
  3
Dash dot ____ _ ____ _ ____ _ ____ _ ____ _ ___
 72
    65
 73
     4
 40
0.5800000000000001
 49
0.36
 74
     0
 49
-0.08
 74
     0
 49
0.06
 74
     0
 49
-0.08
 74
     0
  0
LTYPE
  5
25
330
5
100
AcDbSymbolTableRecord
100
AcDbLinetypeTableRecord
  2
DASHED
 70
     0
  3
Dashed __ __ __ __ __ __ __ __ __ __ __ __ __ _
 72
    65
 73
     2
 40
0.3
 49
0.2
 74
     0
 49
-0.1
 74
     0
  0
LTYPE
  5
26
330
5
100
AcDbSymbolTableRecord
100
AcDbLinetypeTableRecord
  2
DIVIDE
 70
     0
  3
Divide ______  __  __  ______  __  __  ______
 72
    65
 73
     6
 40
0.72
 49
0.36
 74
     0
 49
-0.08
 74
     0
 49
0.06
 74
     0
 49
-0.08
 74
     0
 49
0.06
 74
     0
 49
-0.08
 74
     0
  0
LTYPE
  5
27
330
5
100
AcDbSymbolTableRecord
100
AcDbLinetypeTableRecord
  2
DOT
 70
     0
  3
Dot __ __ __ __ __ __ __ __ __ __ __ __ __ __
 72
    65
 73
     2
 40
0.3
 49
0.2
 74
     0
 49
-0.1
 74
     0
  0
LTYPE
  5
28
330
5
100
AcDbSymbolTableRecord
100
AcDbLinetypeTableRecord
  2
HIDDEN
 70
     0
  3
Hidden __ __ __ __ __ __ __ __ __ __ __ __ __ _
 72
    65
 73
     2
 40
0.3
 49
0.2
 74
     0
 49
-0.1
 74
     0
  0
LTYPE
  5
29
330
5
100
AcDbSymbolTableRecord
100
AcDbLinetypeTableRecord
  2
PHANTOM
 70
     0
  3
Phantom ______  __  __  ______  __  __  ______
 72
    65
 73
     6
 40
0.72
 49
0.36
 74
     0
 49
-0.08
 74
     0
 49
0.06
 74
     0
 49
-0.08
 74
     0
 49
0.06
 74
     0
 49
-0.08
 74
     0
  0
ENDTAB
  0
TABLE
  2
LAYER
  5
2
330
0
100
AcDbSymbolTable
 70
    10
  0
LAYER
  5
E
330
2
100
AcDbSymbolTableRecord
100
AcDbLayerTableRecord
  2
0
 70
     0
 62
     7
  6
CONTINUOUS
370
    -3
390
176
  0
LAYER
  5
45
330
2
100
AcDbSymbolTableRecord
100
AcDbLayerTableRecord
  2
DEFPOINTS
 70
     0
 62
     7
  6
CONTINUOUS
290
     0
370
    -3
390
176
  0
LAYER
  5
25D
330
2
100
AcDbSymbolTableRecord
100
AcDbLayerTableRecord
  2
dim
 70
     0
 62
     7
  6
CONTINUOUS
370
    -3
390
176
  0
LAYER
  5
402
330
2
100
AcDbSymbolTableRecord
100
AcDbLayerTableRecord
  2
vp
 70
     0
 62
     1
  6
CONTINUOUS
290
     0
370
    -3
390
176
  0
LAYER
  5
403
330
2
100
AcDbSymbolTableRecord
100
AcDbLayerTableRecord
  2
waku
 70
     0
 62
     7
  6
CONTINUOUS
370
    -3
390
176
  0
LAYER
  5
404
330
2
100
AcDbSymbolTableRecord
100
AcDbLayerTableRecord
  2
waku1
 70
     0
 62
     7
  6
CONTINUOUS
290
     0
370
    -3
390
176
  0
LAYER
  5
3F35
330
2
100
AcDbSymbolTableRecord
100
AcDbLayerTableRecord
  2
10
 70
     0
 62
     7
  6
CONTINUOUS
370
    -3
390
176
  0
LAYER
  5
3F36
330
2
100
AcDbSymbolTableRecord
100
AcDbLayerTableRecord
  2
11
 70
     0
 62
     7
  6
CONTINUOUS
370
    -3
390
176
  0
LAYER
  5
4005
330
2
100
AcDbSymbolTableRecord
100
AcDbLayerTableRecord
  2
3
 70
     0
 62
     7
  6
CONTINUOUS
370
    -3
390
176
  0
LAYER
  5
499D
330
2
100
AcDbSymbolTableRecord
100
AcDbLayerTableRecord
  2
pnt
 70
     0
 62
     1
  6
CONTINUOUS
290
     0
370
    -3
390
176
  0
ENDTAB
  0
TABLE
  2
STYLE
  5
3
330
0
100
AcDbSymbolTable
 70
     2
  0
STYLE
  5
F
330
3
100
AcDbSymbolTableRecord
100
AcDbTextStyleTableRecord
  2
STANDARD
 70
     0
 40
0.0
 41
1.0
 50
0.0
 71
     0
 42
3.0
  3
txt.shx
  4
bigfont.shx
  0
STYLE
  5
21
330
3
100
AcDbSymbolTableRecord
100
AcDbTextStyleTableRecord
  2

 70
     1
 40
0.0
 41
1.0
 50
0.0
 71
     0
 42
2.5
  3
ltypeshp.shx
  4

  0
ENDTAB
  0
TABLE
  2
VIEW
  5
6
330
0
100
AcDbSymbolTable
 70
     1
  0
VIEW
  5
1FEF
330
6
100
AcDbSymbolTableRecord
100
AcDbViewTableRecord
  2
OLE1
 70
     0
 40
241.8303145232552
 10
203.0713600284876
 20
644.0778953871093
 41
300.1924443440151
 11
0.0
 21
0.0
 31
1.0
 12
0.0
 22
0.0
 32
0.0
 42
50.0
 43
0.0
 44
0.0
 50
0.0
 71
     0
281
     0
 72
     0
  0
ENDTAB
  0
TABLE
  2
UCS
  5
7
330
0
100
AcDbSymbolTable
 70
     0
  0
ENDTAB
  0
TABLE
  2
APPID
  5
9
330
0
100
AcDbSymbolTable
 70
     5
  0
APPID
  5
10
330
9
100
AcDbSymbolTableRecord
100
AcDbRegAppTableRecord
  2
ACAD
 70
     0
  0
APPID
  5
3A
330
9
100
AcDbSymbolTableRecord
100
AcDbRegAppTableRecord
  2
CONTENTTABDATA
 70
     0
  0
APPID
  5
3B
330
9
100
AcDbSymbolTableRecord
100
AcDbRegAppTableRecord
  2
CONTENTCURRENTTAB
 70
     0
  0
APPID
  5
46
330
9
100
AcDbSymbolTableRecord
100
AcDbRegAppTableRecord
  2
CONTENTBLOCKICON
 70
     0
  0
APPID
  5
47
330
9
100
AcDbSymbolTableRecord
100
AcDbRegAppTableRecord
  2
CONTENTBLOCKDESCRIPTION
 70
     0
  0
ENDTAB
  0
TABLE
  2
DIMSTYLE
  5
A
330
0
100
AcDbSymbolTable
 70
    25
100
AcDbDimStyleTable
 71
     5
340
187
340
1E2
340
1E1
340
1E0
340
1D
  0
DIMSTYLE
105
1D
330
A
100
AcDbSymbolTableRecord
100
AcDbDimStyleTableRecord
  2
STANDARD
 70
     0
 40
0.0
 41
3.0
 42
0.5
 43
4.0
 44
1.0
 73
     0
 74
     0
 77
     1
 78
     9
140
3.0
141
0.0
143
0.0394
147
0.5
171
     4
173
     1
176
     2
177
     2
179
     3
271
     3
272
     3
273
     8
274
     4
284
     9
340
F
341
2B
343
2B
344
2B
  0
DIMSTYLE
105
187
330
A
100
AcDbSymbolTableRecord
100
AcDbDimStyleTableRecord
  2
STD01
 70
     0
 41
3.0
 42
0.5
 43
4.0
 44
1.0
 73
     0
 74
     0
 77
     1
 78
     9
 79
     2
140
3.0
141
0.0
143
0.0394
147
0.5
171
     4
173
     1
176
     7
177
     7
179
     3
271
     3
272
     3
273
     8
274
     4
284
     9
340
F
341
2B
343
2B
344
2B
  0
DIMSTYLE
105
1E0
330
A
100
AcDbSymbolTableRecord
100
AcDbDimStyleTableRecord
  2
STD02
 70
     0
 40
0.5
 41
3.0
 42
0.5
 43
4.0
 44
1.0
 73
     0
 74
     0
 77
     1
 78
     9
 79
     2
140
3.0
141
0.0
143
0.0394
147
0.5
171
     4
173
     1
176
     2
177
     2
179
     3
271
     3
272
     3
273
     8
274
     4
284
     9
340
F
341
2B
343
2B
344
2B
  0
DIMSTYLE
105
1E1
330
A
100
AcDbSymbolTableRecord
100
AcDbDimStyleTableRecord
  2
STD05
 70
     0
 40
0.2
 41
3.0
 42
0.5
 43
4.0
 44
1.0
 73
     0
 74
     0
 77
     1
 78
     9
 79
     2
140
3.0
141
0.0
143
0.0394
147
0.5
171
     4
173
     1
176
     2
177
     2
179
     3
271
     3
272
     3
273
     8
274
     4
284
     9
340
F
341
2B
343
2B
344
2B
  0
DIMSTYLE
105
1E2
330
A
100
AcDbSymbolTableRecord
100
AcDbDimStyleTableRecord
  2
STD10
 70
     0
 40
0.1
 41
3.0
 42
0.5
 43
4.0
 44
1.0
 73
     0
 74
     0
 77
     1
 78
     9
 79
     2
140
3.0
141
0.0
143
0.0394
147
0.5
171
     4
173
     1
176
     2
177
     2
179
     3
271
     3
272
     3
273
     8
274
     4
284
     9
340
F
341
2B
343
2B
344
2B
  0
DIMSTYLE
105
202
330
A
100
AcDbSymbolTableRecord
100
AcDbDimStyleTableRecord
  2
STD01$4
 70
     0
 41
3.0
 42
0.5
 43
4.0
 44
1.0
 73
     0
 77
     1
 78
     9
 79
     2
140
3.0
141
0.0
143
0.0394
147
0.5
171
     4
173
     1
176
     7
177
     7
179
     3
271
     3
272
     3
273
     8
274
     4
284
     9
340
F
341
2B
343
2B
344
2B
  0
DIMSTYLE
105
203
330
A
100
AcDbSymbolTableRecord
100
AcDbDimStyleTableRecord
  2
STD01$3
 70
     0
 41
3.0
 42
0.5
 43
4.0
 44
1.0
 73
     0
 77
     1
 78
     9
 79
     2
140
3.0
141
0.0
143
0.0394
147
0.5
171
     4
173
     1
176
     7
177
     7
179
     3
271
     3
272
     3
273
     8
274
     4
284
     9
340
F
341
2B
343
2B
344
2B
  0
DIMSTYLE
105
204
330
A
100
AcDbSymbolTableRecord
100
AcDbDimStyleTableRecord
  2
STD01$6
 70
     0
 41
3.0
 42
0.5
 43
4.0
 44
1.0
 73
     0
 74
     0
 78
     9
 79
     2
140
3.0
141
0.0
143
0.0394
147
0.5
171
     4
173
     1
176
     7
177
     7
179
     3
271
     3
272
     3
273
     8
274
     4
284
     9
340
F
341
2B
343
2B
344
2B
  0
DIMSTYLE
105
205
330
A
100
AcDbSymbolTableRecord
100
AcDbDimStyleTableRecord
  2
STD02$4
 70
     0
 40
0.5
 41
3.0
 42
0.5
 43
4.0
 44
1.0
 73
     0
 77
     1
 78
     9
 79
     2
140
3.0
141
0.0
143
0.0394
147
0.5
171
     4
173
     1
176
     2
177
     2
179
     3
271
     3
272
     3
273
     8
274
     4
284
     9
340
F
341
2B
343
2B
344
2B
  0
DIMSTYLE
105
206
330
A
100
AcDbSymbolTableRecord
100
AcDbDimStyleTableRecord
  2
STD02$3
 70
     0
 40
0.5
 41
3.0
 42
0.5
 43
4.0
 44
1.0
 73
     0
 77
     1
 78
     9
 79
     2
140
3.0
141
0.0
143
0.0394
147
0.5
171
     4
173
     1
176
     2
177
     2
179
     3
271
     3
272
     3
273
     8
274
     4
284
     9
340
F
341
2B
343
2B
344
2B
  0
DIMSTYLE
105
207
330
A
100
AcDbSymbolTableRecord
100
AcDbDimStyleTableRecord
  2
STD02$6
 70
     0
 40
0.5
 41
3.0
 42
0.5
 43
4.0
 44
1.0
 73
     0
 74
     0
 78
     9
 79
     2
140
3.0
141
0.0
143
0.0394
147
0.5
171
     4
173
     1
176
     2
177
     2
179
     3
271
     3
272
     3
273
     8
274
     4
284
     9
340
F
341
2B
343
2B
344
2B
  0
DIMSTYLE
105
208
330
A
100
AcDbSymbolTableRecord
100
AcDbDimStyleTableRecord
  2
STD05$4
 70
     0
 40
0.2
 41
3.0
 42
0.5
 43
4.0
 44
1.0
 73
     0
 77
     1
 78
     9
 79
     2
140
3.0
141
0.0
143
0.0394
147
0.5
171
     4
173
     1
176
     2
177
     2
179
     3
271
     3
272
     3
273
     8
274
     4
284
     9
340
F
341
2B
343
2B
344
2B
  0
DIMSTYLE
105
209
330
A
100
AcDbSymbolTableRecord
100
AcDbDimStyleTableRecord
  2
STD05$3
 70
     0
 40
0.2
 41
3.0
 42
0.5
 43
4.0
 44
1.0
 73
     0
 77
     1
 78
     9
 79
     2
140
3.0
141
0.0
143
0.0394
147
0.5
171
     4
173
     1
176
     2
177
     2
179
     3
271
     3
272
     3
273
     8
274
     4
284
     9
340
F
341
2B
343
2B
344
2B
  0
DIMSTYLE
105
20A
330
A
100
AcDbSymbolTableRecord
100
AcDbDimStyleTableRecord
  2
STD05$6
 70
     0
 40
0.2
 41
3.0
 42
0.5
 43
4.0
 44
1.0
 73
     0
 74
     0
 78
     9
 79
     2
140
3.0
141
0.0
143
0.0394
147
0.5
171
     4
173
     1
176
     2
177
     2
179
     3
271
     3
272
     3
273
     8
274
     4
284
     9
340
F
341
2B
343
2B
344
2B
  0
DIMSTYLE
105
20B
330
A
100
AcDbSymbolTableRecord
100
AcDbDimStyleTableRecord
  2
STD10$4
 70
     0
 40
0.1
 41
3.0
 42
0.5
 43
4.0
 44
1.0
 73
     0
 77
     1
 78
     9
 79
     2
140
3.0
141
0.0
143
0.0394
147
0.5
171
     4
173
     1
176
     2
177
     2
179
     3
271
     3
272
     3
273
     8
274
     4
284
     9
340
F
341
2B
343
2B
344
2B
  0
DIMSTYLE
105
20C
330
A
100
AcDbSymbolTableRecord
100
AcDbDimStyleTableRecord
  2
STD10$3
 70
     0
 40
0.1
 41
3.0
 42
0.5
 43
4.0
 44
1.0
 73
     0
 77
     1
 78
     9
 79
     2
140
3.0
141
0.0
143
0.0394
147
0.5
171
     4
173
     1
176
     2
177
     2
179
     3
271
     3
272
     3
273
     8
274
     4
284
     9
340
F
341
2B
343
2B
344
2B
  0
DIMSTYLE
105
20D
330
A
100
AcDbSymbolTableRecord
100
AcDbDimStyleTableRecord
  2
STD10$6
 70
     0
 40
0.1
 41
3.0
 42
0.5
 43
4.0
 44
1.0
 73
     0
 74
     0
 78
     9
 79
     2
140
3.0
141
0.0
143
0.0394
147
0.5
171
     4
173
     1
176
     2
177
     2
179
     3
271
     3
272
     3
273
     8
274
     4
284
     9
340
F
341
2B
343
2B
344
2B
  0
DIMSTYLE
105
22E
102
{ACAD_REACTORS
330
4651
330
4650
330
46DA
330
46E2
330
464F
102
}
330
A
100
AcDbSymbolTableRecord
100
AcDbDimStyleTableRecord
  2
STD01$0
 70
     0
 41
3.0
 42
0.5
 43
4.0
 44
1.0
 73
     0
 74
     0
 77
     1
 78
     9
 79
     2
140
3.0
141
0.0
143
0.0394
147
0.5
171
     4
172
     1
173
     1
176
     7
177
     7
179
     3
271
     3
272
     3
273
     8
274
     4
284
     9
340
F
341
2B
343
2B
344
2B
  0
DIMSTYLE
105
22F
330
A
100
AcDbSymbolTableRecord
100
AcDbDimStyleTableRecord
  2
STD01$2
 70
     0
 41
3.0
 42
0.5
 43
4.0
 44
1.0
 73
     0
 74
     0
 77
     1
 78
     9
 79
     2
140
3.0
141
0.0
143
0.0394
147
0.5
171
     4
172
     1
173
     1
176
     7
177
     7
179
     3
271
     3
272
     3
273
     8
274
     4
284
     9
340
F
341
2B
343
2B
344
2B
  0
DIMSTYLE
105
230
330
A
100
AcDbSymbolTableRecord
100
AcDbDimStyleTableRecord
  2
STD02$0
 70
     0
 40
0.5
 41
3.0
 42
0.5
 43
4.0
 44
1.0
 73
     0
 74
     0
 77
     1
 78
     9
 79
     2
140
3.0
141
0.0
143
0.0394
147
0.5
171
     4
172
     1
173
     1
176
     2
177
     2
179
     3
271
     3
272
     3
273
     8
274
     4
284
     9
340
F
341
2B
343
2B
344
2B
  0
DIMSTYLE
105
231
330
A
100
AcDbSymbolTableRecord
100
AcDbDimStyleTableRecord
  2
STD02$2
 70
     0
 40
0.5
 41
3.0
 42
0.5
 43
4.0
 44
1.0
 73
     0
 74
     0
 77
     1
 78
     9
 79
     2
140
3.0
141
0.0
143
0.0394
147
0.5
171
     4
172
     1
173
     1
176
     2
177
     2
179
     3
271
     3
272
     3
273
     8
274
     4
284
     9
340
F
341
2B
343
2B
344
2B
  0
DIMSTYLE
105
232
330
A
100
AcDbSymbolTableRecord
100
AcDbDimStyleTableRecord
  2
STD05$0
 70
     0
 40
0.2
 41
3.0
 42
0.5
 43
4.0
 44
1.0
 73
     0
 74
     0
 77
     1
 78
     9
 79
     2
140
3.0
141
0.0
143
0.0394
147
0.5
171
     4
172
     1
173
     1
176
     2
177
     2
179
     3
271
     3
272
     3
273
     8
274
     4
284
     9
340
F
341
2B
343
2B
344
2B
  0
DIMSTYLE
105
233
330
A
100
AcDbSymbolTableRecord
100
AcDbDimStyleTableRecord
  2
STD05$2
 70
     0
 40
0.2
 41
3.0
 42
0.5
 43
4.0
 44
1.0
 73
     0
 74
     0
 77
     1
 78
     9
 79
     2
140
3.0
141
0.0
143
0.0394
147
0.5
171
     4
172
     1
173
     1
176
     2
177
     2
179
     3
271
     3
272
     3
273
     8
274
     4
284
     9
340
F
341
2B
343
2B
344
2B
  0
DIMSTYLE
105
234
330
A
100
AcDbSymbolTableRecord
100
AcDbDimStyleTableRecord
  2
STD10$2
 70
     0
 40
0.1
 41
3.0
 42
0.5
 43
4.0
 44
1.0
 73
     0
 74
     0
 77
     1
 78
     9
 79
     2
140
3.0
141
0.0
143
0.0394
147
0.5
171
     4
172
     1
173
     1
176
     2
177
     2
179
     3
271
     3
272
     3
273
     8
274
     4
284
     9
340
F
341
2B
343
2B
344
2B
  0
DIMSTYLE
105
235
330
A
100
AcDbSymbolTableRecord
100
AcDbDimStyleTableRecord
  2
STD10$0
 70
     0
 40
0.1
 41
3.0
 42
0.5
 43
4.0
 44
1.0
 73
     0
 74
     0
 77
     1
 78
     9
 79
     2
140
3.0
141
0.0
143
0.0394
147
0.5
171
     4
172
     1
173
     1
176
     2
177
     2
179
     3
271
     3
272
     3
273
     8
274
     4
284
     9
340
F
341
2B
343
2B
344
2B
  0
ENDTAB
  0
TABLE
  2
BLOCK_RECORD
  5
1
330
0
100
AcDbSymbolTable
 70
     9
  0
BLOCK_RECORD
  5
18
330
1
100
AcDbSymbolTableRecord
100
AcDbBlockTableRecord
  2
*MODEL_SPACE
340
179
  0
BLOCK_RECORD
  5
44CF
330
1
100
AcDbSymbolTableRecord
100
AcDbBlockTableRecord
  2
*Paper_Space
340
44CE
  0
BLOCK_RECORD
  5
2B
330
1
100
AcDbSymbolTableRecord
100
AcDbBlockTableRecord
  2
_OPEN
340
0
102
{BLKREFS
331
4853
331
4854
331
485C
331
485D
331
4865
331
4866
331
486E
331
486F
331
4879
331
487A
331
4965
331
4966
331
4959
331
495A
331
497D
331
497E
331
4989
331
498A
331
4995
331
4996
331
4971
331
4972
331
4D53
331
4D54
331
4D5C
331
4D5D
331
4D65
331
4D66
331
4D6E
331
4D6F
331
4D77
331
4D78
331
4D80
331
4D81
102
}
  0
BLOCK_RECORD
  5
236
330
1
100
AcDbSymbolTableRecord
100
AcDbBlockTableRecord
  2
aclt
340
0
102
{BLKREFS
331
239
102
}
  0
BLOCK_RECORD
  5
406
330
1
100
AcDbSymbolTableRecord
100
AcDbBlockTableRecord
  2
*Paper_Space2
340
405
  0
BLOCK_RECORD
  5
15
330
1
100
AcDbSymbolTableRecord
100
AcDbBlockTableRecord
  2
*PAPER_SPACE3
340
17A
  0
BLOCK_RECORD
  5
473B
330
1
100
AcDbSymbolTableRecord
100
AcDbBlockTableRecord
  2
*D4
340
0
  0
BLOCK_RECORD
  5
4747
330
1
100
AcDbSymbolTableRecord
100
AcDbBlockTableRecord
  2
*D5
340
0
  0
BLOCK_RECORD
  5
4753
330
1
100
AcDbSymbolTableRecord
100
AcDbBlockTableRecord
  2
*D6
340
0
  0
BLOCK_RECORD
  5
475F
330
1
100
AcDbSymbolTableRecord
100
AcDbBlockTableRecord
  2
*D7
340
0
  0
BLOCK_RECORD
  5
476C
330
1
100
AcDbSymbolTableRecord
100
AcDbBlockTableRecord
  2
*D8
340
0
  0
ENDTAB
  0
ENDSEC
  0
SECTION
  2
BLOCKS
  0
BLOCK
  5
19
330
18
100
AcDbEntity
  8
0
100
AcDbBlockBegin
  2
*MODEL_SPACE
 70
     0
 10
0.0
 20
0.0
 30
0.0
  3
*MODEL_SPACE
  1

  0
ENDBLK
  5
1A
330
18
100
AcDbEntity
  8
0
100
AcDbBlockEnd
  0
BLOCK
  5
4520
330
44CF
100
AcDbEntity
 67
     1
  8
0
100
AcDbBlockBegin
  2
*Paper_Space
 70
     0
 10
0.0
 20
0.0
 30
0.0
  3
*Paper_Space
  1

  0
ENDBLK
  5
4521
330
44CF
100
AcDbEntity
 67
     1
  8
0
100
AcDbBlockEnd
  0
BLOCK
  5
2C
330
2B
100
AcDbEntity
  8
0
100
AcDbBlockBegin
  2
_OPEN
 70
     0
 10
0.0
 20
0.0
 30
0.0
  3
_OPEN
  1

  0
LINE
  5
2D
330
2B
100
AcDbEntity
  8
0
  6
ByBlock
 62
     0
100
AcDbLine
 10
-1.0
 20
0.1666666666666666
 30
0.0
 11
0.0
 21
0.0
 31
0.0
  0
LINE
  5
2E
330
2B
100
AcDbEntity
  8
0
  6
ByBlock
 62
     0
100
AcDbLine
 10
0.0
 20
0.0
 30
0.0
 11
-1.0
 21
-0.1666666666666666
 31
0.0
  0
LINE
  5
2F
330
2B
100
AcDbEntity
  8
0
  6
ByBlock
 62
     0
100
AcDbLine
 10
0.0
 20
0.0
 30
0.0
 11
-1.0
 21
0.0
 31
0.0
  0
ENDBLK
  5
30
330
2B
100
AcDbEntity
  8
0
100
AcDbBlockEnd
  0
BLOCK
  5
237
330
236
100
AcDbEntity
  8
0
100
AcDbBlockBegin
  2
aclt
 70
     0
 10
0.0
 20
0.0
 30
0.0
  3
aclt
  1

  0
ENDBLK
  5
238
330
236
100
AcDbEntity
  8
0
100
AcDbBlockEnd
  0
BLOCK
  5
46B
330
406
100
AcDbEntity
  8
0
100
AcDbBlockBegin
  2
*Paper_Space2
 70
     0
 10
0.0
 20
0.0
 30
0.0
  3
*Paper_Space2
  1

  0
VIEWPORT
  5
407
330
406
100
AcDbEntity
  8
0
100
AcDbViewport
 10
26.93641287289114
 20
-129.0126611858199
 30
0.0
 40
971.5568884092672
 41
628.6069900920422
 69
     0
 12
26.93641287289114
 22
-129.0126611858199
 13
0.0
 23
0.0
 14
10.0
 24
10.0
 15
10.0
 25
10.0
 16
0.0
 26
0.0
 36
1.0
 17
0.0
 27
0.0
 37
0.0
 42
50.0
 43
0.0
 44
0.0
 45
628.6069900920422
 50
0.0
 51
0.0
 72
   100
 90
    32800
  1

281
     0
 71
     1
 74
     0
110
0.0
120
0.0
130
0.0
111
1.0
121
0.0
131
0.0
112
0.0
122
1.0
132
0.0
 79
     0
146
0.0
  0
VIEWPORT
  5
408
330
406
100
AcDbEntity
  8
vp
100
AcDbViewport
 10
0.0
 20
10.5
 30
0.0
 40
380.0
 41
268.0
 69
     0
 12
209.9999994718499
 22
165.6949995976486
 13
0.0
 23
0.0
 14
10.0
 24
10.0
 15
10.0
 25
10.0
 16
0.0
 26
0.0
 36
1.0
 17
0.0
 27
0.0
 37
0.0
 42
50.0
 43
0.0
 44
0.0
 45
485.0799984033476
 50
0.0
 51
0.0
 72
   100
 90
    32800
  1

281
     0
 71
     1
 74
     0
110
0.0
120
0.0
130
0.0
111
1.0
121
0.0
131
0.0
112
0.0
122
1.0
132
0.0
 79
     0
146
0.0
  0
LINE
  5
409
330
406
100
AcDbEntity
  8
waku
  6
Continuous
 62
     7
100
AcDbLine
 10
-190.0
 20
-123.5
 30
0.0
 11
-190.0
 21
144.5
 31
0.0
  0
LINE
  5
40A
330
406
100
AcDbEntity
  8
waku
  6
Continuous
 62
     7
100
AcDbLine
 10
-190.0
 20
144.5
 30
0.0
 11
190.0
 21
144.5
 31
0.0
  0
LINE
  5
40B
330
406
100
AcDbEntity
  8
waku
  6
Continuous
 62
     7
100
AcDbLine
 10
190.0
 20
144.5
 30
0.0
 11
190.0
 21
-123.5
 31
0.0
  0
LINE
  5
40C
330
406
100
AcDbEntity
  8
waku
  6
Continuous
 62
     7
100
AcDbLine
 10
190.0
 20
-123.5
 30
0.0
 11
-190.0
 21
-123.5
 31
0.0
  0
LINE
  5
40D
330
406
100
AcDbEntity
  8
waku
  6
Continuous
 62
     7
100
AcDbLine
 10
-190.0
 20
-103.4999999999999
 30
0.0
 11
-54.0
 21
-103.4999999999999
 31
0.0
  0
LINE
  5
40E
330
406
100
AcDbEntity
  8
waku
  6
Continuous
 62
     7
100
AcDbLine
 10
-190.0
 20
-108.4999999999999
 30
0.0
 11
-54.0
 21
-108.4999999999999
 31
0.0
  0
LINE
  5
40F
330
406
100
AcDbEntity
  8
waku
  6
Continuous
 62
     7
100
AcDbLine
 10
-190.0
 20
-113.5
 30
0.0
 11
-54.0
 21
-113.5
 31
0.0
  0
LINE
  5
410
330
406
100
AcDbEntity
  8
waku
  6
Continuous
 62
     7
100
AcDbLine
 10
-190.0
 20
-118.5
 30
0.0
 11
-54.0
 21
-118.5
 31
0.0
  0
LINE
  5
411
330
406
100
AcDbEntity
  8
waku
  6
Continuous
 62
     7
100
AcDbLine
 10
-177.0
 20
-123.5
 30
0.0
 11
-177.0
 21
-103.4999999999999
 31
0.0
  0
LINE
  5
412
330
406
100
AcDbEntity
  8
waku
  6
Continuous
 62
     7
100
AcDbLine
 10
-164.0
 20
-123.5
 30
0.0
 11
-164.0
 21
-103.4999999999999
 31
0.0
  0
LINE
  5
413
330
406
100
AcDbEntity
  8
waku
  6
Continuous
 62
     7
100
AcDbLine
 10
-80.0
 20
-123.5
 30
0.0
 11
-80.0
 21
-103.4999999999999
 31
0.0
  0
LINE
  5
414
330
406
100
AcDbEntity
  8
waku
  6
Continuous
 62
     7
100
AcDbLine
 10
-67.0
 20
-123.5
 30
0.0
 11
-67.0
 21
-103.4999999999999
 31
0.0
  0
LINE
  5
415
330
406
100
AcDbEntity
  8
waku
  6
Continuous
 62
     7
100
AcDbLine
 10
-54.0
 20
-123.5
 30
0.0
 11
-54.0
 21
-103.4999999999999
 31
0.0
  0
LINE
  5
416
330
406
100
AcDbEntity
  8
waku
  6
Continuous
 62
     7
100
AcDbLine
 10
10.0
 20
139.5
 30
0.0
 11
190.0
 21
139.5
 31
0.0
  0
LINE
  5
417
330
406
100
AcDbEntity
  8
waku
  6
Continuous
 62
     7
100
AcDbLine
 10
10.0
 20
134.4999999999999
 30
0.0
 11
190.0
 21
134.4999999999999
 31
0.0
  0
LINE
  5
418
330
406
100
AcDbEntity
  8
waku
  6
Continuous
 62
     7
100
AcDbLine
 10
10.0
 20
134.4999999999999
 30
0.0
 11
10.0
 21
144.5
 31
0.0
  0
LINE
  5
419
330
406
100
AcDbEntity
  8
waku
  6
Continuous
 62
     7
100
AcDbLine
 10
20.0
 20
134.4999999999999
 30
0.0
 11
20.0
 21
144.5
 31
0.0
  0
LINE
  5
41A
330
406
100
AcDbEntity
  8
waku
  6
Continuous
 62
     7
100
AcDbLine
 10
140.0
 20
134.4999999999999
 30
0.0
 11
140.0
 21
144.5
 31
0.0
  0
LINE
  5
41B
330
406
100
AcDbEntity
  8
waku
  6
Continuous
 62
     7
100
AcDbLine
 10
160.0
 20
134.4999999999999
 30
0.0
 11
160.0
 21
144.5
 31
0.0
  0
LINE
  5
41C
330
406
100
AcDbEntity
  8
waku
  6
Continuous
 62
     7
100
AcDbLine
 10
170.0
 20
134.4999999999999
 30
0.0
 11
170.0
 21
144.5
 31
0.0
  0
LINE
  5
41D
330
406
100
AcDbEntity
  8
waku
  6
Continuous
 62
     7
100
AcDbLine
 10
46.0
 20
-125.5
 30
0.0
 11
190.0
 21
-125.5
 31
0.0
  0
LINE
  5
41E
330
406
100
AcDbEntity
  8
waku
  6
Continuous
 62
     7
100
AcDbLine
 10
190.0
 20
-125.5
 30
0.0
 11
190.0
 21
-133.4999999999999
 31
0.0
  0
LINE
  5
41F
330
406
100
AcDbEntity
  8
waku
  6
Continuous
 62
     7
100
AcDbLine
 10
190.0
 20
-133.4999999999999
 30
0.0
 11
46.0
 21
-133.4999999999999
 31
0.0
  0
LINE
  5
420
330
406
100
AcDbEntity
  8
waku
  6
Continuous
 62
     7
100
AcDbLine
 10
46.0
 20
-133.4999999999999
 30
0.0
 11
46.0
 21
-125.5
 31
0.0
  0
LINE
  5
421
330
406
100
AcDbEntity
  8
waku
  6
Continuous
 62
     7
100
AcDbLine
 10
64.0
 20
-125.5
 30
0.0
 11
64.0
 21
-133.4999999999999
 31
0.0
  0
LINE
  5
422
330
406
100
AcDbEntity
  8
waku
  6
Continuous
 62
     7
100
AcDbLine
 10
118.0
 20
-125.5
 30
0.0
 11
118.0
 21
-133.4999999999999
 31
0.0
  0
LINE
  5
423
330
406
100
AcDbEntity
  8
waku
  6
Continuous
 62
     7
100
AcDbLine
 10
136.0
 20
-125.5
 30
0.0
 11
136.0
 21
-133.4999999999999
 31
0.0
  0
LINE
  5
424
330
406
100
AcDbEntity
  8
waku
  6
Continuous
 62
     7
100
AcDbLine
 10
10.0
 20
-89.50000000000001
 30
0.0
 11
190.0
 21
-89.50000000000001
 31
0.0
  0
LINE
  5
425
330
406
100
AcDbEntity
  8
waku
  6
Continuous
 62
     7
100
AcDbLine
 10
10.0
 20
-94.50000000000001
 30
0.0
 11
190.0
 21
-94.50000000000001
 31
0.0
  0
LINE
  5
426
330
406
100
AcDbEntity
  8
waku
  6
Continuous
 62
     7
100
AcDbLine
 10
10.0
 20
-99.50000000000001
 30
0.0
 11
190.0
 21
-99.50000000000001
 31
0.0
  0
LINE
  5
427
330
406
100
AcDbEntity
  8
waku
  6
Continuous
 62
     7
100
AcDbLine
 10
10.0
 20
-107.4999999999999
 30
0.0
 11
190.0
 21
-107.4999999999999
 31
0.0
  0
LINE
  5
428
330
406
100
AcDbEntity
  8
waku
  6
Continuous
 62
     7
100
AcDbLine
 10
10.0
 20
-112.5
 30
0.0
 11
118.0
 21
-112.5
 31
0.0
  0
LINE
  5
429
330
406
100
AcDbEntity
  8
waku
  6
Continuous
 62
     7
100
AcDbLine
 10
118.0
 20
-115.5
 30
0.0
 11
190.0
 21
-115.5
 31
0.0
  0
LINE
  5
42A
330
406
100
AcDbEntity
  8
waku
  6
Continuous
 62
     7
100
AcDbLine
 10
10.0
 20
-123.5
 30
0.0
 11
10.0
 21
-89.50000000000001
 31
0.0
  0
LINE
  5
42B
330
406
100
AcDbEntity
  8
waku
  6
Continuous
 62
     7
100
AcDbLine
 10
15.0
 20
-123.5
 30
0.0
 11
15.0
 21
-112.5
 31
0.0
  0
LINE
  5
42C
330
406
100
AcDbEntity
  8
waku
  6
Continuous
 62
     7
100
AcDbLine
 10
28.0
 20
-123.5
 30
0.0
 11
28.0
 21
-112.5
 31
0.0
  0
LINE
  5
42D
330
406
100
AcDbEntity
  8
waku
  6
Continuous
 62
     7
100
AcDbLine
 10
46.0
 20
-123.5
 30
0.0
 11
46.0
 21
-99.50000000000001
 31
0.0
  0
LINE
  5
42E
330
406
100
AcDbEntity
  8
waku
  6
Continuous
 62
     7
100
AcDbLine
 10
51.0
 20
-123.5
 30
0.0
 11
51.0
 21
-112.5
 31
0.0
  0
LINE
  5
42F
330
406
100
AcDbEntity
  8
waku
  6
Continuous
 62
     7
100
AcDbLine
 10
64.0
 20
-123.5
 30
0.0
 11
64.0
 21
-112.5
 31
0.0
  0
LINE
  5
430
330
406
100
AcDbEntity
  8
waku
  6
Continuous
 62
     7
100
AcDbLine
 10
69.0
 20
-123.5
 30
0.0
 11
69.0
 21
-112.5
 31
0.0
  0
LINE
  5
431
330
406
100
AcDbEntity
  8
waku
  6
Continuous
 62
     7
100
AcDbLine
 10
100.0
 20
-123.5
 30
0.0
 11
100.0
 21
-112.5
 31
0.0
  0
LINE
  5
432
330
406
100
AcDbEntity
  8
waku
  6
Continuous
 62
     7
100
AcDbLine
 10
105.0
 20
-123.5
 30
0.0
 11
105.0
 21
-112.5
 31
0.0
  0
LINE
  5
433
330
406
100
AcDbEntity
  8
waku
  6
Continuous
 62
     7
100
AcDbLine
 10
79.33333333333331
 20
-123.5
 30
0.0
 11
79.33333333333331
 21
-112.5
 31
0.0
  0
LINE
  5
434
330
406
100
AcDbEntity
  8
waku
  6
Continuous
 62
     7
100
AcDbLine
 10
89.66666666666663
 20
-123.5
 30
0.0
 11
89.66666666666663
 21
-112.5
 31
0.0
  0
LINE
  5
435
330
406
100
AcDbEntity
  8
waku
  6
Continuous
 62
     7
100
AcDbLine
 10
20.0
 20
-99.50000000000001
 30
0.0
 11
20.0
 21
-89.50000000000001
 31
0.0
  0
LINE
  5
436
330
406
100
AcDbEntity
  8
waku
  6
Continuous
 62
     7
100
AcDbLine
 10
118.0
 20
-123.5
 30
0.0
 11
118.0
 21
-99.50000000000001
 31
0.0
  0
LINE
  5
437
330
406
100
AcDbEntity
  8
waku
  6
Continuous
 62
     7
100
AcDbLine
 10
136.0
 20
-123.5
 30
0.0
 11
136.0
 21
-99.50000000000001
 31
0.0
  0
LINE
  5
438
330
406
100
AcDbEntity
  8
waku
  6
Continuous
 62
     7
100
AcDbLine
 10
140.0
 20
-99.50000000000001
 30
0.0
 11
140.0
 21
-89.50000000000001
 31
0.0
  0
LINE
  5
439
330
406
100
AcDbEntity
  8
waku
  6
Continuous
 62
     7
100
AcDbLine
 10
160.0
 20
-99.50000000000001
 30
0.0
 11
160.0
 21
-89.50000000000001
 31
0.0
  0
LINE
  5
43A
330
406
100
AcDbEntity
  8
waku
  6
Continuous
 62
     7
100
AcDbLine
 10
170.0
 20
-99.50000000000001
 30
0.0
 11
170.0
 21
-89.50000000000001
 31
0.0
  0
LINE
  5
43B
330
406
100
AcDbEntity
  8
waku
  6
Continuous
 62
     7
100
AcDbLine
 10
33.0
 20
-123.5
 30
0.0
 11
33.0
 21
-112.5
 31
0.0
  0
LINE
  5
43C
330
406
100
AcDbEntity
  8
waku
  6
Continuous
 62
     7
100
AcDbLine
 10
-215.0
 20
6.0
 30
0.0
 11
-190.0
 21
6.0
 31
0.0
  0
LINE
  5
43D
330
406
100
AcDbEntity
  8
waku
  6
Continuous
 62
     7
100
AcDbLine
 10
-10.0
 20
-135.4999999999999
 30
0.0
 11
-10.0
 21
-123.5
 31
0.0
  0
LINE
  5
43E
330
406
100
AcDbEntity
  8
waku
100
AcDbLine
 10
-185.8094010767583
 20
-118.0
 30
0.0
 11
-183.4999999999998
 21
-114.0
 31
0.0
  0
LINE
  5
43F
330
406
100
AcDbEntity
  8
waku
100
AcDbLine
 10
-183.4999999999998
 20
-114.0
 30
0.0
 11
-181.1905989232414
 21
-118.0
 31
0.0
  0
LINE
  5
440
330
406
100
AcDbEntity
  8
waku
100
AcDbLine
 10
-185.8094010767583
 20
-118.0
 30
0.0
 11
-181.1905989232414
 21
-118.0
 31
0.0
  0
LINE
  5
441
330
406
100
AcDbEntity
  8
waku
100
AcDbLine
 10
-185.8094010767583
 20
-113.0
 30
0.0
 11
-183.4999999999998
 21
-109.0
 31
0.0
  0
LINE
  5
442
330
406
100
AcDbEntity
  8
waku
100
AcDbLine
 10
-185.8094010767583
 20
-113.0
 30
0.0
 11
-181.1905989232414
 21
-113.0
 31
0.0
  0
LINE
  5
443
330
406
100
AcDbEntity
  8
waku
100
AcDbLine
 10
-183.4999999999998
 20
-109.0
 30
0.0
 11
-181.1905989232414
 21
-113.0
 31
0.0
  0
LINE
  5
444
330
406
100
AcDbEntity
  8
waku
100
AcDbLine
 10
-183.4999999999998
 20
-104.0
 30
0.0
 11
-181.1905989232414
 21
-108.0
 31
0.0
  0
LINE
  5
445
330
406
100
AcDbEntity
  8
waku
100
AcDbLine
 10
-185.8094010767583
 20
-108.0
 30
0.0
 11
-181.1905989232414
 21
-108.0
 31
0.0
  0
LINE
  5
446
330
406
100
AcDbEntity
  8
waku
100
AcDbLine
 10
-185.8094010767583
 20
-108.0
 30
0.0
 11
-183.4999999999998
 21
-104.0
 31
0.0
  0
TEXT
  5
447
330
406
100
AcDbEntity
  8
waku
100
AcDbText
 10
-145.3999999999998
 20
-122.5
 30
0.0
 40
3.0
  1
訂　正　な　ど　の　履　歴
100
AcDbText
  0
TEXT
  5
448
330
406
100
AcDbEntity
  8
waku
100
AcDbText
 10
-175.8999999999999
 20
-122.5
 30
0.0
 40
3.0
  1
年月日
100
AcDbText
  0
TEXT
  5
449
330
406
100
AcDbEntity
  8
waku
100
AcDbText
 10
-188.8999999999993
 20
-122.5
 30
0.0
 40
3.0
  1
符　号
100
AcDbText
  0
TEXT
  5
44A
330
406
100
AcDbEntity
  8
waku
100
AcDbText
 10
-184.9166666666661
 20
-112.45
 30
0.0
 40
2.5
  1
２
100
AcDbText
  0
TEXT
  5
44B
330
406
100
AcDbEntity
  8
waku
100
AcDbText
 10
-184.6666666666664
 20
-117.45
 30
0.0
 40
2.5
  1
１
100
AcDbText
  0
TEXT
  5
44C
330
406
100
AcDbEntity
  8
waku
100
AcDbText
 10
-184.9166666666661
 20
-107.45
 30
0.0
 40
2.5
  1
３
100
AcDbText
  0
TEXT
  5
44D
330
406
100
AcDbEntity
  8
waku
100
AcDbText
 10
-78.89999999999989
 20
-122.5
 30
0.0
 40
3.0
  1
記　印
100
AcDbText
  0
TEXT
  5
44E
330
406
100
AcDbEntity
  8
waku
100
AcDbText
 10
-65.89999999999989
 20
-122.5
 30
0.0
 40
3.0
  1
検　印
100
AcDbText
  0
TEXT
  5
44F
330
406
100
AcDbEntity
  8
waku
100
AcDbText
 10
120.1
 20
-105.0
 30
0.0
 40
3.0
  1
品　　名
100
AcDbText
  0
TEXT
  5
450
330
406
100
AcDbEntity
  8
waku
100
AcDbText
 10
121.3333333333332
 20
-110.9666666666665
 30
0.0
 40
2.5
  1
図番又は
100
AcDbText
  0
TEXT
  5
451
330
406
100
AcDbEntity
  8
waku
100
AcDbText
 10
121.25
 20
-115.1333333333333
 30
0.0
 40
2.5
  1
部品品番
100
AcDbText
  0
TEXT
  5
452
330
406
100
AcDbEntity
  8
waku
100
AcDbText
 10
120.1999999999999
 20
-121.0
 30
0.0
 40
3.0
  1
図面名称
100
AcDbText
  0
TEXT
  5
453
330
406
100
AcDbEntity
  8
waku
100
AcDbText
 10
119.7999999999999
 20
-131.0
 30
0.0
 40
3.0
  1
整理番号
100
AcDbText
  0
TEXT
  5
454
330
406
100
AcDbEntity
  8
waku
100
AcDbText
 10
53.09999999999998
 20
-98.50000000000001
 30
0.0
 40
3.0
  1
品　　名　　・　　寸　　法
100
AcDbText
  0
TEXT
  5
455
330
406
100
AcDbEntity
  8
waku
100
AcDbText
 10
10.39999999999998
 20
-98.50000000000001
 30
0.0
 40
3.0
  1
記号
100
AcDbText
  0
TEXT
  5
456
330
406
100
AcDbEntity
  8
waku
100
AcDbText
 10
48.3
 20
-131.0
 30
0.0
 40
3.0
  1
管理ＮＯ
100
AcDbText
  0
TEXT
  5
457
330
406
100
AcDbEntity
  8
waku
100
AcDbText
 10
11.0
 20
-117.0
 30
0.0
 40
3.0
  1
尺
100
AcDbText
  0
TEXT
  5
458
330
406
100
AcDbEntity
  8
waku
100
AcDbText
 10
11.19999999999998
 20
-122.0
 30
0.0
 40
3.0
  1
度
100
AcDbText
  0
TEXT
  5
459
330
406
100
AcDbEntity
  8
waku
100
AcDbText
 10
17.6019090210002
 20
-128.258948109244
 30
0.0
 40
3.0
  1
A3
100
AcDbText
  0
TEXT
  5
45A
330
406
100
AcDbEntity
  8
waku
100
AcDbText
 10
47.0
 20
-117.0
 30
0.0
 40
3.0
  1
製
100
AcDbText
  0
TEXT
  5
45B
330
406
100
AcDbEntity
  8
waku
100
AcDbText
 10
47.29999999999999
 20
-122.0
 30
0.0
 40
3.0
  1
図
100
AcDbText
  0
TEXT
  5
45C
330
406
100
AcDbEntity
  8
waku
100
AcDbText
 10
29.0
 20
-117.0
 30
0.0
 40
3.0
  1
設
100
AcDbText
  0
TEXT
  5
45D
330
406
100
AcDbEntity
  8
waku
100
AcDbText
 10
29.19999999999999
 20
-122.0
 30
0.0
 40
3.0
  1
計
100
AcDbText
  0
TEXT
  5
45E
330
406
100
AcDbEntity
  8
waku
100
AcDbText
 10
64.7
 20
-117.0
 30
0.0
 40
3.0
  1
検
100
AcDbText
  0
TEXT
  5
45F
330
406
100
AcDbEntity
  8
waku
100
AcDbText
 10
65.3
 20
-122.0
 30
0.0
 40
3.0
  1
図
100
AcDbText
  0
TEXT
  5
460
330
406
100
AcDbEntity
  8
waku
100
AcDbText
 10
101.0
 20
-117.0
 30
0.0
 40
3.0
  1
承
100
AcDbText
  0
TEXT
  5
461
330
406
100
AcDbEntity
  8
waku
100
AcDbText
 10
101.2
 20
-122.0
 30
0.0
 40
3.0
  1
認
100
AcDbText
  0
TEXT
  5
462
330
406
100
AcDbEntity
  8
waku
100
AcDbText
 10
172.5999999999999
 20
-98.50000000000001
 30
0.0
 40
3.0
  1
記　事
100
AcDbText
  0
TEXT
  5
463
330
406
100
AcDbEntity
  8
waku
100
AcDbText
 10
161.6999999999999
 20
-98.50000000000001
 30
0.0
 40
3.0
  1
数量
100
AcDbText
  0
TEXT
  5
464
330
406
100
AcDbEntity
  8
waku
100
AcDbText
 10
143.9
 20
-98.50000000000001
 30
0.0
 40
3.0
  1
材　質
100
AcDbText
  0
TEXT
  5
465
330
406
100
AcDbEntity
  8
waku
100
AcDbText
 10
11.32443513490389
 20
140.3893691280169
 30
0.0
 40
3.0
  1
記号
100
AcDbText
  0
TEXT
  5
466
330
406
100
AcDbEntity
  8
waku
100
AcDbText
 10
61.04024018852744
 20
140.4141473644139
 30
0.0
 40
3.0
  1
品  名  ・  寸  法
100
AcDbText
  0
TEXT
  5
467
330
406
100
AcDbEntity
  8
waku
100
AcDbText
 10
144.7471584898799
 20
140.542660250531
 30
0.0
 40
3.0
  1
材  質
100
AcDbText
  0
TEXT
  5
468
330
406
100
AcDbEntity
  8
waku
100
AcDbText
 10
173.933147858446
 20
140.6730810133909
 30
0.0
 40
3.0
  1
記　事
100
AcDbText
  0
TEXT
  5
469
330
406
100
AcDbEntity
  8
waku
100
AcDbText
 10
161.812028993328
 20
140.542660250531
 30
0.0
 40
3.0
  1
数量
100
AcDbText
  0
LWPOLYLINE
  5
46A
330
406
100
AcDbEntity
  8
waku1
 62
     1
100
AcDbPolyline
 90
        4
 70
     1
 43
0.0
 10
-220.0
 20
143.5
 10
200.0
 20
143.5
 10
200.0
 20
-153.5
 10
-220.0
 20
-153.5
  0
ENDBLK
  5
46C
330
406
100
AcDbEntity
  8
0
100
AcDbBlockEnd
  0
BLOCK
  5
16
330
15
100
AcDbEntity
  8
0
100
AcDbBlockBegin
  2
*PAPER_SPACE3
 70
     0
 10
0.0
 20
0.0
 30
0.0
  3
*PAPER_SPACE3
  1

  0
VIEWPORT
  5
44CA
330
15
100
AcDbEntity
  8
0
  6
Continuous
100
AcDbViewport
 10
131.4873504638671
 20
99.99133062362673
 30
0.0
 40
343.3514042235386
 41
222.1517806396483
 69
     0
 12
131.4873504638671
 22
99.99133062362673
 13
0.0
 23
0.0
 14
10.0
 24
10.0
 15
10.0
 25
10.0
 16
0.0
 26
0.0
 36
1.0
 17
0.0
 27
0.0
 37
0.0
 42
50.0
 43
0.0
 44
0.0
 45
222.1517806396483
 50
0.0
 51
0.0
 72
   100
 90
    32800
  1

281
     0
 71
     1
 74
     0
110
0.0
120
0.0
130
0.0
111
1.0
121
0.0
131
0.0
112
0.0
122
1.0
132
0.0
 79
     0
146
0.0
  0
VIEWPORT
  5
44CC
330
15
100
AcDbEntity
  8
11
  6
Continuous
100
AcDbViewport
 10
131.4873418807983
 20
99.99133181571959
 30
0.0
 40
210.3797470092773
 41
159.9861309051513
 69
     0
 12
257.8239684447041
 22
765.493852575094
 13
0.0
 23
0.0
 14
10.0
 24
10.0
 15
10.0
 25
10.0
 16
0.0
 26
0.0
 36
1.0
 17
0.0
 27
0.0
 37
0.0
 42
50.0
 43
0.0
 44
0.0
 45
2210.544022316053
 50
0.0
 51
0.0
 72
   100
 90
    32800
  1

281
     0
 71
     1
 74
     0
110
-647.4691445718936
120
1562.049199303884
130
0.0
111
1.0
121
0.0
131
0.0
112
0.0
122
1.0
132
0.0
 79
     0
146
0.0
  0
ENDBLK
  5
17
330
15
100
AcDbEntity
  8
0
100
AcDbBlockEnd
  0
BLOCK
  5
4745
330
473B
100
AcDbEntity
  8
0
100
AcDbBlockBegin
  2
*D4
 70
     1
 10
0.0
 20
0.0
 30
0.0
  3
*D4
  1

  0
LINE
  5
4850
330
473B
100
AcDbEntity
  8
3
  6
Continuous
 62
     7
370
    -2
100
AcDbLine
 10
1004.931098424919
 20
400.6590971137168
 30
0.0
 11
1066.829601837009
 21
400.6590971137168
 31
0.0
  0
LINE
  5
4851
330
473B
100
AcDbEntity
  8
3
  6
Continuous
 62
     7
370
    -2
100
AcDbLine
 10
1004.931098424919
 20
500.6590971137168
 30
0.0
 11
1066.829601837009
 21
500.6590971137168
 31
0.0
  0
LINE
  5
4852
330
473B
100
AcDbEntity
  8
3
  6
Continuous
 62
     7
370
    -2
100
AcDbLine
 10
1065.829601837009
 20
403.6590971137169
 30
0.0
 11
1065.829601837009
 21
497.6590971137168
 31
0.0
  0
INSERT
  5
4853
330
473B
100
AcDbEntity
  8
3
  6
Continuous
 62
     7
370
    -2
100
AcDbBlockReference
  2
_OPEN
 10
1065.829601837009
 20
400.6590971137168
 30
0.0
 41
3.0
 42
3.0
 43
3.0
 50
270.0
  0
INSERT
  5
4854
330
473B
100
AcDbEntity
  8
3
  6
Continuous
 62
     7
370
    -2
100
AcDbBlockReference
  2
_OPEN
 10
1065.829601837009
 20
500.6590971137168
 30
0.0
 41
3.0
 42
3.0
 43
3.0
 50
90.0
  0
MTEXT
  5
4855
330
473B
100
AcDbEntity
  8
3
  6
Continuous
 62
     0
370
    20
100
AcDbMText
 10
1063.829601837009
 20
450.6590971137168
 30
0.0
 40
3.0
 41
0.0
 71
     5
 72
     1
  1
\A1;%%c100
 11
0.0000000000000001
 21
1.0
 31
0.0
 73
     1
 44
1.0
  0
POINT
  5
4856
330
473B
100
AcDbEntity
  8
DEFPOINTS
  6
Continuous
 62
     0
100
AcDbPoint
 10
1004.431098424918
 20
400.6590971137168
 30
0.0
  0
POINT
  5
4857
330
473B
100
AcDbEntity
  8
DEFPOINTS
  6
Continuous
 62
     0
100
AcDbPoint
 10
1004.431098424918
 20
500.6590971137168
 30
0.0
  0
POINT
  5
4858
330
473B
100
AcDbEntity
  8
DEFPOINTS
  6
Continuous
 62
     0
100
AcDbPoint
 10
1065.829601837009
 20
500.6590971137168
 30
0.0
  0
ENDBLK
  5
4746
330
473B
100
AcDbEntity
  8
0
100
AcDbBlockEnd
  0
BLOCK
  5
4751
330
4747
100
AcDbEntity
  8
0
100
AcDbBlockBegin
  2
*D5
 70
     1
 10
0.0
 20
0.0
 30
0.0
  3
*D5
  1

  0
LINE
  5
4862
330
4747
100
AcDbEntity
  8
3
  6
Continuous
 62
     7
370
    -2
100
AcDbLine
 10
1136.365658913435
 20
400.6590971137168
 30
0.0
 11
1150.689278693289
 21
400.6590971137168
 31
0.0
  0
LINE
  5
4863
330
4747
100
AcDbEntity
  8
3
  6
Continuous
 62
     7
370
    -2
100
AcDbLine
 10
1136.365658913435
 20
500.6590971137168
 30
0.0
 11
1150.689278693289
 21
500.6590971137168
 31
0.0
  0
LINE
  5
4864
330
4747
100
AcDbEntity
  8
3
  6
Continuous
 62
     7
370
    -2
100
AcDbLine
 10
1149.689278693289
 20
403.6590971137169
 30
0.0
 11
1149.689278693289
 21
497.6590971137168
 31
0.0
  0
INSERT
  5
4865
330
4747
100
AcDbEntity
  8
3
  6
Continuous
 62
     7
370
    -2
100
AcDbBlockReference
  2
_OPEN
 10
1149.689278693289
 20
400.6590971137168
 30
0.0
 41
3.0
 42
3.0
 43
3.0
 50
270.0
  0
INSERT
  5
4866
330
4747
100
AcDbEntity
  8
3
  6
Continuous
 62
     7
370
    -2
100
AcDbBlockReference
  2
_OPEN
 10
1149.689278693289
 20
500.6590971137168
 30
0.0
 41
3.0
 42
3.0
 43
3.0
 50
90.0
  0
MTEXT
  5
4867
330
4747
100
AcDbEntity
  8
3
  6
Continuous
 62
     0
370
    20
100
AcDbMText
 10
1147.689278693289
 20
450.6590971137168
 30
0.0
 40
3.0
 41
0.0
 71
     5
 72
     1
  1
\A1;%%c100
 11
0.0000000000000001
 21
1.0
 31
0.0
 73
     1
 44
1.0
  0
POINT
  5
4868
330
4747
100
AcDbEntity
  8
DEFPOINTS
  6
Continuous
 62
     0
100
AcDbPoint
 10
1135.865658913435
 20
400.6590971137168
 30
0.0
  0
POINT
  5
4869
330
4747
100
AcDbEntity
  8
DEFPOINTS
  6
Continuous
 62
     0
100
AcDbPoint
 10
1135.865658913435
 20
500.6590971137168
 30
0.0
  0
POINT
  5
486A
330
4747
100
AcDbEntity
  8
DEFPOINTS
  6
Continuous
 62
     0
100
AcDbPoint
 10
1149.689278693289
 20
500.6590971137168
 30
0.0
  0
ENDBLK
  5
4752
330
4747
100
AcDbEntity
  8
0
100
AcDbBlockEnd
  0
BLOCK
  5
475D
330
4753
100
AcDbEntity
  8
0
100
AcDbBlockBegin
  2
*D6
 70
     1
 10
0.0
 20
0.0
 30
0.0
  3
*D6
  1

  0
LINE
  5
486B
330
4753
100
AcDbEntity
  8
3
  6
Continuous
 62
     7
370
    -2
100
AcDbLine
 10
1114.865658913436
 20
450.1590971137169
 30
0.0
 11
1114.865658913436
 21
387.7158625567817
 31
0.0
  0
LINE
  5
486C
330
4753
100
AcDbEntity
  8
3
  6
Continuous
 62
     7
370
    -2
100
AcDbLine
 10
1135.865658913435
 20
400.1590971137169
 30
0.0
 11
1135.865658913435
 21
387.7158625567817
 31
0.0
  0
LINE
  5
486D
330
4753
100
AcDbEntity
  8
3
  6
Continuous
 62
     7
370
    -2
100
AcDbLine
 10
1117.865658913435
 20
388.7158625567817
 30
0.0
 11
1132.865658913435
 21
388.7158625567817
 31
0.0
  0
INSERT
  5
486E
330
4753
100
AcDbEntity
  8
3
  6
Continuous
 62
     7
370
    -2
100
AcDbBlockReference
  2
_OPEN
 10
1114.865658913436
 20
388.7158625567817
 30
0.0
 41
3.0
 42
3.0
 43
3.0
 50
180.0
  0
INSERT
  5
486F
330
4753
100
AcDbEntity
  8
3
  6
Continuous
 62
     7
370
    -2
100
AcDbBlockReference
  2
_OPEN
 10
1135.865658913435
 20
388.7158625567817
 30
0.0
 41
3.0
 42
3.0
 43
3.0
  0
MTEXT
  5
4870
330
4753
100
AcDbEntity
  8
3
  6
Continuous
 62
     0
370
    20
100
AcDbMText
 10
1125.365658913435
 20
390.7158625567817
 30
0.0
 40
3.0
 41
0.0
 71
     5
 72
     1
  1
\A1;21
 73
     1
 44
1.0
  0
POINT
  5
4871
330
4753
100
AcDbEntity
  8
DEFPOINTS
  6
Continuous
 62
     0
100
AcDbPoint
 10
1114.865658913436
 20
450.6590971137168
 30
0.0
  0
POINT
  5
4872
330
4753
100
AcDbEntity
  8
DEFPOINTS
  6
Continuous
 62
     0
100
AcDbPoint
 10
1135.865658913435
 20
400.6590971137168
 30
0.0
  0
POINT
  5
4873
330
4753
100
AcDbEntity
  8
DEFPOINTS
  6
Continuous
 62
     0
100
AcDbPoint
 10
1135.865658913435
 20
388.7158625567817
 30
0.0
  0
ENDBLK
  5
475E
330
4753
100
AcDbEntity
  8
0
100
AcDbBlockEnd
  0
BLOCK
  5
476A
330
475F
100
AcDbEntity
  8
0
100
AcDbBlockBegin
  2
*D7
 70
     1
 10
0.0
 20
0.0
 30
0.0
  3
*D7
  1

  0
LINE
  5
4874
330
475F
100
AcDbEntity
  8
3
  6
Continuous
 62
     7
370
    -2
100
AcDbLine
 10
1135.865658913435
 20
400.1590971137169
 30
0.0
 11
1135.865658913435
 21
393.0275701763011
 31
0.0
  0
LINE
  5
4875
330
475F
100
AcDbEntity
  8
3
  6
Continuous
 62
     7
370
    -2
100
AcDbLine
 10
1132.865658913436
 20
400.2638594221923
 30
0.0
 11
1132.865658913436
 21
393.0275701763011
 31
0.0
  0
LINE
  5
4876
330
475F
100
AcDbEntity
  8
3
  6
Continuous
 62
     7
370
    -2
100
AcDbLine
 10
1138.865658913435
 20
394.0275701763011
 30
0.0
 11
1141.865658913435
 21
394.0275701763011
 31
0.0
  0
LINE
  5
4877
330
475F
100
AcDbEntity
  8
3
  6
Continuous
 62
     7
370
    -2
100
AcDbLine
 10
1129.865658913436
 20
394.0275701763011
 30
0.0
 11
1123.865658913435
 21
394.0275701763011
 31
0.0
  0
LINE
  5
4878
330
475F
100
AcDbEntity
  8
3
  6
Continuous
 62
     7
370
    -2
100
AcDbLine
 10
1135.865658913435
 20
394.0275701763011
 30
0.0
 11
1132.865658913436
 21
394.0275701763011
 31
0.0
  0
INSERT
  5
4879
330
475F
100
AcDbEntity
  8
3
  6
Continuous
 62
     7
370
    -2
100
AcDbBlockReference
  2
_OPEN
 10
1135.865658913435
 20
394.0275701763011
 30
0.0
 41
3.0
 42
3.0
 43
3.0
 50
180.0
  0
INSERT
  5
487A
330
475F
100
AcDbEntity
  8
3
  6
Continuous
 62
     7
370
    -2
100
AcDbBlockReference
  2
_OPEN
 10
1132.865658913436
 20
394.0275701763011
 30
0.0
 41
3.0
 42
3.0
 43
3.0
  0
MTEXT
  5
487B
330
475F
100
AcDbEntity
  8
3
  6
Continuous
 62
     0
370
    20
100
AcDbMText
 10
1125.365658913435
 20
396.0275701763011
 30
0.0
 40
3.0
 41
0.0
 71
     5
 72
     1
  1
\A1;3
 73
     1
 44
1.0
  0
POINT
  5
487C
330
475F
100
AcDbEntity
  8
DEFPOINTS
  6
Continuous
 62
     0
100
AcDbPoint
 10
1135.865658913435
 20
400.6590971137168
 30
0.0
  0
POINT
  5
487D
330
475F
100
AcDbEntity
  8
DEFPOINTS
  6
Continuous
 62
     0
100
AcDbPoint
 10
1132.865658913436
 20
400.7638594221923
 30
0.0
  0
POINT
  5
487E
330
475F
100
AcDbEntity
  8
DEFPOINTS
  6
Continuous
 62
     0
100
AcDbPoint
 10
1132.865658913436
 20
394.0275701763011
 30
0.0
  0
ENDBLK
  5
476B
330
475F
100
AcDbEntity
  8
0
100
AcDbBlockEnd
  0
BLOCK
  5
4776
330
476C
100
AcDbEntity
  8
0
100
AcDbBlockBegin
  2
*D8
 70
     1
 10
0.0
 20
0.0
 30
0.0
  3
*D8
  1

  0
LINE
  5
4859
330
476C
100
AcDbEntity
  8
3
  6
Continuous
 62
     7
370
    -2
100
AcDbLine
 10
1117.454962199853
 20
407.7168314881618
 30
0.0
 11
1093.269303619812
 21
407.7168314881618
 31
0.0
  0
LINE
  5
485A
330
476C
100
AcDbEntity
  8
3
  6
Continuous
 62
     7
370
    -2
100
AcDbLine
 10
1117.454962199853
 20
493.6013627392721
 30
0.0
 11
1093.269303619812
 21
493.6013627392721
 31
0.0
  0
LINE
  5
485B
330
476C
100
AcDbEntity
  8
3
  6
Continuous
 62
     7
370
    -2
100
AcDbLine
 10
1094.269303619812
 20
410.7168314881618
 30
0.0
 11
1094.269303619812
 21
490.6013627392721
 31
0.0
  0
INSERT
  5
485C
330
476C
100
AcDbEntity
  8
3
  6
Continuous
 62
     7
370
    -2
100
AcDbBlockReference
  2
_OPEN
 10
1094.269303619812
 20
407.7168314881618
 30
0.0
 41
3.0
 42
3.0
 43
3.0
 50
270.0
  0
INSERT
  5
485D
330
476C
100
AcDbEntity
  8
3
  6
Continuous
 62
     7
370
    -2
100
AcDbBlockReference
  2
_OPEN
 10
1094.269303619812
 20
493.6013627392721
 30
0.0
 41
3.0
 42
3.0
 43
3.0
 50
90.0
  0
MTEXT
  5
485E
330
476C
100
AcDbEntity
  8
3
  6
Continuous
 62
     0
370
    20
100
AcDbMText
 10
1092.269303619812
 20
450.6590971137168
 30
0.0
 40
3.0
 41
0.0
 71
     5
 72
     1
  1
\A1;%%c86
 11
0.0000000000000001
 21
1.0
 31
0.0
 73
     1
 44
1.0
  0
POINT
  5
485F
330
476C
100
AcDbEntity
  8
DEFPOINTS
  6
Continuous
 62
     0
100
AcDbPoint
 10
1117.954962199853
 20
407.7168314881618
 30
0.0
  0
POINT
  5
4860
330
476C
100
AcDbEntity
  8
DEFPOINTS
  6
Continuous
 62
     0
100
AcDbPoint
 10
1117.954962199853
 20
493.6013627392721
 30
0.0
  0
POINT
  5
4861
330
476C
100
AcDbEntity
  8
DEFPOINTS
  6
Continuous
 62
     0
100
AcDbPoint
 10
1094.269303619812
 20
493.6013627392721
 30
0.0
  0
ENDBLK
  5
4777
330
476C
100
AcDbEntity
  8
0
100
AcDbBlockEnd
  0
ENDSEC
  0
SECTION
  2
ENTITIES
  0
INSERT
  5
239
330
18
100
AcDbEntity
  8
0
  6
Continuous
100
AcDbBlockReference
  2
aclt
 10
0.0
 20
0.0
 30
0.0
  0
DIMENSION
  5
464F
330
18
100
AcDbEntity
  8
3
  6
Continuous
 62
     7
370
    20
100
AcDbDimension
  2
*D8
 10
1094.269303619812
 20
493.6013627392721
 30
0.0
 11
1092.269303619812
 21
450.6590971137168
 31
0.0
 70
    32
 71
     5
 42
85.88453125111028
  3
STD01$0
100
AcDbAlignedDimension
 13
1117.954962199853
 23
407.7168314881618
 33
0.0
 14
1117.954962199853
 24
493.6013627392721
 34
0.0
 50
90.0
100
AcDbRotatedDimension
1001
ACAD
1000
DSTYLE
1002
{
1070
   271
1070
     0
1070
     3
1000
%%c<>
1002
}
  0
DIMENSION
  5
4650
330
18
100
AcDbEntity
  8
3
  6
Continuous
 62
     7
370
    20
100
AcDbDimension
  2
*D5
 10
1149.689278693289
 20
500.6590971137168
 30
0.0
 11
1147.689278693289
 21
450.6590971137168
 31
0.0
 70
    32
 71
     5
 42
100.0
  3
STD01$0
100
AcDbAlignedDimension
 13
1135.865658913435
 23
400.6590971137168
 33
0.0
 14
1135.865658913435
 24
500.6590971137168
 34
0.0
 50
90.0
100
AcDbRotatedDimension
1001
ACAD
1000
DSTYLE
1002
{
1070
     3
1000
%%c<>
1002
}
  0
DIMENSION
  5
4651
330
18
100
AcDbEntity
  8
3
  6
Continuous
 62
     7
370
    20
100
AcDbDimension
  2
*D4
 10
1065.829601837009
 20
500.6590971137168
 30
0.0
 11
1063.829601837009
 21
450.6590971137168
 31
0.0
 70
    32
 71
     5
 42
100.0
  3
STD01$0
100
AcDbAlignedDimension
 13
1004.431098424918
 23
400.6590971137168
 33
0.0
 14
1004.431098424918
 24
500.6590971137168
 34
0.0
 50
90.0
100
AcDbRotatedDimension
1001
ACAD
1000
DSTYLE
1002
{
1070
     3
1000
%%c<>
1002
}
  0
LINE
  5
4653
330
18
100
AcDbEntity
  8
10
  6
DASHED
 62
     7
370
    30
100
AcDbLine
 10
1133.865658913435
 20
497.7105087065091
 30
0.0
 11
1133.865658913435
 21
450.6590971137168
 31
0.0
  0
CIRCLE
  5
4654
330
18
100
AcDbEntity
  8
10
  6
Continuous
 62
     7
370
    30
100
AcDbCircle
 10
1004.431098424918
 20
450.6590971137168
 30
0.0
 40
50.0
  0
CIRCLE
  5
4655
330
18
100
AcDbEntity
  8
10
  6
Continuous
 62
     7
370
    30
100
AcDbCircle
 10
1004.431098424918
 20
450.6590971137168
 30
0.0
 40
42.94226562555514
  0
ARC
  5
4656
330
18
100
AcDbEntity
  8
11
  6
Continuous
 62
     7
370
    30
100
AcDbCircle
 10
1414.865658913436
 20
450.6590971137168
 30
0.0
 40
296.7999999999999
100
AcDbArc
 50
172.21841792118
 51
180.0
  0
ARC
  5
4657
330
18
100
AcDbEntity
  8
10
  6
Continuous
 62
     7
370
    30
100
AcDbCircle
 10
1414.865658913436
 20
450.6590971137168
 30
0.0
 40
297.0
100
AcDbArc
 50
172.0825406049234
 51
180.0
  0
ARC
  5
4658
330
18
100
AcDbEntity
  8
10
  6
Continuous
 62
     7
370
    30
100
AcDbCircle
 10
1414.865658913436
 20
450.6590971137168
 30
0.0
 40
300.0
100
AcDbArc
 50
172.0825406049234
 51
187.9174593950764
  0
LINE
  5
4659
330
18
100
AcDbEntity
  8
3
  6
Continuous
 62
     7
370
    20
100
AcDbLine
 10
1116.239112378361
 20
479.3328778992177
 30
0.0
 11
1103.817430221144
 21
513.9431497836465
 31
0.0
  0
LINE
  5
465A
330
18
100
AcDbEntity
  8
10
  6
Continuous
 62
     7
370
    30
100
AcDbLine
 10
1135.865658913435
 20
500.6590971137168
 30
0.0
 11
1135.865658913435
 21
400.6590971137168
 31
0.0
  0
LINE
  5
465B
330
18
100
AcDbEntity
  8
11
  6
Continuous
 62
     7
370
    30
100
AcDbLine
 10
1133.865658913435
 20
450.6590971137168
 30
0.0
 11
1133.865658913435
 21
498.5731987288549
 31
0.0
  0
LINE
  5
465C
330
18
100
AcDbEntity
  8
11
  6
Continuous
 62
     7
370
    30
100
AcDbLine
 10
1135.765658913436
 20
499.5823021944739
 30
0.0
 11
1135.765658913436
 21
450.6590971137168
 31
0.0
  0
LINE
  5
465D
330
18
100
AcDbEntity
  8
11
  6
DASHED
 62
     7
370
    30
100
AcDbLine
 10
1135.765658913436
 20
495.6173728758049
 30
0.0
 11
1122.634821862543
 21
489.4943630009889
 31
0.0
  0
SPLINE
  5
465E
330
18
100
AcDbEntity
  8
10
  6
Continuous
 62
     7
370
    30
100
AcDbSpline
210
0.0
220
0.0
230
1.0
 70
    11
 71
     3
 72
    20
 73
    16
 74
     0
 42
0.0000000001
 43
0.0000000001
 40
0.0
 40
0.0
 40
0.0
 40
0.0
 40
1.0
 40
1.0
 40
1.0
 40
2.0
 40
2.0
 40
2.0
 40
3.0
 40
3.0
 40
3.0
 40
4.0
 40
4.0
 40
4.0
 40
5.0
 40
5.0
 40
5.0
 40
5.0
 10
1033.163539288634
 20
465.5675755750883
 30
0.0
 10
1033.163539288634
 20
465.5675755750883
 30
0.0
 10
1033.606923077698
 20
464.5910632595504
 30
0.0
 10
1033.606923077698
 20
464.5910632595504
 30
0.0
 10
1034.244265742626
 20
463.1873591037344
 30
0.0
 10
1033.856347990892
 20
462.1646825086823
 30
0.0
 10
1032.169973750441
 20
461.3988377821198
 30
0.0
 10
1030.869105694883
 20
460.8081761610258
 30
0.0
 10
1029.688126962245
 20
460.934438910592
 30
0.0
 10
1028.870605803392
 20
462.7348458116338
 30
0.0
 10
1028.870605803392
 20
462.7348458116338
 30
0.0
 10
1028.538154088983
 20
463.4671008572066
 30
0.0
 10
1028.538154088983
 20
463.4671008572066
 30
0.0
 10
1028.538154088983
 20
463.4671008572066
 30
0.0
 10
1033.163539288634
 20
465.5675755750883
 30
0.0
 10
1033.163539288634
 20
465.5675755750883
 30
0.0
  0
POLYLINE
  5
465F
330
18
100
AcDbEntity
  8
10
  6
Continuous
 62
     7
370
    30
100
AcDb2dPolyline
 66
     1
 10
0.0
 20
0.0
 30
0.0
 70
     1
  0
VERTEX
  5
4660
330
465F
100
AcDbEntity
  8
10
  6
Continuous
 62
     7
370
    30
100
AcDbVertex
100
AcDb2dVertex
 10
1028.382780282558
 20
456.1097549370678
 30
0.0
  0
VERTEX
  5
4661
330
465F
100
AcDbEntity
  8
10
  6
Continuous
 62
     7
370
    30
100
AcDbVertex
100
AcDb2dVertex
 10
1030.15114779558
 20
456.3247288954011
 30
0.0
  0
VERTEX
  5
4662
330
465F
100
AcDbEntity
  8
10
  6
Continuous
 62
     7
370
    30
100
AcDbVertex
100
AcDb2dVertex
 10
1030.727512270406
 20
451.5839329969635
 30
0.0
  0
VERTEX
  5
4663
330
465F
100
AcDbEntity
  8
10
  6
Continuous
 62
     7
370
    30
100
AcDbVertex
100
AcDb2dVertex
 10
1028.959144757385
 20
451.3689590386302
 30
0.0
  0
SEQEND
  5
4664
330
465F
100
AcDbEntity
  8
10
  6
Continuous
 62
     7
370
    30
  0
SPLINE
  5
4665
330
18
100
AcDbEntity
  8
10
  6
Continuous
 62
     7
370
    30
100
AcDbSpline
210
0.0
220
0.0
230
1.0
 70
    11
 71
     3
 72
    44
 73
    40
 74
     0
 42
0.0000000001
 43
0.0000000001
 40
0.0
 40
0.0
 40
0.0
 40
0.0
 40
1.0
 40
1.0
 40
1.0
 40
2.0
 40
2.0
 40
2.0
 40
3.0
 40
3.0
 40
3.0
 40
4.0
 40
4.0
 40
4.0
 40
5.0
 40
5.0
 40
5.0
 40
6.0
 40
6.0
 40
6.0
 40
7.0
 40
7.0
 40
7.0
 40
8.0
 40
8.0
 40
8.0
 40
9.0
 40
9.0
 40
9.0
 40
10.0
 40
10.0
 40
10.0
 40
11.0
 40
11.0
 40
11.0
 40
12.0
 40
12.0
 40
12.0
 40
13.0
 40
13.0
 40
13.0
 40
13.0
 10
1026.017377721795
 20
451.2948894856789
 30
0.0
 10
1026.017377721795
 20
451.2948894856789
 30
0.0
 10
1026.209269540371
 20
451.2662951931441
 30
0.0
 10
1026.209269540371
 20
451.2662951931441
 30
0.0
 10
1030.729923837246
 20
446.4238689778664
 30
0.0
 10
1031.769309145404
 20
446.0993409830747
 30
0.0
 10
1032.990595495233
 20
445.9170954318595
 30
0.0
 10
1034.19431185808
 20
445.7374337022588
 30
0.0
 10
1035.270215178391
 20
446.2545425347238
 30
0.0
 10
1035.448326615024
 20
447.4479236111129
 30
0.0
 10
1035.569593976134
 20
448.2599326171891
 30
0.0
 10
1035.102783537767
 20
449.075042209203
 30
0.0
 10
1034.422032669712
 20
449.5323786349842
 30
0.0
 10
1034.422032669712
 20
449.5323786349842
 30
0.0
 10
1034.57120530426
 20
449.8152209743941
 30
0.0
 10
1034.57120530426
 20
449.8152209743941
 30
0.0
 10
1036.233808385855
 20
449.1265463867206
 30
0.0
 10
1037.553624466587
 20
447.8113811848976
 30
0.0
 10
1037.276638789503
 20
445.9551637369809
 30
0.0
 10
1037.078545799052
 20
444.629318739151
 30
0.0
 10
1035.812128698358
 20
443.0733413628487
 30
0.0
 10
1033.893210512593
 20
443.3596287977449
 30
0.0
 10
1032.008743281691
 20
443.6407485894115
 30
0.0
 10
1030.78125575999
 20
444.9760675998281
 30
0.0
 10
1027.906668086375
 20
448.5393298611128
 30
0.0
 10
1027.906668086375
 20
448.5393298611128
 30
0.0
 10
1027.511171124573
 20
445.887639865453
 30
0.0
 10
1027.511171124573
 20
445.887639865453
 30
0.0
 10
1027.345462031691
 20
444.7772855902796
 30
0.0
 10
1027.430211380647
 20
444.6289742296023
 30
0.0
 10
1028.355564028219
 20
444.0166085069463
 30
0.0
 10
1028.355564028219
 20
444.0166085069463
 30
0.0
 10
1028.310777786898
 20
443.7182632378489
 30
0.0
 10
1028.310777786898
 20
443.7182632378489
 30
0.0
 10
1028.310777786898
 20
443.7182632378489
 30
0.0
 10
1025.052750985684
 20
444.8313735894114
 30
0.0
 10
1025.052750985684
 20
444.8313735894114
 30
0.0
 10
1025.052750985684
 20
444.8313735894114
 30
0.0
 10
1026.017377721795
 20
451.2948894856789
 30
0.0
 10
1026.017377721795
 20
451.2948894856789
 30
0.0
  0
SPLINE
  5
4666
330
18
100
AcDbEntity
  8
10
  6
Continuous
 62
     7
370
    30
100
AcDbSpline
210
0.0
220
0.0
230
1.0
 70
    11
 71
     3
 72
    59
 73
    55
 74
     0
 42
0.0000000001
 43
0.0000000001
 40
0.0
 40
0.0
 40
0.0
 40
0.0
 40
1.0
 40
1.0
 40
1.0
 40
2.0
 40
2.0
 40
2.0
 40
3.0
 40
3.0
 40
3.0
 40
4.0
 40
4.0
 40
4.0
 40
5.0
 40
5.0
 40
5.0
 40
6.0
 40
6.0
 40
6.0
 40
7.0
 40
7.0
 40
7.0
 40
8.0
 40
8.0
 40
8.0
 40
9.0
 40
9.0
 40
9.0
 40
10.0
 40
10.0
 40
10.0
 40
11.0
 40
11.0
 40
11.0
 40
12.0
 40
12.0
 40
12.0
 40
13.0
 40
13.0
 40
13.0
 40
14.0
 40
14.0
 40
14.0
 40
15.0
 40
15.0
 40
15.0
 40
16.0
 40
16.0
 40
16.0
 40
17.0
 40
17.0
 40
17.0
 40
18.0
 40
18.0
 40
18.0
 40
18.0
 10
1027.992106454433
 20
463.2192262369809
 30
0.0
 10
1027.992106454433
 20
463.2192262369809
 30
0.0
 10
1028.303887595926
 20
462.5326187065988
 30
0.0
 10
1028.303887595926
 20
462.5326187065988
 30
0.0
 10
1028.303887595926
 20
462.5326187065988
 30
0.0
 10
1024.929072057733
 20
457.0802383355053
 30
0.0
 10
1024.929072057733
 20
457.0802383355053
 30
0.0
 10
1024.929072057733
 20
457.0802383355053
 30
0.0
 10
1026.370155499573
 20
453.906788628474
 30
0.0
 10
1026.370155499573
 20
453.906788628474
 30
0.0
 10
1026.370155499573
 20
453.906788628474
 30
0.0
 10
1026.659199010858
 20
454.0380467664948
 30
0.0
 10
1026.659199010858
 20
454.0380467664948
 30
0.0
 10
1026.389103524742
 20
454.6330147569461
 30
0.0
 10
1026.613379240892
 20
454.9925104709218
 30
0.0
 10
1027.027479718323
 20
455.6591364474843
 30
0.0
 10
1027.027479718323
 20
455.6591364474843
 30
0.0
 10
1029.665044822489
 20
460.0037463650191
 30
0.0
 10
1029.665044822489
 20
460.0037463650191
 30
0.0
 10
1030.490145191413
 20
458.8694486762171
 30
0.0
 10
1031.941219410163
 20
458.2767199978317
 30
0.0
 10
1033.322358190545
 20
458.903899631078
 30
0.0
 10
1035.378046667108
 20
459.83734825304
 30
0.0
 10
1035.630572166239
 20
461.7555774197066
 30
0.0
 10
1034.591531367628
 20
464.0443266059044
 30
0.0
 10
1034.591531367628
 20
464.0443266059044
 30
0.0
 10
1032.055596580301
 20
469.628481879342
 30
0.0
 10
1032.055596580301
 20
469.628481879342
 30
0.0
 10
1032.055596580301
 20
469.628481879342
 30
0.0
 10
1031.766553069016
 20
469.4972237413213
 30
0.0
 10
1031.766553069016
 20
469.4972237413213
 30
0.0
 10
1032.417676115892
 20
468.0630304904531
 30
0.0
 10
1032.000130542976
 20
467.8733779839427
 30
0.0
 10
1030.69926248742
 20
467.282716362849
 30
0.0
 10
1030.69926248742
 20
467.282716362849
 30
0.0
 10
1024.082267587246
 20
464.2780763346372
 30
0.0
 10
1024.082267587246
 20
464.2780763346372
 30
0.0
 10
1022.781399531691
 20
463.6872424587691
 30
0.0
 10
1022.363853958774
 20
463.4975899522586
 30
0.0
 10
1021.712730911898
 20
464.9319554579008
 30
0.0
 10
1021.712730911898
 20
464.9319554579008
 30
0.0
 10
1021.423342891065
 20
464.8005250651059
 30
0.0
 10
1021.423342891065
 20
464.8005250651059
 30
0.0
 10
1021.423342891065
 20
464.8005250651059
 30
0.0
 10
1023.792879566413
 20
459.5825834418421
 30
0.0
 10
1023.792879566413
 20
459.5825834418421
 30
0.0
 10
1023.792879566413
 20
459.5825834418421
 30
0.0
 10
1024.081923077698
 20
459.7138415798629
 30
0.0
 10
1024.081923077698
 20
459.7138415798629
 30
0.0
 10
1023.430800030822
 20
461.1480348307309
 30
0.0
 10
1023.84834560374
 20
461.3376873372414
 30
0.0
 10
1025.149213659295
 20
461.928348958335
 30
0.0
 10
1025.149213659295
 20
461.928348958335
 30
0.0
 10
1027.992106454433
 20
463.2192262369809
 30
0.0
 10
1027.992106454433
 20
463.2192262369809
 30
0.0
  0
SPLINE
  5
4667
330
18
100
AcDbEntity
  8
10
  6
Continuous
 62
     7
370
    30
100
AcDbSpline
210
0.0
220
0.0
230
1.0
 70
    11
 71
     3
 72
    53
 73
    49
 74
     0
 42
0.0000000001
 43
0.0000000001
 40
0.0
 40
0.0
 40
0.0
 40
0.0
 40
1.0
 40
1.0
 40
1.0
 40
2.0
 40
2.0
 40
2.0
 40
3.0
 40
3.0
 40
3.0
 40
4.0
 40
4.0
 40
4.0
 40
5.0
 40
5.0
 40
5.0
 40
6.0
 40
6.0
 40
6.0
 40
7.0
 40
7.0
 40
7.0
 40
8.0
 40
8.0
 40
8.0
 40
9.0
 40
9.0
 40
9.0
 40
10.0
 40
10.0
 40
10.0
 40
11.0
 40
11.0
 40
11.0
 40
12.0
 40
12.0
 40
12.0
 40
13.0
 40
13.0
 40
13.0
 40
14.0
 40
14.0
 40
14.0
 40
15.0
 40
15.0
 40
15.0
 40
16.0
 40
16.0
 40
16.0
 40
16.0
 10
972.548979013028
 20
458.6711834309912
 30
0.0
 10
972.8459462439309
 20
457.5715089518247
 30
0.0
 10
974.0598256384622
 20
457.150001519099
 30
0.0
 10
976.6569108706669
 20
455.7843656684045
 30
0.0
 10
978.734820213115
 20
454.6838299153661
 30
0.0
 10
983.0084611636356
 20
452.2912111002622
 30
0.0
 10
983.4385813350765
 20
452.0379965820331
 30
0.0
 10
983.6535552934099
 20
451.9113893229182
 30
0.0
 10
983.810823902351
 20
451.8142376302101
 30
0.0
 10
983.8625003346422
 20
451.9975167100713
 30
0.0
 10
983.9419097855977
 20
452.2786365017378
 30
0.0
 10
984.0969390824724
 20
452.8288182508696
 30
0.0
 10
984.1520606102504
 20
453.0243274197066
 30
0.0
 10
984.1899566605976
 20
453.1588583984393
 30
0.0
 10
984.0816084075592
 20
453.2422297092031
 30
0.0
 10
983.8786922834273
 20
453.3653918728316
 30
0.0
 10
983.569494963549
 20
453.5317899848108
 30
0.0
 10
981.8528038828196
 20
454.5567058919288
 30
0.0
 10
981.7286081905455
 20
454.631292209203
 30
0.0
 10
981.1446645056495
 20
454.9938885091163
 30
0.0
 10
981.2104658294343
 20
455.1337593858525
 30
0.0
 10
981.320881139764
 20
455.524777723526
 30
0.0
 10
981.3312164262226
 20
455.5614679904531
 30
0.0
 10
981.8274824309964
 20
457.3217395290816
 30
0.0
 10
981.8894941497463
 20
457.5417088758698
 30
0.0
 10
981.989401918844
 20
457.8962092013906
 30
0.0
 10
982.0204077782193
 20
458.0062800021718
 30
0.0
 10
982.3066952131153
 20
457.9914660915816
 30
0.0
 10
983.4266957556495
 20
457.9396174045156
 30
0.0
 10
984.5032880950594
 20
457.8734715711823
 30
0.0
 10
985.1578562374204
 20
457.8078425021717
 30
0.0
 10
985.3270104257886
 20
457.7995742730053
 30
0.0
 10
985.4928917734449
 20
457.7792482096371
 30
0.0
 10
985.5790191605976
 20
458.0848281792553
 30
0.0
 10
985.7118275915871
 20
458.5092639431441
 30
0.0
 10
986.0856204518302
 20
459.8817899848109
 30
0.0
 10
986.1958635073859
 20
460.2728083224842
 30
0.0
 10
986.2337595577328
 20
460.407339301217
 30
0.0
 10
986.1445315846426
 20
460.5117256944463
 30
0.0
 10
985.8461863155453
 20
460.5298124457482
 30
0.0
 10
984.7558135941913
 20
460.5470379231787
 30
0.0
 10
981.8977623789136
 20
460.7063735894113
 30
0.0
 10
977.4992367170211
 20
460.8777670898456
 30
0.0
 10
976.3511586462746
 20
460.9242758789081
 30
0.0
 10
974.5257748029587
 20
461.0958416341163
 30
0.0
 10
973.5068878129412
 20
460.6178346354185
 30
0.0
 10
972.7946143211877
 20
460.2908950737861
 30
0.0
 10
972.4208214609447
 20
459.4330662977448
 30
0.0
 10
972.548979013028
 20
458.6711834309912
 30
0.0
  0
SPLINE
  5
4668
330
18
100
AcDbEntity
  8
10
  6
Continuous
 62
     7
370
    30
100
AcDbSpline
210
0.0
220
0.0
230
1.0
 70
    11
 71
     3
 72
    59
 73
    55
 74
     0
 42
0.0000000001
 43
0.0000000001
 40
0.0
 40
0.0
 40
0.0
 40
0.0
 40
1.0
 40
1.0
 40
1.0
 40
2.0
 40
2.0
 40
2.0
 40
3.0
 40
3.0
 40
3.0
 40
4.0
 40
4.0
 40
4.0
 40
5.0
 40
5.0
 40
5.0
 40
6.0
 40
6.0
 40
6.0
 40
7.0
 40
7.0
 40
7.0
 40
8.0
 40
8.0
 40
8.0
 40
9.0
 40
9.0
 40
9.0
 40
10.0
 40
10.0
 40
10.0
 40
11.0
 40
11.0
 40
11.0
 40
12.0
 40
12.0
 40
12.0
 40
13.0
 40
13.0
 40
13.0
 40
14.0
 40
14.0
 40
14.0
 40
15.0
 40
15.0
 40
15.0
 40
16.0
 40
16.0
 40
16.0
 40
17.0
 40
17.0
 40
17.0
 40
18.0
 40
18.0
 40
18.0
 40
18.0
 10
971.7805504648511
 20
447.0806764322934
 30
0.0
 10
971.8230973941043
 20
448.1260906575537
 30
0.0
 10
972.1546878346428
 20
449.3027630208351
 30
0.0
 10
972.2210059227503
 20
449.4662328016509
 30
0.0
 10
972.2997263546076
 20
449.8110868598108
 30
0.0
 10
972.3913658945384
 20
449.7087675238732
 30
0.0
 10
972.5369211788267
 20
449.678278428821
 30
0.0
 10
972.6805816605976
 20
449.6603639322934
 30
0.0
 10
972.975309579434
 20
449.5744087999148
 30
0.0
 10
973.2195668493996
 20
449.4812189670157
 30
0.0
 10
973.3975060312573
 20
449.4040488281267
 30
0.0
 10
973.3453128346427
 20
449.3196439887169
 30
0.0
 10
973.2881242495732
 20
449.0933012152793
 30
0.0
 10
972.847152027351
 20
447.5161365017378
 30
0.0
 10
972.7975426523512
 20
443.6598688693591
 30
0.0
 10
975.2289187916741
 20
444.4193401692727
 30
0.0
 10
976.0280086896775
 20
444.6622194010434
 30
0.0
 10
976.1980241519168
 20
445.6232287868941
 30
0.0
 10
976.4760433576462
 20
446.2790027126754
 30
0.0
 10
977.3691843624204
 20
448.3701756727448
 30
0.0
 10
978.2001413936704
 20
452.1460003255226
 30
0.0
 10
981.3992570620731
 20
451.6685100911476
 30
0.0
 10
984.1384524830802
 20
451.2661229383699
 30
0.0
 10
984.8519317582539
 20
447.8144817708351
 30
0.0
 10
984.5715009856842
 20
445.2082670355919
 30
0.0
 10
984.5394615976635
 20
444.8956246202275
 30
0.0
 10
984.3656565303893
 20
444.0496814236129
 30
0.0
 10
984.2455949526982
 20
443.6347196723109
 30
0.0
 10
984.2295752586878
 20
443.5682293294288
 30
0.0
 10
984.2080434118996
 20
443.4495457899322
 30
0.0
 10
984.0607655798683
 20
443.4926094835088
 30
0.0
 10
983.9152102955804
 20
443.5230985785607
 30
0.0
 10
983.4571848507021
 20
443.6753717990468
 30
0.0
 10
983.4446102521773
 20
443.6736492513039
 30
0.0
 10
983.2559912743127
 20
443.7363499891508
 30
0.0
 10
983.2918202673683
 20
443.8441814778663
 30
0.0
 10
983.3186920121599
 20
444.0148859592031
 30
0.0
 10
983.3436689544344
 20
444.2879097764771
 30
0.0
 10
983.465797589417
 20
447.102380533856
 30
0.0
 10
983.1472985117258
 20
448.0702801106787
 30
0.0
 10
983.0320600677158
 20
448.4258139648455
 30
0.0
 10
982.6939239457537
 20
449.2624554036476
 30
0.0
 10
982.167513355476
 20
449.5334121636302
 30
0.0
 10
980.7123050221427
 20
450.2868545464427
 30
0.0
 10
979.9462880408059
 20
448.8297514105918
 30
0.0
 10
979.4350358706669
 20
447.7428237847239
 30
0.0
 10
978.3372561940176
 20
445.4683717447934
 30
0.0
 10
977.7054256818647
 20
442.0032947048629
 30
0.0
 10
975.197912932299
 20
442.2208524848108
 30
0.0
 10
973.768198305563
 20
442.3493545464427
 30
0.0
 10
972.9145036441043
 20
443.2020156792552
 30
0.0
 10
972.213426712681
 20
444.3330405273456
 30
0.0
 10
971.8735680429761
 20
445.0027670898456
 30
0.0
 10
971.7362809878546
 20
446.0480090603316
 30
0.0
 10
971.7805504648511
 20
447.0806764322934
 30
0.0
  0
SPLINE
  5
4669
330
18
100
AcDbEntity
  8
10
  6
Continuous
 62
     7
370
    30
100
AcDbSpline
210
0.0
220
0.0
230
1.0
 70
    11
 71
     3
 72
    83
 73
    79
 74
     0
 42
0.0000000001
 43
0.0000000001
 40
0.0
 40
0.0
 40
0.0
 40
0.0
 40
1.0
 40
1.0
 40
1.0
 40
2.0
 40
2.0
 40
2.0
 40
3.0
 40
3.0
 40
3.0
 40
4.0
 40
4.0
 40
4.0
 40
5.0
 40
5.0
 40
5.0
 40
6.0
 40
6.0
 40
6.0
 40
7.0
 40
7.0
 40
7.0
 40
8.0
 40
8.0
 40
8.0
 40
9.0
 40
9.0
 40
9.0
 40
10.0
 40
10.0
 40
10.0
 40
11.0
 40
11.0
 40
11.0
 40
12.0
 40
12.0
 40
12.0
 40
13.0
 40
13.0
 40
13.0
 40
14.0
 40
14.0
 40
14.0
 40
15.0
 40
15.0
 40
15.0
 40
16.0
 40
16.0
 40
16.0
 40
17.0
 40
17.0
 40
17.0
 40
18.0
 40
18.0
 40
18.0
 40
19.0
 40
19.0
 40
19.0
 40
20.0
 40
20.0
 40
20.0
 40
21.0
 40
21.0
 40
21.0
 40
22.0
 40
22.0
 40
22.0
 40
23.0
 40
23.0
 40
23.0
 40
24.0
 40
24.0
 40
24.0
 40
25.0
 40
25.0
 40
25.0
 40
26.0
 40
26.0
 40
26.0
 40
26.0
 10
1001.386495289069
 20
442.1708986002621
 30
0.0
 10
1002.033139711812
 20
442.1708986002621
 30
0.0
 10
1004.285026376309
 20
442.1708986002621
 30
0.0
 10
1004.285026376309
 20
442.1708986002621
 30
0.0
 10
1004.285026376309
 20
442.1708986002621
 30
0.0
 10
1006.537085295579
 20
442.1708986002621
 30
0.0
 10
1007.184074227871
 20
442.1708986002621
 30
0.0
 10
1007.830374141065
 20
442.1708986002621
 30
0.0
 10
1007.963699336378
 20
442.2597820638038
 30
0.0
 10
1007.963699336378
 20
442.5272937283003
 30
0.0
 10
1007.963699336378
 20
442.7725845269113
 30
0.0
 10
1007.562690221795
 20
442.8618125000013
 30
0.0
 10
1006.960832040372
 20
442.9286473524324
 30
0.0
 10
1006.269401376309
 20
442.9958267144114
 30
0.0
 10
1005.756426658427
 20
443.7315268554706
 30
0.0
 10
1005.756426658427
 20
444.5564549696198
 30
0.0
 10
1005.756426658427
 20
445.1362645399324
 30
0.0
 10
1005.756426658427
 20
452.6946317816856
 30
0.0
 10
1005.756426658427
 20
453.6978435872414
 30
0.0
 10
1005.756426658427
 20
454.6790067816856
 30
0.0
 10
1006.069241328566
 20
454.8350696072066
 30
0.0
 10
1006.470250443149
 20
454.8350696072066
 30
0.0
 10
1006.871604067281
 20
454.8350696072066
 30
0.0
 10
1009.257332691413
 20
454.8350696072066
 30
0.0
 10
1009.257332691413
 20
454.8350696072066
 30
0.0
 10
1010.037991328566
 20
454.8350696072066
 30
0.0
 10
1010.171316523877
 20
454.1215903320328
 30
0.0
 10
1010.34942796051
 20
453.0515436740468
 30
0.0
 10
1010.439000443149
 20
452.5830106879356
 30
0.0
 10
1010.394558711378
 20
452.1149944661476
 30
0.0
 10
1010.706339852871
 20
452.1149944661476
 30
0.0
 10
1010.974023772142
 20
452.1149944661476
 30
0.0
 10
1011.197265959639
 20
452.1597807074669
 30
0.0
 10
1011.197265959639
 20
452.6277969292553
 30
0.0
 10
1011.197265959639
 20
452.6277969292553
 30
0.0
 10
1011.197265959639
 20
456.7300443793421
 30
0.0
 10
1011.197265959639
 20
456.7300443793421
 30
0.0
 10
1011.197265959639
 20
457.0201214192726
 30
0.0
 10
1010.974023772142
 20
457.2430190972239
 30
0.0
 10
1010.706339852871
 20
457.2430190972239
 30
0.0
 10
1010.706339852871
 20
457.2430190972239
 30
0.0
 10
1004.285026376309
 20
457.2430190972239
 30
0.0
 10
1004.285026376309
 20
457.2430190972239
 30
0.0
 10
1004.285026376309
 20
457.2430190972239
 30
0.0
 10
997.8638851545211
 20
457.2430190972239
 30
0.0
 10
997.8638851545211
 20
457.2430190972239
 30
0.0
 10
997.5962012352503
 20
457.2430190972239
 30
0.0
 10
997.3509104366392
 20
457.0201214192726
 30
0.0
 10
997.3509104366392
 20
456.7300443793421
 30
0.0
 10
997.3509104366392
 20
456.7300443793421
 30
0.0
 10
997.3509104366392
 20
452.6277969292553
 30
0.0
 10
997.3509104366392
 20
452.6277969292553
 30
0.0
 10
997.3509104366392
 20
452.1597807074669
 30
0.0
 10
997.5738081145907
 20
452.0479873589428
 30
0.0
 10
997.8638851545211
 20
452.1149944661476
 30
0.0
 10
998.1758385507886
 20
452.2260987955747
 30
0.0
 10
998.1312245642433
 20
452.5830106879356
 30
0.0
 10
998.2204525373337
 20
453.0515436740468
 30
0.0
 10
998.3987362287399
 20
454.1215903320328
 30
0.0
 10
998.5327504431495
 20
454.8350696072066
 30
0.0
 10
999.3130645707536
 20
454.8350696072066
 30
0.0
 10
999.3130645707536
 20
454.8350696072066
 30
0.0
 10
1001.676400074225
 20
454.8350696072066
 30
0.0
 10
1002.077753698358
 20
454.8350696072066
 30
0.0
 10
1002.501328188375
 20
454.8350696072066
 30
0.0
 10
1002.813798348965
 20
454.6790067816856
 30
0.0
 10
1002.813798348965
 20
453.6978435872414
 30
0.0
 10
1002.813798348965
 20
452.6946317816856
 30
0.0
 10
1002.813798348965
 20
445.1362645399324
 30
0.0
 10
1002.813798348965
 20
444.5564549696198
 30
0.0
 10
1002.813798348965
 20
443.7315268554706
 30
0.0
 10
1002.300995885857
 20
442.9958267144114
 30
0.0
 10
1001.609737476569
 20
442.9286473524324
 30
0.0
 10
1001.007707040372
 20
442.8618125000013
 30
0.0
 10
1000.606008906691
 20
442.7725845269113
 30
0.0
 10
1000.606008906691
 20
442.5272937283003
 30
0.0
 10
1000.606008906691
 20
442.2597820638038
 30
0.0
 10
1000.740023121098
 20
442.1708986002621
 30
0.0
 10
1001.386495289069
 20
442.1708986002621
 30
0.0
  0
SPLINE
  5
466A
330
18
100
AcDbEntity
  8
10
  6
Continuous
 62
     7
370
    30
100
AcDbSpline
210
0.0
220
0.0
230
1.0
 70
    11
 71
     3
 72
    26
 73
    22
 74
     0
 42
0.0000000001
 43
0.0000000001
 40
0.0
 40
0.0
 40
0.0
 40
0.0
 40
1.0
 40
1.0
 40
1.0
 40
2.0
 40
2.0
 40
2.0
 40
3.0
 40
3.0
 40
3.0
 40
4.0
 40
4.0
 40
4.0
 40
5.0
 40
5.0
 40
5.0
 40
6.0
 40
6.0
 40
6.0
 40
7.0
 40
7.0
 40
7.0
 40
7.0
 10
1014.965166892802
 20
450.7548707682309
 30
0.0
 10
1014.965166892802
 20
453.6089601236997
 30
0.0
 10
1013.850333993496
 20
456.2842490234393
 30
0.0
 10
1011.843221363288
 20
458.313582519533
 30
0.0
 10
1009.814749141064
 20
460.3198338758699
 30
0.0
 10
1007.138943477003
 20
461.4346667751753
 30
0.0
 10
1004.285026376309
 20
461.4346667751753
 30
0.0
 10
998.3987362287399
 20
461.4346667751753
 30
0.0
 10
993.6050581145908
 20
456.6411609158
 30
0.0
 10
993.6050581145908
 20
450.7548707682309
 30
0.0
 10
993.6050581145908
 20
447.9009536675364
 30
0.0
 10
994.6976701480107
 20
445.2030993923629
 30
0.0
 10
996.7266591345557
 20
443.1963312717031
 30
0.0
 10
998.7556481211012
 20
441.1671700303838
 30
0.0
 10
1001.431109275615
 20
440.0525093858521
 30
0.0
 10
1004.285026376309
 20
440.0525093858521
 30
0.0
 10
1007.138943477003
 20
440.0525093858521
 30
0.0
 10
1009.814749141064
 20
441.1671700303838
 30
0.0
 10
1011.843221363288
 20
443.1963312717031
 30
0.0
 10
1013.850333993496
 20
445.2030993923629
 30
0.0
 10
1014.965166892802
 20
447.9009536675364
 30
0.0
 10
1014.965166892802
 20
450.7548707682309
 30
0.0
  0
SPLINE
  5
466B
330
18
100
AcDbEntity
  8
10
  6
Continuous
 62
     7
370
    30
100
AcDbSpline
210
0.0
220
0.0
230
1.0
 70
    11
 71
     3
 72
    26
 73
    22
 74
     0
 42
0.0000000001
 43
0.0000000001
 40
0.0
 40
0.0
 40
0.0
 40
0.0
 40
1.0
 40
1.0
 40
1.0
 40
2.0
 40
2.0
 40
2.0
 40
3.0
 40
3.0
 40
3.0
 40
4.0
 40
4.0
 40
4.0
 40
5.0
 40
5.0
 40
5.0
 40
6.0
 40
6.0
 40
6.0
 40
7.0
 40
7.0
 40
7.0
 40
7.0
 10
1014.073231671448
 20
450.7548707682309
 30
0.0
 10
1014.073231671448
 20
445.3591622178838
 30
0.0
 10
1009.680734926656
 20
440.9668377278664
 30
0.0
 10
1004.285026376309
 20
440.9668377278664
 30
0.0
 10
1001.676400074225
 20
440.9668377278664
 30
0.0
 10
999.2014434770036
 20
441.9700495334217
 30
0.0
 10
997.3509104366392
 20
443.8207548285609
 30
0.0
 10
995.52259826216
 20
445.6711156141508
 30
0.0
 10
994.4968210811703
 20
448.1238513454878
 30
0.0
 10
994.4968210811703
 20
450.7548707682309
 30
0.0
 10
994.4968210811703
 20
453.3633248155397
 30
0.0
 10
995.52259826216
 20
455.816232801651
 30
0.0
 10
997.3509104366392
 20
457.6667658420157
 30
0.0
 10
999.2014434770036
 20
459.517126627606
 30
0.0
 10
1001.676400074225
 20
460.5430760633699
 30
0.0
 10
1004.285026376309
 20
460.5430760633699
 30
0.0
 10
1006.893308168844
 20
460.5430760633699
 30
0.0
 10
1009.346560664503
 20
459.517126627606
 30
0.0
 10
1011.197265959639
 20
457.6667658420157
 30
0.0
 10
1013.047282235684
 20
455.816232801651
 30
0.0
 10
1014.073231671448
 20
453.3633248155397
 30
0.0
 10
1014.073231671448
 20
450.7548707682309
 30
0.0
  0
POLYLINE
  5
466C
330
18
100
AcDbEntity
  8
10
  6
Continuous
 62
     7
370
    30
100
AcDb2dPolyline
 66
     1
 10
0.0
 20
0.0
 30
0.0
 70
     1
  0
VERTEX
  5
466D
330
466C
100
AcDbEntity
  8
10
  6
Continuous
 62
     7
370
    30
100
AcDbVertex
100
AcDb2dVertex
 10
1002.264822383253
 20
426.2206232638907
 30
0.0
  0
VERTEX
  5
466E
330
466C
100
AcDbEntity
  8
10
  6
Continuous
 62
     7
370
    30
100
AcDbVertex
100
AcDb2dVertex
 10
1001.872770516934
 20
423.1882502170155
 30
0.0
  0
VERTEX
  5
466F
330
466C
100
AcDbEntity
  8
10
  6
Continuous
 62
     7
370
    30
100
AcDbVertex
100
AcDb2dVertex
 10
1001.106236771273
 20
423.2874689670157
 30
0.0
  0
VERTEX
  5
4670
330
466C
100
AcDbEntity
  8
10
  6
Continuous
 62
     7
370
    30
100
AcDbVertex
100
AcDb2dVertex
 10
1001.498288637594
 20
426.3198420138905
 30
0.0
  0
SEQEND
  5
4671
330
466C
100
AcDbEntity
  8
10
  6
Continuous
 62
     7
370
    30
  0
POLYLINE
  5
4672
330
18
100
AcDbEntity
  8
10
  6
Continuous
 62
     7
370
    30
100
AcDb2dPolyline
 66
     1
 10
0.0
 20
0.0
 30
0.0
 70
     1
  0
VERTEX
  5
4673
330
4672
100
AcDbEntity
  8
10
  6
Continuous
 62
     7
370
    30
100
AcDbVertex
100
AcDb2dVertex
 10
999.7938276458404
 20
426.5978612196198
 30
0.0
  0
VERTEX
  5
4674
330
4672
100
AcDbEntity
  8
10
  6
Continuous
 62
     7
370
    30
100
AcDbVertex
100
AcDb2dVertex
 10
999.6129601328197
 20
426.0445788845504
 30
0.0
  0
VERTEX
  5
4675
330
4672
100
AcDbEntity
  8
10
  6
Continuous
 62
     7
370
    30
100
AcDbVertex
100
AcDb2dVertex
 10
997.51937560591
 20
426.7291193576406
 30
0.0
  0
VERTEX
  5
4676
330
4672
100
AcDbEntity
  8
10
  6
Continuous
 62
     7
370
    30
100
AcDbVertex
100
AcDb2dVertex
 10
997.3192155581667
 20
426.1169258897585
 30
0.0
  0
VERTEX
  5
4677
330
4672
100
AcDbEntity
  8
10
  6
Continuous
 62
     7
370
    30
100
AcDbVertex
100
AcDb2dVertex
 10
999.3242611310837
 20
425.4613242187518
 30
0.0
  0
VERTEX
  5
4678
330
4672
100
AcDbEntity
  8
10
  6
Continuous
 62
     7
370
    30
100
AcDbVertex
100
AcDb2dVertex
 10
999.1506283185836
 20
424.9300904947935
 30
0.0
  0
VERTEX
  5
4679
330
4672
100
AcDbEntity
  8
10
  6
Continuous
 62
     7
370
    30
100
AcDbVertex
100
AcDb2dVertex
 10
997.1455827456669
 20
425.5856921658004
 30
0.0
  0
VERTEX
  5
467A
330
4672
100
AcDbEntity
  8
10
  6
Continuous
 62
     7
370
    30
100
AcDbVertex
100
AcDb2dVertex
 10
996.930781042108
 20
424.929401475696
 30
0.0
  0
VERTEX
  5
467B
330
4672
100
AcDbEntity
  8
10
  6
Continuous
 62
     7
370
    30
100
AcDbVertex
100
AcDb2dVertex
 10
999.0686350460139
 20
424.2303916015641
 30
0.0
  0
VERTEX
  5
467C
330
4672
100
AcDbEntity
  8
10
  6
Continuous
 62
     7
370
    30
100
AcDbVertex
100
AcDb2dVertex
 10
998.8877675329932
 20
423.6771092664948
 30
0.0
  0
VERTEX
  5
467D
330
4672
100
AcDbEntity
  8
10
  6
Continuous
 62
     7
370
    30
100
AcDbVertex
100
AcDb2dVertex
 10
996.0240319101634
 20
424.6134862196198
 30
0.0
  0
VERTEX
  5
467E
330
4672
100
AcDbEntity
  8
10
  6
Continuous
 62
     7
370
    30
100
AcDbVertex
100
AcDb2dVertex
 10
996.9743615000073
 20
427.5197687717032
 30
0.0
  0
SEQEND
  5
467F
330
4672
100
AcDbEntity
  8
10
  6
Continuous
 62
     7
370
    30
  0
SPLINE
  5
4680
330
18
100
AcDbEntity
  8
10
  6
Continuous
 62
     7
370
    30
100
AcDbSpline
210
0.0
220
0.0
230
1.0
 70
    11
 71
     3
 72
    20
 73
    16
 74
     0
 42
0.0000000001
 43
0.0000000001
 40
0.0
 40
0.0
 40
0.0
 40
0.0
 40
1.0
 40
1.0
 40
1.0
 40
2.0
 40
2.0
 40
2.0
 40
3.0
 40
3.0
 40
3.0
 40
4.0
 40
4.0
 40
4.0
 40
5.0
 40
5.0
 40
5.0
 40
5.0
 10
994.0720408077327
 20
428.3703628472236
 30
0.0
 10
994.0720408077327
 20
428.3703628472236
 30
0.0
 10
993.171837357212
 20
426.7039701605921
 30
0.0
 10
993.171837357212
 20
426.7039701605921
 30
0.0
 10
993.171837357212
 20
426.7039701605921
 30
0.0
 10
994.3107859249202
 20
426.0886761067726
 30
0.0
 10
994.3107859249202
 20
426.0886761067726
 30
0.0
 10
994.8558000308231
 20
425.7944649522586
 30
0.0
 10
995.0006662960143
 20
425.9057415364601
 30
0.0
 10
995.3934071814307
 20
426.6330011935781
 30
0.0
 10
995.7439456471426
 20
427.2817126736129
 30
0.0
 10
995.7026045013092
 20
427.4894519314253
 30
0.0
 10
995.2068552608576
 20
427.7571358506961
 30
0.0
 10
995.2068552608576
 20
427.7571358506961
 30
0.0
 10
994.0720408077327
 20
428.3703628472236
 30
0.0
 10
994.0720408077327
 20
428.3703628472236
 30
0.0
  0
SPLINE
  5
4681
330
18
100
AcDbEntity
  8
10
  6
Continuous
 62
     7
370
    30
100
AcDbSpline
210
0.0
220
0.0
230
1.0
 70
    11
 71
     3
 72
    23
 73
    19
 74
     0
 42
0.0000000001
 43
0.0000000001
 40
0.0
 40
0.0
 40
0.0
 40
0.0
 40
1.0
 40
1.0
 40
1.0
 40
2.0
 40
2.0
 40
2.0
 40
3.0
 40
3.0
 40
3.0
 40
4.0
 40
4.0
 40
4.0
 40
5.0
 40
5.0
 40
5.0
 40
6.0
 40
6.0
 40
6.0
 40
6.0
 10
995.5449913828196
 20
428.2360041232657
 30
0.0
 10
995.7866648311703
 20
428.1054350043421
 30
0.0
 10
996.1144656666741
 20
427.9283570963559
 30
0.0
 10
996.2848256384621
 20
427.6069296875014
 30
0.0
 10
996.5072065520903
 20
427.19558528646
 30
0.0
 10
996.3054962113787
 20
426.7050036892378
 30
0.0
 10
996.0546932599898
 20
426.24060481771
 30
0.0
 10
995.5050282751809
 20
425.2232681206614
 30
0.0
 10
995.0420074418476
 20
425.032065321182
 30
0.0
 10
994.1161380299552
 20
425.5322931857655
 30
0.0
 10
994.1161380299552
 20
425.5322931857655
 30
0.0
 10
992.2234025698855
 20
426.5551420355921
 30
0.0
 10
992.2234025698855
 20
426.5551420355921
 30
0.0
 10
992.2234025698855
 20
426.5551420355921
 30
0.0
 10
993.6767161007015
 20
429.245417100696
 30
0.0
 10
993.6767161007015
 20
429.245417100696
 30
0.0
 10
993.6767161007015
 20
429.245417100696
 30
0.0
 10
995.5449913828196
 20
428.2360041232657
 30
0.0
 10
995.5449913828196
 20
428.2360041232657
 30
0.0
  0
POLYLINE
  5
4682
330
18
100
AcDbEntity
  8
10
  6
Continuous
 62
     7
370
    30
100
AcDb2dPolyline
 66
     1
 10
0.0
 20
0.0
 30
0.0
 70
     1
  0
VERTEX
  5
4683
330
4682
100
AcDbEntity
  8
10
  6
Continuous
 62
     7
370
    30
100
AcDbVertex
100
AcDb2dVertex
 10
990.5399566605977
 20
429.3952787543418
 30
0.0
  0
VERTEX
  5
4684
330
4682
100
AcDbEntity
  8
10
  6
Continuous
 62
     7
370
    30
100
AcDbVertex
100
AcDb2dVertex
 10
991.3652292842952
 20
428.7200400390643
 30
0.0
  0
VERTEX
  5
4685
330
4682
100
AcDbEntity
  8
10
  6
Continuous
 62
     7
370
    30
100
AcDbVertex
100
AcDb2dVertex
 10
991.7295481319515
 20
430.0112618272587
 30
0.0
  0
SEQEND
  5
4686
330
4682
100
AcDbEntity
  8
10
  6
Continuous
 62
     7
370
    30
  0
POLYLINE
  5
4687
330
18
100
AcDbEntity
  8
10
  6
Continuous
 62
     7
370
    30
100
AcDb2dPolyline
 66
     1
 10
0.0
 20
0.0
 30
0.0
 70
     1
  0
VERTEX
  5
4688
330
4687
100
AcDbEntity
  8
10
  6
Continuous
 62
     7
370
    30
100
AcDbVertex
100
AcDb2dVertex
 10
991.2002092105106
 20
428.1433310546892
 30
0.0
  0
VERTEX
  5
4689
330
4687
100
AcDbEntity
  8
10
  6
Continuous
 62
     7
370
    30
100
AcDbVertex
100
AcDb2dVertex
 10
990.0071726436705
 20
429.1189820963559
 30
0.0
  0
VERTEX
  5
468A
330
4687
100
AcDbEntity
  8
10
  6
Continuous
 62
     7
370
    30
100
AcDbVertex
100
AcDb2dVertex
 10
989.3636288068647
 20
428.7882529296893
 30
0.0
  0
VERTEX
  5
468B
330
4687
100
AcDbEntity
  8
10
  6
Continuous
 62
     7
370
    30
100
AcDbVertex
100
AcDb2dVertex
 10
988.6859785247466
 20
429.3425687934043
 30
0.0
  0
VERTEX
  5
468C
330
4687
100
AcDbEntity
  8
10
  6
Continuous
 62
     7
370
    30
100
AcDbVertex
100
AcDb2dVertex
 10
991.7321319535664
 20
430.8012222222238
 30
0.0
  0
VERTEX
  5
468D
330
4687
100
AcDbEntity
  8
10
  6
Continuous
 62
     7
370
    30
100
AcDbVertex
100
AcDb2dVertex
 10
992.5069339283922
 20
430.1673246527796
 30
0.0
  0
VERTEX
  5
468E
330
4687
100
AcDbEntity
  8
10
  6
Continuous
 62
     7
370
    30
100
AcDbVertex
100
AcDb2dVertex
 10
991.6775271901114
 20
426.8955174696198
 30
0.0
  0
VERTEX
  5
468F
330
4687
100
AcDbEntity
  8
10
  6
Continuous
 62
     7
370
    30
100
AcDbVertex
100
AcDb2dVertex
 10
991.0034942582537
 20
427.4467327473976
 30
0.0
  0
SEQEND
  5
4690
330
4687
100
AcDbEntity
  8
10
  6
Continuous
 62
     7
370
    30
  0
SPLINE
  5
4691
330
18
100
AcDbEntity
  8
10
  6
Continuous
 62
     7
370
    30
100
AcDbSpline
210
0.0
220
0.0
230
1.0
 70
    11
 71
     3
 72
    53
 73
    49
 74
     0
 42
0.0000000001
 43
0.0000000001
 40
0.0
 40
0.0
 40
0.0
 40
0.0
 40
1.0
 40
1.0
 40
1.0
 40
2.0
 40
2.0
 40
2.0
 40
3.0
 40
3.0
 40
3.0
 40
4.0
 40
4.0
 40
4.0
 40
5.0
 40
5.0
 40
5.0
 40
6.0
 40
6.0
 40
6.0
 40
7.0
 40
7.0
 40
7.0
 40
8.0
 40
8.0
 40
8.0
 40
9.0
 40
9.0
 40
9.0
 40
10.0
 40
10.0
 40
10.0
 40
11.0
 40
11.0
 40
11.0
 40
12.0
 40
12.0
 40
12.0
 40
13.0
 40
13.0
 40
13.0
 40
14.0
 40
14.0
 40
14.0
 40
15.0
 40
15.0
 40
15.0
 40
16.0
 40
16.0
 40
16.0
 40
16.0
 10
988.7392052500073
 20
434.0061945529531
 30
0.0
 10
988.7392052500073
 20
434.0061945529531
 30
0.0
 10
987.5032772443647
 20
431.8523208550364
 30
0.0
 10
987.5032772443647
 20
431.8523208550364
 30
0.0
 10
987.5032772443647
 20
431.8523208550364
 30
0.0
 10
989.8686798051286
 20
432.6136869574669
 30
0.0
 10
989.8686798051286
 20
432.6136869574669
 30
0.0
 10
989.8686798051286
 20
432.6136869574669
 30
0.0
 10
990.5726850677156
 20
431.7458674045155
 30
0.0
 10
990.5726850677156
 20
431.7458674045155
 30
0.0
 10
990.5726850677156
 20
431.7458674045155
 30
0.0
 10
988.1979807491392
 20
429.8193700086823
 30
0.0
 10
988.1979807491392
 20
429.8193700086823
 30
0.0
 10
988.1979807491392
 20
429.8193700086823
 30
0.0
 10
987.7344431514826
 20
430.390911349828
 30
0.0
 10
987.7344431514826
 20
430.390911349828
 30
0.0
 10
987.7344431514826
 20
430.390911349828
 30
0.0
 10
988.9579688133752
 20
431.3834433593767
 30
0.0
 10
988.9579688133752
 20
431.3834433593767
 30
0.0
 10
988.9579688133752
 20
431.3834433593767
 30
0.0
 10
989.0211863155451
 20
431.4285741102448
 30
0.0
 10
989.0513309010485
 20
431.4530342881962
 30
0.0
 10
989.235126745233
 20
431.5901490885433
 30
0.0
 10
989.4488949201459
 20
431.7513795572933
 30
0.0
 10
989.6295901783926
 20
431.8922839626753
 30
0.0
 10
989.6295901783926
 20
431.8922839626753
 30
0.0
 10
987.1594567148507
 20
431.0995674913211
 30
0.0
 10
987.1594567148507
 20
431.0995674913211
 30
0.0
 10
987.1594567148507
 20
431.0995674913211
 30
0.0
 10
986.6959191171948
 20
431.6711088324669
 30
0.0
 10
986.6959191171948
 20
431.6711088324669
 30
0.0
 10
986.6959191171948
 20
431.6711088324669
 30
0.0
 10
987.9807674787397
 20
433.9245457899322
 30
0.0
 10
987.9807674787397
 20
433.9245457899322
 30
0.0
 10
987.826943965285
 20
433.7877754991335
 30
0.0
 10
987.483123435771
 20
433.4849516059046
 30
0.0
 10
987.3355010941912
 20
433.3650622829877
 30
0.0
 10
987.3355010941912
 20
433.3650622829877
 30
0.0
 10
986.1209326805628
 20
432.3797649739601
 30
0.0
 10
986.1209326805628
 20
432.3797649739601
 30
0.0
 10
986.1209326805628
 20
432.3797649739601
 30
0.0
 10
985.6573950829066
 20
432.9513063151058
 30
0.0
 10
985.6573950829066
 20
432.9513063151058
 30
0.0
 10
985.6573950829066
 20
432.9513063151058
 30
0.0
 10
988.0320994014827
 20
434.8778037109392
 30
0.0
 10
988.0320994014827
 20
434.8778037109392
 30
0.0
 10
988.0320994014827
 20
434.8778037109392
 30
0.0
 10
988.7392052500073
 20
434.0061945529531
 30
0.0
 10
988.7392052500073
 20
434.0061945529531
 30
0.0
  0
POLYLINE
  5
4692
330
18
100
AcDbEntity
  8
10
  6
Continuous
 62
     7
370
    30
100
AcDb2dPolyline
 66
     1
 10
0.0
 20
0.0
 30
0.0
 70
     1
  0
VERTEX
  5
4693
330
4692
100
AcDbEntity
  8
10
  6
Continuous
 62
     7
370
    30
100
AcDbVertex
100
AcDb2dVertex
 10
1020.292318042976
 20
434.3165976562517
 30
0.0
  0
VERTEX
  5
4694
330
4692
100
AcDbEntity
  8
10
  6
Continuous
 62
     7
370
    30
100
AcDbVertex
100
AcDb2dVertex
 10
1023.141756519537
 20
434.3083294270851
 30
0.0
  0
VERTEX
  5
4695
330
4692
100
AcDbEntity
  8
10
  6
Continuous
 62
     7
370
    30
100
AcDbVertex
100
AcDb2dVertex
 10
1021.160137595926
 20
435.6241836480052
 30
0.0
  0
VERTEX
  5
4696
330
4692
100
AcDbEntity
  8
10
  6
Continuous
 62
     7
370
    30
100
AcDbVertex
100
AcDb2dVertex
 10
1021.582506302523
 20
436.2603205295155
 30
0.0
  0
VERTEX
  5
4697
330
4692
100
AcDbEntity
  8
10
  6
Continuous
 62
     7
370
    30
100
AcDbVertex
100
AcDb2dVertex
 10
1024.130154414503
 20
434.5691231553836
 30
0.0
  0
VERTEX
  5
4698
330
4692
100
AcDbEntity
  8
10
  6
Continuous
 62
     7
370
    30
100
AcDbVertex
100
AcDb2dVertex
 10
1023.509348207906
 20
433.6341242404532
 30
0.0
  0
VERTEX
  5
4699
330
4692
100
AcDbEntity
  8
10
  6
Continuous
 62
     7
370
    30
100
AcDbVertex
100
AcDb2dVertex
 10
1020.659565221795
 20
433.6423924696198
 30
0.0
  0
VERTEX
  5
469A
330
4692
100
AcDbEntity
  8
10
  6
Continuous
 62
     7
370
    30
100
AcDbVertex
100
AcDb2dVertex
 10
1022.641528654955
 20
432.3267105034739
 30
0.0
  0
VERTEX
  5
469B
330
4692
100
AcDbEntity
  8
10
  6
Continuous
 62
     7
370
    30
100
AcDbVertex
100
AcDb2dVertex
 10
1022.218815438809
 20
431.6904013671893
 30
0.0
  0
VERTEX
  5
469C
330
4692
100
AcDbEntity
  8
10
  6
Continuous
 62
     7
370
    30
100
AcDbVertex
100
AcDb2dVertex
 10
1019.671511836378
 20
433.3819432508699
 30
0.0
  0
SEQEND
  5
469D
330
4692
100
AcDbEntity
  8
10
  6
Continuous
 62
     7
370
    30
  0
POLYLINE
  5
469E
330
18
100
AcDbEntity
  8
10
  6
Continuous
 62
     7
370
    30
100
AcDb2dPolyline
 66
     1
 10
0.0
 20
0.0
 30
0.0
 70
     1
  0
VERTEX
  5
469F
330
469E
100
AcDbEntity
  8
10
  6
Continuous
 62
     7
370
    30
100
AcDbVertex
100
AcDb2dVertex
 10
1019.242941957906
 20
430.2741226128488
 30
0.0
  0
VERTEX
  5
46A0
330
469E
100
AcDbEntity
  8
10
  6
Continuous
 62
     7
370
    30
100
AcDbVertex
100
AcDb2dVertex
 10
1019.989494149746
 20
431.0354887152795
 30
0.0
  0
VERTEX
  5
46A1
330
469E
100
AcDbEntity
  8
10
  6
Continuous
 62
     7
370
    30
100
AcDbVertex
100
AcDb2dVertex
 10
1018.736512921448
 20
431.5147014973976
 30
0.0
  0
SEQEND
  5
46A2
330
469E
100
AcDbEntity
  8
10
  6
Continuous
 62
     7
370
    30
  0
POLYLINE
  5
46A3
330
18
100
AcDbEntity
  8
10
  6
Continuous
 62
     7
370
    30
100
AcDb2dPolyline
 66
     1
 10
0.0
 20
0.0
 30
0.0
 70
     1
  0
VERTEX
  5
46A4
330
46A3
100
AcDbEntity
  8
10
  6
Continuous
 62
     7
370
    30
100
AcDbVertex
100
AcDb2dVertex
 10
1020.54932216624
 20
430.8191367187516
 30
0.0
  0
VERTEX
  5
46A5
330
46A3
100
AcDbEntity
  8
10
  6
Continuous
 62
     7
370
    30
100
AcDbVertex
100
AcDb2dVertex
 10
1019.46997375044
 20
429.7187732204879
 30
0.0
  0
VERTEX
  5
46A6
330
46A3
100
AcDbEntity
  8
10
  6
Continuous
 62
     7
370
    30
100
AcDbVertex
100
AcDb2dVertex
 10
1019.741447274745
 20
429.0480131293419
 30
0.0
  0
VERTEX
  5
46A7
330
46A3
100
AcDbEntity
  8
10
  6
Continuous
 62
     7
370
    30
100
AcDbVertex
100
AcDb2dVertex
 10
1019.128564787767
 20
428.4230728081614
 30
0.0
  0
VERTEX
  5
46A8
330
46A3
100
AcDbEntity
  8
10
  6
Continuous
 62
     7
370
    30
100
AcDbVertex
100
AcDb2dVertex
 10
1017.949997621969
 20
431.5880820312518
 30
0.0
  0
VERTEX
  5
46A9
330
46A3
100
AcDbEntity
  8
10
  6
Continuous
 62
     7
370
    30
100
AcDbVertex
100
AcDb2dVertex
 10
1018.651074553392
 20
432.3029393446198
 30
0.0
  0
VERTEX
  5
46AA
330
46A3
100
AcDbEntity
  8
10
  6
Continuous
 62
     7
370
    30
100
AcDbVertex
100
AcDb2dVertex
 10
1021.835031801656
 20
431.1822497829878
 30
0.0
  0
VERTEX
  5
46AB
330
46A3
100
AcDbEntity
  8
10
  6
Continuous
 62
     7
370
    30
100
AcDbVertex
100
AcDb2dVertex
 10
1021.225249900614
 20
430.5607545572934
 30
0.0
  0
SEQEND
  5
46AC
330
46A3
100
AcDbEntity
  8
10
  6
Continuous
 62
     7
370
    30
  0
SPLINE
  5
46AD
330
18
100
AcDbEntity
  8
10
  6
Continuous
 62
     7
370
    30
100
AcDbSpline
210
0.0
220
0.0
230
1.0
 70
    11
 71
     3
 72
    20
 73
    16
 74
     0
 42
0.0000000001
 43
0.0000000001
 40
0.0
 40
0.0
 40
0.0
 40
0.0
 40
1.0
 40
1.0
 40
1.0
 40
2.0
 40
2.0
 40
2.0
 40
3.0
 40
3.0
 40
3.0
 40
4.0
 40
4.0
 40
4.0
 40
5.0
 40
5.0
 40
5.0
 40
5.0
 10
1015.217347882384
 20
428.668708116321
 30
0.0
 10
1015.217347882384
 20
428.668708116321
 30
0.0
 10
1015.723087899746
 20
427.9473051215293
 30
0.0
 10
1015.723087899746
 20
427.9473051215293
 30
0.0
 10
1015.723087899746
 20
427.9473051215293
 30
0.0
 10
1016.798302200962
 20
428.7014365234393
 30
0.0
 10
1016.798302200962
 20
428.7014365234393
 30
0.0
 10
1017.068742196621
 20
428.8912612847239
 30
0.0
 10
1017.174162118495
 20
429.0411229383699
 30
0.0
 10
1016.955743064677
 20
429.3522150607656
 30
0.0
 10
1016.715275399745
 20
429.6953465711823
 30
0.0
 10
1016.540264549051
 20
429.5964723307306
 30
0.0
 10
1016.29221767405
 20
429.4224950086823
 30
0.0
 10
1016.29221767405
 20
429.4224950086823
 30
0.0
 10
1015.217347882384
 20
428.668708116321
 30
0.0
 10
1015.217347882384
 20
428.668708116321
 30
0.0
  0
SPLINE
  5
46AE
330
18
100
AcDbEntity
  8
10
  6
Continuous
 62
     7
370
    30
100
AcDbSpline
210
0.0
220
0.0
230
1.0
 70
    11
 71
     3
 72
    26
 73
    22
 74
     0
 42
0.0000000001
 43
0.0000000001
 40
0.0
 40
0.0
 40
0.0
 40
0.0
 40
1.0
 40
1.0
 40
1.0
 40
2.0
 40
2.0
 40
2.0
 40
3.0
 40
3.0
 40
3.0
 40
4.0
 40
4.0
 40
4.0
 40
5.0
 40
5.0
 40
5.0
 40
6.0
 40
6.0
 40
6.0
 40
7.0
 40
7.0
 40
7.0
 40
7.0
 10
1016.068630977003
 20
429.9768108723975
 30
0.0
 10
1016.728366762593
 20
430.4391426866335
 30
0.0
 10
1017.152802526479
 20
430.4098593750018
 30
0.0
 10
1017.580683385858
 20
429.80007747396
 30
0.0
 10
1017.979280933601
 20
429.2312922092031
 30
0.0
 10
1017.974802309469
 20
428.8158136935781
 30
0.0
 10
1017.216192283427
 20
428.2835464409739
 30
0.0
 10
1017.216192283427
 20
428.2835464409739
 30
0.0
 10
1016.057262161899
 20
427.4708484158003
 30
0.0
 10
1016.057262161899
 20
427.4708484158003
 30
0.0
 10
1016.057262161899
 20
427.4708484158003
 30
0.0
 10
1016.638794279953
 20
426.6416139322934
 30
0.0
 10
1016.638794279953
 20
426.6416139322934
 30
0.0
 10
1016.638794279953
 20
426.6416139322934
 30
0.0
 10
1016.013509449225
 20
426.2030532769115
 30
0.0
 10
1016.013509449225
 20
426.2030532769115
 30
0.0
 10
1016.013509449225
 20
426.2030532769115
 30
0.0
 10
1014.257888789503
 20
428.7066041666683
 30
0.0
 10
1014.257888789503
 20
428.7066041666683
 30
0.0
 10
1014.257888789503
 20
428.7066041666683
 30
0.0
 10
1016.068630977003
 20
429.9768108723975
 30
0.0
 10
1016.068630977003
 20
429.9768108723975
 30
0.0
  0
POLYLINE
  5
46AF
330
18
100
AcDbEntity
  8
10
  6
Continuous
 62
     7
370
    30
100
AcDb2dPolyline
 66
     1
 10
0.0
 20
0.0
 30
0.0
 70
     1
  0
VERTEX
  5
46B0
330
46AF
100
AcDbEntity
  8
10
  6
Continuous
 62
     7
370
    30
100
AcDbVertex
100
AcDb2dVertex
 10
1012.74308030426
 20
425.9498387586821
 30
0.0
  0
VERTEX
  5
46B1
330
46AF
100
AcDbEntity
  8
10
  6
Continuous
 62
     7
370
    30
100
AcDbVertex
100
AcDb2dVertex
 10
1013.713563702698
 20
426.3915000000015
 30
0.0
  0
VERTEX
  5
46B2
330
46AF
100
AcDbEntity
  8
10
  6
Continuous
 62
     7
370
    30
100
AcDbVertex
100
AcDb2dVertex
 10
1012.716553069017
 20
427.2896363932309
 30
0.0
  0
SEQEND
  5
46B3
330
46AF
100
AcDbEntity
  8
10
  6
Continuous
 62
     7
370
    30
  0
POLYLINE
  5
46B4
330
18
100
AcDbEntity
  8
10
  6
Continuous
 62
     7
370
    30
100
AcDb2dPolyline
 66
     1
 10
0.0
 20
0.0
 30
0.0
 70
     1
  0
VERTEX
  5
46B5
330
46B4
100
AcDbEntity
  8
10
  6
Continuous
 62
     7
370
    30
100
AcDbVertex
100
AcDb2dVertex
 10
1014.157981020405
 20
425.9884238281268
 30
0.0
  0
VERTEX
  5
46B6
330
46B4
100
AcDbEntity
  8
10
  6
Continuous
 62
     7
370
    30
100
AcDbVertex
100
AcDb2dVertex
 10
1012.755138138462
 20
425.3500476345504
 30
0.0
  0
VERTEX
  5
46B7
330
46B4
100
AcDbEntity
  8
10
  6
Continuous
 62
     7
370
    30
100
AcDbVertex
100
AcDb2dVertex
 10
1012.767195972662
 20
424.6265775824671
 30
0.0
  0
VERTEX
  5
46B8
330
46B4
100
AcDbEntity
  8
10
  6
Continuous
 62
     7
370
    30
100
AcDbVertex
100
AcDb2dVertex
 10
1011.970345386725
 20
424.2638090277794
 30
0.0
  0
VERTEX
  5
46B9
330
46B4
100
AcDbEntity
  8
10
  6
Continuous
 62
     7
370
    30
100
AcDbVertex
100
AcDb2dVertex
 10
1012.009274965719
 20
427.6410361328141
 30
0.0
  0
VERTEX
  5
46BA
330
46B4
100
AcDbEntity
  8
10
  6
Continuous
 62
     7
370
    30
100
AcDbVertex
100
AcDb2dVertex
 10
1012.920502721795
 20
428.0558256293418
 30
0.0
  0
VERTEX
  5
46BB
330
46B4
100
AcDbEntity
  8
10
  6
Continuous
 62
     7
370
    30
100
AcDbVertex
100
AcDb2dVertex
 10
1015.488132387593
 20
425.8647449001754
 30
0.0
  0
VERTEX
  5
46BC
330
46B4
100
AcDbEntity
  8
10
  6
Continuous
 62
     7
370
    30
100
AcDbVertex
100
AcDb2dVertex
 10
1014.695760425788
 20
425.5040434027795
 30
0.0
  0
SEQEND
  5
46BD
330
46B4
100
AcDbEntity
  8
10
  6
Continuous
 62
     7
370
    30
  0
SPLINE
  5
46BE
330
18
100
AcDbEntity
  8
10
  6
Continuous
 62
     7
370
    30
100
AcDbSpline
210
0.0
220
0.0
230
1.0
 70
    11
 71
     3
 72
    35
 73
    31
 74
     0
 42
0.0000000001
 43
0.0000000001
 40
0.0
 40
0.0
 40
0.0
 40
0.0
 40
1.0
 40
1.0
 40
1.0
 40
2.0
 40
2.0
 40
2.0
 40
3.0
 40
3.0
 40
3.0
 40
4.0
 40
4.0
 40
4.0
 40
5.0
 40
5.0
 40
5.0
 40
6.0
 40
6.0
 40
6.0
 40
7.0
 40
7.0
 40
7.0
 40
8.0
 40
8.0
 40
8.0
 40
9.0
 40
9.0
 40
9.0
 40
10.0
 40
10.0
 40
10.0
 40
10.0
 10
1010.54063075999
 20
427.0402114800364
 30
0.0
 10
1010.54063075999
 20
427.0402114800364
 30
0.0
 10
1011.05153842058
 20
425.0200074869808
 30
0.0
 10
1011.05153842058
 20
425.0200074869808
 30
0.0
 10
1011.284426875441
 20
424.098444444446
 30
0.0
 10
1010.62985873308
 20
423.8769248046893
 30
0.0
 10
1009.857812834642
 20
423.6815878906268
 30
0.0
 10
1009.117117305126
 20
423.4945192057309
 30
0.0
 10
1008.77157422787
 20
423.4752266710087
 30
0.0
 10
1008.512503047316
 20
423.6257773437515
 30
0.0
 10
1008.235172860684
 20
423.7918309461822
 30
0.0
 10
1008.160414288634
 20
424.0491795789949
 30
0.0
 10
1008.02536654558
 20
424.5831693793419
 30
0.0
 10
1008.02536654558
 20
424.5831693793419
 30
0.0
 10
1008.779497947489
 20
424.7740276692726
 30
0.0
 10
1008.779497947489
 20
424.7740276692726
 30
0.0
 10
1008.795689896274
 20
424.7099488932309
 30
0.0
 10
1008.867003372837
 20
424.4277955729184
 30
0.0
 10
1008.885606888462
 20
424.3723295355919
 30
0.0
 10
1008.975179371101
 20
424.09499934896
 30
0.0
 10
1009.177750985684
 20
424.1101577690987
 30
0.0
 10
1009.665231996969
 20
424.2334921875018
 30
0.0
 10
1010.179929262593
 20
424.3633722873282
 30
0.0
 10
1010.410406150614
 20
424.4215944010433
 30
0.0
 10
1010.301885642802
 20
424.8505087890642
 30
0.0
 10
1010.301885642802
 20
424.8505087890642
 30
0.0
 10
1009.795801115892
 20
426.8521092664948
 30
0.0
 10
1009.795801115892
 20
426.8521092664948
 30
0.0
 10
1009.795801115892
 20
426.8521092664948
 30
0.0
 10
1010.54063075999
 20
427.0402114800364
 30
0.0
 10
1010.54063075999
 20
427.0402114800364
 30
0.0
  0
POLYLINE
  5
46BF
330
18
100
AcDbEntity
  8
10
  6
Continuous
 62
     7
370
    30
100
AcDb2dPolyline
 66
     1
 10
0.0
 20
0.0
 30
0.0
 70
     1
  0
VERTEX
  5
46C0
330
46BF
100
AcDbEntity
  8
10
  6
Continuous
 62
     7
370
    30
100
AcDbVertex
100
AcDb2dVertex
 10
1003.793755759989
 20
426.1079686414948
 30
0.0
  0
VERTEX
  5
46C1
330
46BF
100
AcDbEntity
  8
10
  6
Continuous
 62
     7
370
    30
100
AcDbVertex
100
AcDb2dVertex
 10
1005.360585187073
 20
423.7277521701406
 30
0.0
  0
VERTEX
  5
46C2
330
46BF
100
AcDbEntity
  8
10
  6
Continuous
 62
     7
370
    30
100
AcDbVertex
100
AcDb2dVertex
 10
1005.363341263462
 20
426.1062460937518
 30
0.0
  0
VERTEX
  5
46C3
330
46BF
100
AcDbEntity
  8
10
  6
Continuous
 62
     7
370
    30
100
AcDbVertex
100
AcDb2dVertex
 10
1006.126774423184
 20
426.1055570746544
 30
0.0
  0
VERTEX
  5
46C4
330
46BF
100
AcDbEntity
  8
10
  6
Continuous
 62
     7
370
    30
100
AcDbVertex
100
AcDb2dVertex
 10
1006.123673837244
 20
423.0476903211823
 30
0.0
  0
VERTEX
  5
46C5
330
46BF
100
AcDbEntity
  8
10
  6
Continuous
 62
     7
370
    30
100
AcDbVertex
100
AcDb2dVertex
 10
1005.001261727871
 20
423.0490683593767
 30
0.0
  0
VERTEX
  5
46C6
330
46BF
100
AcDbEntity
  8
10
  6
Continuous
 62
     7
370
    30
100
AcDbVertex
100
AcDb2dVertex
 10
1003.434604555562
 20
425.4292848307309
 30
0.0
  0
VERTEX
  5
46C7
330
46BF
100
AcDbEntity
  8
10
  6
Continuous
 62
     7
370
    30
100
AcDbVertex
100
AcDb2dVertex
 10
1003.432020733948
 20
423.0507909071198
 30
0.0
  0
VERTEX
  5
46C8
330
46BF
100
AcDbEntity
  8
10
  6
Continuous
 62
     7
370
    30
100
AcDbVertex
100
AcDb2dVertex
 10
1002.668243064677
 20
423.0514799262171
 30
0.0
  0
VERTEX
  5
46C9
330
46BF
100
AcDbEntity
  8
10
  6
Continuous
 62
     7
370
    30
100
AcDbVertex
100
AcDb2dVertex
 10
1002.671688160162
 20
426.1093466796893
 30
0.0
  0
SEQEND
  5
46CA
330
46BF
100
AcDbEntity
  8
10
  6
Continuous
 62
     7
370
    30
  0
SPLINE
  5
46CB
330
18
100
AcDbEntity
  8
10
  6
Continuous
 62
     7
370
    30
100
AcDbSpline
210
0.0
220
0.0
230
1.0
 70
    11
 71
     3
 72
    77
 73
    73
 74
     0
 42
0.0000000001
 43
0.0000000001
 40
0.0
 40
0.0
 40
0.0
 40
0.0
 40
1.0
 40
1.0
 40
1.0
 40
2.0
 40
2.0
 40
2.0
 40
3.0
 40
3.0
 40
3.0
 40
4.0
 40
4.0
 40
4.0
 40
5.0
 40
5.0
 40
5.0
 40
6.0
 40
6.0
 40
6.0
 40
7.0
 40
7.0
 40
7.0
 40
8.0
 40
8.0
 40
8.0
 40
9.0
 40
9.0
 40
9.0
 40
10.0
 40
10.0
 40
10.0
 40
11.0
 40
11.0
 40
11.0
 40
12.0
 40
12.0
 40
12.0
 40
13.0
 40
13.0
 40
13.0
 40
14.0
 40
14.0
 40
14.0
 40
15.0
 40
15.0
 40
15.0
 40
16.0
 40
16.0
 40
16.0
 40
17.0
 40
17.0
 40
17.0
 40
18.0
 40
18.0
 40
18.0
 40
19.0
 40
19.0
 40
19.0
 40
20.0
 40
20.0
 40
20.0
 40
21.0
 40
21.0
 40
21.0
 40
22.0
 40
22.0
 40
22.0
 40
23.0
 40
23.0
 40
23.0
 40
24.0
 40
24.0
 40
24.0
 40
24.0
 10
1001.701893780823
 20
483.4329794921892
 30
0.0
 10
1001.852272198791
 20
483.4581286892379
 30
0.0
 10
1002.132013952264
 20
483.4791437717032
 30
0.0
 10
1002.169737747837
 20
483.3310046658005
 30
0.0
 10
1002.194886944886
 20
483.1806262478316
 30
0.0
 10
1002.320632930127
 20
482.5064210611997
 30
0.0
 10
1002.333207528651
 20
482.4311457248281
 30
0.0
 10
1002.335274585944
 20
482.341400987415
 30
0.0
 10
1002.316671070319
 20
482.2223729383698
 30
0.0
 10
1002.05346577518
 20
482.1784479709219
 30
0.0
 10
1000.976356671448
 20
481.9980972222237
 30
0.0
 10
999.6360422725768
 20
481.7738215060781
 30
0.0
 10
998.7217139305627
 20
481.6206870117206
 30
0.0
 10
998.2457739891563
 20
481.5409330512168
 30
0.0
 10
998.300206497837
 20
481.2925416666685
 30
0.0
 10
998.3420644079933
 20
481.0420832248281
 30
0.0
 10
998.4740115651112
 20
480.4074966362864
 30
0.0
 10
998.7487579301287
 20
478.6892552625885
 30
0.0
 10
998.8724368580802
 20
477.9502822808177
 30
0.0
 10
998.9227352521773
 20
477.6496976996543
 30
0.0
 10
999.0584720143299
 20
477.6851821831614
 30
0.0
 10
999.1837012352503
 20
477.7061972656268
 30
0.0
 10
999.8727203324726
 20
477.8216079644113
 30
0.0
 10
1002.012469138896
 20
478.1926447482657
 30
0.0
 10
1002.100146819017
 20
478.2072864040816
 30
0.0
 10
1002.275502179257
 20
478.2365697157135
 30
0.0
 10
1002.511491220059
 20
478.2889351671025
 30
0.0
 10
1002.544908646272
 20
478.0886028645851
 30
0.0
 10
1002.551282072922
 20
478.0510513237864
 30
0.0
 10
1002.660147090284
 20
477.476926161026
 30
0.0
 10
1002.693736771274
 20
477.1992514648456
 30
0.0
 10
1002.72525939497
 20
477.0113215060781
 30
0.0
 10
1002.541635805562
 20
476.9548219401058
 30
0.0
 10
1002.416234329868
 20
476.9338068576407
 30
0.0
 10
1002.027972068583
 20
476.8688668077275
 30
0.0
 10
999.9111331471427
 20
476.5145387369809
 30
0.0
 10
999.3600901241391
 20
476.4223824327272
 30
0.0
 10
999.1971371076459
 20
476.3949939236129
 30
0.0
 10
999.1513173376807
 20
476.2844063585088
 30
0.0
 10
999.1723324201462
 20
476.0818347439252
 30
0.0
 10
999.2980784053893
 20
475.3302871636302
 30
0.0
 10
999.7152794687574
 20
472.9149307183178
 30
0.0
 10
999.7321604366392
 20
472.8146784396717
 30
0.0
 10
999.8517052500073
 20
472.0235122612863
 30
0.0
 10
999.912511185337
 20
471.5830568033871
 30
0.0
 10
1000.363474184469
 20
471.6585043945332
 30
0.0
 10
1001.215101788635
 20
471.8009590928835
 30
0.0
 10
1002.806046884122
 20
472.0672649739602
 30
0.0
 10
1003.78307596398
 20
472.2309070095503
 30
0.0
 10
1003.920879783427
 20
472.253816894533
 30
0.0
 10
1004.033534405823
 20
472.2727649197066
 30
0.0
 10
1004.064884774745
 20
472.0848349609392
 30
0.0
 10
1004.098646710509
 20
471.884502658422
 30
0.0
 10
1004.19063075999
 20
471.3332873806441
 30
0.0
 10
1004.207511727871
 20
471.2330351019982
 30
0.0
 10
1004.245407778219
 20
471.0077258572066
 30
0.0
 10
1004.149289614156
 20
470.9658679470503
 30
0.0
 10
1003.948785056864
 20
470.9322782660607
 30
0.0
 10
1003.510568911031
 20
470.8588977322066
 30
0.0
 10
1000.065817934469
 20
470.2823610026059
 30
0.0
 10
999.1514895924547
 20
470.1292265082484
 30
0.0
 10
998.3122643320387
 20
469.9888388671893
 30
0.0
 10
997.5185143320384
 20
470.4225763888906
 30
0.0
 10
997.3528052391566
 20
471.4120078125016
 30
0.0
 10
997.2711564761358
 20
471.9005223524324
 30
0.0
 10
995.7909712005282
 20
480.743737955731
 30
0.0
 10
995.7279259531322
 20
481.1195978732656
 30
0.0
 10
995.6504113046946
 20
481.5829632161475
 30
0.0
 10
995.8273169579063
 20
482.4495769856787
 30
0.0
 10
997.054804479608
 20
482.6550769314255
 30
0.0
 10
998.1320858381147
 20
482.8354276801233
 30
0.0
 10
1000.662336217889
 20
483.2590021701405
 30
0.0
 10
1001.701893780823
 20
483.4329794921892
 30
0.0
  0
SPLINE
  5
46CC
330
18
100
AcDbEntity
  8
10
  6
Continuous
 62
     7
370
    30
100
AcDbSpline
210
0.0
220
0.0
230
1.0
 70
    11
 71
     3
 72
    65
 73
    61
 74
     0
 42
0.0000000001
 43
0.0000000001
 40
0.0
 40
0.0
 40
0.0
 40
0.0
 40
1.0
 40
1.0
 40
1.0
 40
2.0
 40
2.0
 40
2.0
 40
3.0
 40
3.0
 40
3.0
 40
4.0
 40
4.0
 40
4.0
 40
5.0
 40
5.0
 40
5.0
 40
6.0
 40
6.0
 40
6.0
 40
7.0
 40
7.0
 40
7.0
 40
8.0
 40
8.0
 40
8.0
 40
9.0
 40
9.0
 40
9.0
 40
10.0
 40
10.0
 40
10.0
 40
11.0
 40
11.0
 40
11.0
 40
12.0
 40
12.0
 40
12.0
 40
13.0
 40
13.0
 40
13.0
 40
14.0
 40
14.0
 40
14.0
 40
15.0
 40
15.0
 40
15.0
 40
16.0
 40
16.0
 40
16.0
 40
17.0
 40
17.0
 40
17.0
 40
18.0
 40
18.0
 40
18.0
 40
19.0
 40
19.0
 40
19.0
 40
20.0
 40
20.0
 40
20.0
 40
20.0
 10
981.784246482646
 20
473.0847739257831
 30
0.0
 10
981.952711651917
 20
472.9497261827273
 30
0.0
 10
981.7999216671081
 20
472.8606704644113
 30
0.0
 10
981.6807213632884
 20
472.7120145941857
 30
0.0
 10
981.6092356319515
 20
472.6227866210955
 30
0.0
 10
979.816235686205
 20
470.3652155490468
 30
0.0
 10
979.5938547725766
 20
470.0877131076405
 30
0.0
 10
979.4429595902848
 20
469.8994386393247
 30
0.0
 10
979.2722551089482
 20
469.7270116102449
 30
0.0
 10
979.4309017560836
 20
469.5998875868073
 30
0.0
 10
979.6389855234448
 20
469.4331449652794
 30
0.0
 10
981.6903676306495
 20
467.7891453993074
 30
0.0
 10
982.0272979691912
 20
467.5190499131962
 30
0.0
 10
982.225563214417
 20
467.3602310112864
 30
0.0
 10
982.3781809444517
 20
467.2053739691857
 30
0.0
 10
982.5588762026981
 20
467.4511815321198
 30
0.0
 10
982.8527428476634
 20
467.8179119466164
 30
0.0
 10
984.2107994882884
 20
469.5125544162343
 30
0.0
 10
984.7111996076462
 20
470.1368057183176
 30
0.0
 10
984.8223039370733
 20
470.275643066408
 30
0.0
 10
984.9254845468824
 20
470.1604046223976
 30
0.0
 10
985.0047217430628
 20
470.0968426106789
 30
0.0
 10
985.2029869882883
 20
469.9380237087691
 30
0.0
 10
985.3693851002676
 20
469.8208904622411
 30
0.0
 10
985.6885731970558
 20
469.5489001736127
 30
0.0
 10
985.8074289913268
 20
469.4536432834218
 30
0.0
 10
985.8113908511356
 20
469.4178142903663
 30
0.0
 10
985.5829810204063
 20
469.1125788302968
 30
0.0
 10
985.3843712656324
 20
468.8648764648455
 30
0.0
 10
983.9310577348165
 20
467.0513782009567
 30
0.0
 10
983.6211713958407
 20
466.6648384874148
 30
0.0
 10
983.4781999331667
 20
466.4863825412346
 30
0.0
 10
983.474238073358
 20
466.3594307725713
 30
0.0
 10
983.6625125416739
 20
466.2085355902793
 30
0.0
 10
984.1660132469684
 20
465.8213068576407
 30
0.0
 10
987.4581464934966
 20
463.1666885308177
 30
0.0
 10
987.8346954301289
 20
462.8648981662343
 30
0.0
 10
987.9833513003543
 20
462.745697862415
 30
0.0
 10
988.1399308901983
 20
462.555184082033
 30
0.0
 10
987.9571685746601
 20
462.3272910156265
 30
0.0
 10
987.8062733923682
 20
462.1390165473107
 30
0.0
 10
986.9563683359446
 20
461.0786161566856
 30
0.0
 10
986.7737782751808
 20
460.8505508355052
 30
0.0
 10
986.6070356536532
 20
460.6424670681441
 30
0.0
 10
986.442360089417
 20
460.6605538194464
 30
0.0
 10
986.1669247053026
 20
460.8650202365468
 30
0.0
 10
985.851698468323
 20
461.1013537868941
 30
0.0
 10
978.524152624139
 20
467.0064197048628
 30
0.0
 10
977.8621775264833
 20
467.5207724609391
 30
0.0
 10
977.2773725677152
 20
467.9893054470504
 30
0.0
 10
976.9986643428891
 20
468.9615113932309
 30
0.0
 10
977.6101687916741
 20
469.7244277886302
 30
0.0
 10
978.0232357404583
 20
470.2398140733524
 30
0.0
 10
980.4694257903715
 20
473.2921686740469
 30
0.0
 10
980.5965498138093
 20
473.4508153211824
 30
0.0
 10
980.7949873138094
 20
473.6985176866339
 30
0.0
 10
980.9023020382015
 20
473.7917075195331
 30
0.0
 10
981.0409671315175
 20
473.6804309353316
 30
0.0
 10
981.2688601979241
 20
473.4978408745678
 30
0.0
 10
981.64558138933
 20
473.1958782552101
 30
0.0
 10
981.784246482646
 20
473.0847739257831
 30
0.0
  0
SPLINE
  5
46CD
330
18
100
AcDbEntity
  8
10
  6
Continuous
 62
     7
370
    30
100
AcDbSpline
210
0.0
220
0.0
230
1.0
 70
    11
 71
     3
 72
    20
 73
    16
 74
     0
 42
0.0000000001
 43
0.0000000001
 40
0.0
 40
0.0
 40
0.0
 40
0.0
 40
1.0
 40
1.0
 40
1.0
 40
2.0
 40
2.0
 40
2.0
 40
3.0
 40
3.0
 40
3.0
 40
4.0
 40
4.0
 40
4.0
 40
5.0
 40
5.0
 40
5.0
 40
5.0
 10
975.5145172074724
 20
458.191281629776
 30
0.0
 10
975.6283776132884
 20
458.5947023111997
 30
0.0
 10
979.6258941605977
 20
458.31185997179
 30
0.0
 10
980.3204254105974
 20
458.2481257052967
 30
0.0
 10
980.5019819427156
 20
458.2364123806441
 30
0.0
 10
980.6589060421083
 20
458.2317615017378
 30
0.0
 10
980.5900041323855
 20
457.9873319769983
 30
0.0
 10
980.4866512678025
 20
457.6206015625015
 30
0.0
 10
980.1178537960142
 20
456.3126710611998
 30
0.0
 10
980.0420616953196
 20
456.0437813585088
 30
0.0
 10
979.959379403653
 20
455.7504314778663
 30
0.0
 10
979.9318186397643
 20
455.6525907660606
 30
0.0
 10
979.7132273311706
 20
455.7669679361996
 30
0.0
 10
979.0702002586881
 20
456.1066543511302
 30
0.0
 10
975.4180545338616
 20
457.849011393231
 30
0.0
 10
975.5145172074724
 20
458.191281629776
 30
0.0
  0
SPLINE
  5
46CE
330
18
100
AcDbEntity
  8
10
  6
Continuous
 62
     7
370
    30
100
AcDbSpline
210
0.0
220
0.0
230
1.0
 70
    11
 71
     3
 72
    77
 73
    73
 74
     0
 42
0.0000000001
 43
0.0000000001
 40
0.0
 40
0.0
 40
0.0
 40
0.0
 40
1.0
 40
1.0
 40
1.0
 40
2.0
 40
2.0
 40
2.0
 40
3.0
 40
3.0
 40
3.0
 40
4.0
 40
4.0
 40
4.0
 40
5.0
 40
5.0
 40
5.0
 40
6.0
 40
6.0
 40
6.0
 40
7.0
 40
7.0
 40
7.0
 40
8.0
 40
8.0
 40
8.0
 40
9.0
 40
9.0
 40
9.0
 40
10.0
 40
10.0
 40
10.0
 40
11.0
 40
11.0
 40
11.0
 40
12.0
 40
12.0
 40
12.0
 40
13.0
 40
13.0
 40
13.0
 40
14.0
 40
14.0
 40
14.0
 40
15.0
 40
15.0
 40
15.0
 40
16.0
 40
16.0
 40
16.0
 40
17.0
 40
17.0
 40
17.0
 40
18.0
 40
18.0
 40
18.0
 40
19.0
 40
19.0
 40
19.0
 40
20.0
 40
20.0
 40
20.0
 40
21.0
 40
21.0
 40
21.0
 40
22.0
 40
22.0
 40
22.0
 40
23.0
 40
23.0
 40
23.0
 40
24.0
 40
24.0
 40
24.0
 40
24.0
 10
988.6913184227504
 20
479.608406738283
 30
0.0
 10
988.8184424461881
 20
479.6924670681441
 30
0.0
 10
989.0654557925419
 20
479.8252754991336
 30
0.0
 10
989.1601959184102
 20
479.7050416666684
 30
0.0
 10
989.2440839934966
 20
479.577917643231
 30
0.0
 10
989.6328630191042
 20
479.0127497287341
 30
0.0
 10
989.6747209292607
 20
478.9491877170156
 30
0.0
 10
989.7133059987053
 20
478.8680557183178
 30
0.0
 10
989.7444841128544
 20
478.7516114908871
 30
0.0
 10
989.5219309444515
 20
478.6046781684046
 30
0.0
 10
988.6107031883753
 20
478.0024754774323
 30
0.0
 10
987.4769222638963
 20
477.2535117187518
 30
0.0
 10
986.70332607249
 20
476.7424318033871
 30
0.0
 10
986.3005944101637
 20
476.4762981770851
 30
0.0
 10
986.4513173376808
 20
476.2714872504357
 30
0.0
 10
986.5913604691913
 20
476.0594416232656
 30
0.0
 10
986.9696319535664
 20
475.5330310329878
 30
0.0
 10
987.9180667408927
 20
474.0743776041685
 30
0.0
 10
988.3311336896774
 20
473.4492650282135
 30
0.0
 10
988.4990820946253
 20
473.1948447265643
 30
0.0
 10
988.6086361310837
 20
473.2825224066856
 30
0.0
 10
988.7147450720558
 20
473.3524578450539
 30
0.0
 10
989.2974829735315
 20
473.7376195204008
 30
0.0
 10
991.1023684987053
 20
474.9452977430573
 30
0.0
 10
991.1766103064307
 20
474.9943903537345
 30
0.0
 10
991.3249216671079
 20
475.0924033203141
 30
0.0
 10
991.5192250525244
 20
475.2358915473108
 30
0.0
 10
991.6313629105976
 20
475.0663928493941
 30
0.0
 10
991.6522057382886
 20
475.0346979709219
 30
0.0
 10
991.9850019622472
 20
474.5542794053839
 30
0.0
 10
992.128317934469
 20
474.3141562500018
 30
0.0
 10
992.2333933467957
 20
474.1551650933176
 30
0.0
 10
992.0883548268305
 20
474.0289023437518
 30
0.0
 10
991.9824181406324
 20
473.9589669053838
 30
0.0
 10
991.6539282860311
 20
473.7419258897586
 30
0.0
 10
989.8631676523507
 20
472.5587078450537
 30
0.0
 10
989.39704623308
 20
472.2507163085952
 30
0.0
 10
989.2592424136354
 20
472.1597657877621
 30
0.0
 10
989.2623429995731
 20
472.0398764648456
 30
0.0
 10
989.3636288068647
 20
471.8633153211823
 30
0.0
 10
989.7837582013961
 20
471.2276952039948
 30
0.0
 10
991.1454321922816
 20
469.1895767144115
 30
0.0
 10
991.2015872487053
 20
469.1048273654531
 30
0.0
 10
991.6320519296949
 20
468.4302776692726
 30
0.0
 10
991.8664906775246
 20
468.0523506944463
 30
0.0
 10
992.2478627478367
 20
468.3043594292552
 30
0.0
 10
992.9684044687572
 20
468.7804716254357
 30
0.0
 10
994.3140587656323
 20
469.669650770401
 30
0.0
 10
995.1407094275246
 20
470.2156984049496
 30
0.0
 10
995.2571536549553
 20
470.2926962890643
 30
0.0
 10
995.3525827999204
 20
470.3557415364596
 30
0.0
 10
995.457658212247
 20
470.1967503797758
 30
0.0
 10
995.5696238155454
 20
470.0272516818593
 30
0.0
 10
995.8776153520036
 20
469.5609580078142
 30
0.0
 10
995.9335981536533
 20
469.476208658856
 30
0.0
 10
996.0596886484449
 20
469.2855226236996
 30
0.0
 10
995.9888919362052
 20
469.2081802300366
 30
0.0
 10
995.8193932382883
 20
469.0962146267379
 30
0.0
 10
995.4485287092087
 20
468.8512683376753
 30
0.0
 10
992.5344946922816
 20
466.9259767252622
 30
0.0
 10
991.7610707556496
 20
466.4148968098976
 30
0.0
 10
991.0510365759622
 20
465.9458470594635
 30
0.0
 10
990.1496273420212
 20
466.0199166124146
 30
0.0
 10
989.5965172617261
 20
466.8570748155397
 30
0.0
 10
989.3234934444516
 20
467.2703140190991
 30
0.0
 10
984.3808149505282
 20
474.7513388671888
 30
0.0
 10
984.1708363806494
 20
475.0691489257831
 30
0.0
 10
983.9117652000943
 20
475.4612007921021
 30
0.0
 10
983.7215959292606
 20
476.3250584852449
 30
0.0
 10
984.7601199635487
 20
477.0111492513039
 30
0.0
 10
985.6713477196253
 20
477.6131796875016
 30
0.0
 10
987.8117855451462
 20
479.0273913845505
 30
0.0
 10
988.6913184227504
 20
479.608406738283
 30
0.0
  0
SPLINE
  5
46CF
330
18
100
AcDbEntity
  8
10
  6
Continuous
 62
     7
370
    30
100
AcDbSpline
210
0.0
220
0.0
230
1.0
 70
    11
 71
     3
 72
    26
 73
    22
 74
     0
 42
0.0000000001
 43
0.0000000001
 40
0.0
 40
0.0
 40
0.0
 40
0.0
 40
1.0
 40
1.0
 40
1.0
 40
2.0
 40
2.0
 40
2.0
 40
3.0
 40
3.0
 40
3.0
 40
4.0
 40
4.0
 40
4.0
 40
5.0
 40
5.0
 40
5.0
 40
6.0
 40
6.0
 40
6.0
 40
7.0
 40
7.0
 40
7.0
 40
7.0
 10
1024.553901159295
 20
472.9006335720504
 30
0.0
 10
1024.590419171448
 20
472.7457765299496
 30
0.0
 10
1024.527718433601
 20
472.5873021375885
 30
0.0
 10
1024.366832474399
 20
472.4432971462691
 30
0.0
 10
1024.187342999573
 20
472.2822389322934
 30
0.0
 10
1023.997518238288
 20
472.2657024739601
 30
0.0
 10
1023.787367413633
 20
472.3669882812518
 30
0.0
 10
1023.672990243497
 20
472.4183202039949
 30
0.0
 10
1023.5355309336
 20
472.5337309027794
 30
0.0
 10
1023.382913203566
 20
472.7039186197933
 30
0.0
 10
1023.382913203566
 20
472.7039186197933
 30
0.0
 10
1023.043915807732
 20
473.0821901041685
 30
0.0
 10
1023.043915807732
 20
473.0821901041685
 30
0.0
 10
1023.043915807732
 20
473.0821901041685
 30
0.0
 10
1023.876250877177
 20
473.8282255316859
 30
0.0
 10
1023.876250877177
 20
473.8282255316859
 30
0.0
 10
1023.876250877177
 20
473.8282255316859
 30
0.0
 10
1024.198367305128
 20
473.4687298177101
 30
0.0
 10
1024.198367305128
 20
473.4687298177101
 30
0.0
 10
1024.401627938809
 20
473.2418702799498
 30
0.0
 10
1024.525995885858
 20
473.0461888563385
 30
0.0
 10
1024.553901159295
 20
472.9006335720504
 30
0.0
  0
SPLINE
  5
46D0
330
18
100
AcDbEntity
  8
10
  6
Continuous
 62
     7
370
    30
100
AcDbSpline
210
0.0
220
0.0
230
1.0
 70
    11
 71
     3
 72
    77
 73
    73
 74
     0
 42
0.0000000001
 43
0.0000000001
 40
0.0
 40
0.0
 40
0.0
 40
0.0
 40
1.0
 40
1.0
 40
1.0
 40
2.0
 40
2.0
 40
2.0
 40
3.0
 40
3.0
 40
3.0
 40
4.0
 40
4.0
 40
4.0
 40
5.0
 40
5.0
 40
5.0
 40
6.0
 40
6.0
 40
6.0
 40
7.0
 40
7.0
 40
7.0
 40
8.0
 40
8.0
 40
8.0
 40
9.0
 40
9.0
 40
9.0
 40
10.0
 40
10.0
 40
10.0
 40
11.0
 40
11.0
 40
11.0
 40
12.0
 40
12.0
 40
12.0
 40
13.0
 40
13.0
 40
13.0
 40
14.0
 40
14.0
 40
14.0
 40
15.0
 40
15.0
 40
15.0
 40
16.0
 40
16.0
 40
16.0
 40
17.0
 40
17.0
 40
17.0
 40
18.0
 40
18.0
 40
18.0
 40
19.0
 40
19.0
 40
19.0
 40
20.0
 40
20.0
 40
20.0
 40
21.0
 40
21.0
 40
21.0
 40
22.0
 40
22.0
 40
22.0
 40
23.0
 40
23.0
 40
23.0
 40
24.0
 40
24.0
 40
24.0
 40
24.0
 10
1021.237996753913
 20
478.7932971462691
 30
0.0
 10
1021.374767044711
 20
478.7261177842897
 30
0.0
 10
1021.614545690544
 20
478.5802179904532
 30
0.0
 10
1021.558735143669
 20
478.4379355468768
 30
0.0
 10
1021.491555781691
 20
478.3009930013037
 30
0.0
 10
1021.200789722663
 20
477.679842285158
 30
0.0
 10
1021.167372296448
 20
477.6112848849843
 30
0.0
 10
1021.116729392802
 20
477.5372153320327
 30
0.0
 10
1021.032324553392
 20
477.4512601996546
 30
0.0
 10
1020.792890417107
 20
477.5687379557309
 30
0.0
 10
1019.812416241759
 20
478.0500177951406
 30
0.0
 10
1018.59216342058
 20
478.6486031358522
 30
0.0
 10
1017.760172860684
 20
479.0570192057309
 30
0.0
 10
1017.326779848531
 20
479.2695815972239
 30
0.0
 10
1017.226183060337
 20
479.0360041232657
 30
0.0
 10
1017.114217457038
 20
478.8079388020851
 30
0.0
 10
1016.851701180996
 20
478.2152101236996
 30
0.0
 10
1016.074143129781
 20
476.6588882378488
 30
0.0
 10
1015.744102982212
 20
475.9860610894114
 30
0.0
 10
1015.609744258253
 20
475.7125205078142
 30
0.0
 10
1015.740657886726
 20
475.6623943684912
 30
0.0
 10
1015.854690547316
 20
475.606411566842
 30
0.0
 10
1016.481697925788
 20
475.2987645399323
 30
0.0
 10
1018.437134123705
 20
474.3534303385435
 30
0.0
 10
1018.516715829434
 20
474.3143285047761
 30
0.0
 10
1018.676568259989
 20
474.2359525824671
 30
0.0
 10
1018.898776918844
 20
474.1410402018248
 30
0.0
 10
1018.809204436204
 20
473.9586223958351
 30
0.0
 10
1018.792323468323
 20
473.9245159505226
 30
0.0
 10
1018.546343650615
 20
473.3943157552101
 30
0.0
 10
1018.411984926655
 20
473.1491972113732
 30
0.0
 10
1018.327924596795
 20
472.9781482204879
 30
0.0
 10
1018.14567904558
 20
473.0392986653662
 30
0.0
 10
1018.031646384988
 20
473.0951092122412
 30
0.0
 10
1017.678179588114
 20
473.2685697699669
 30
0.0
 10
1015.751337682732
 20
474.2140762261302
 30
0.0
 10
1015.249731779955
 20
474.4602282986129
 30
0.0
 10
1015.101592674052
 20
474.5329198133696
 30
0.0
 10
1014.999962357212
 20
474.4697023111996
 30
0.0
 10
1014.899021059469
 20
474.2929689127621
 30
0.0
 10
1014.563124249573
 20
473.6087729492203
 30
0.0
 10
1013.49480013933
 20
471.4027060546889
 30
0.0
 10
1013.45001389801
 20
471.3115832790816
 30
0.0
 10
1013.086211814677
 20
470.5987930230052
 30
0.0
 10
1012.879161575962
 20
470.2053631184914
 30
0.0
 10
1013.289472448356
 20
470.003997287328
 30
0.0
 10
1014.064963442281
 20
469.6234864908872
 30
0.0
 10
1015.512937075093
 20
468.9131078016512
 30
0.0
 10
1016.402116220059
 20
468.4766142035607
 30
0.0
 10
1016.527517695753
 20
468.4151192491338
 30
0.0
 10
1016.630181541239
 20
468.3648208550364
 30
0.0
 10
1016.546121211378
 20
468.193771864151
 30
0.0
 10
1016.456893238288
 20
468.0113540581616
 30
0.0
 10
1016.210568911031
 20
467.5097481553838
 30
0.0
 10
1016.165782669712
 20
467.4184531250013
 30
0.0
 10
1016.065185881517
 20
467.2132976888039
 30
0.0
 10
1015.962866545579
 20
467.2351740451403
 30
0.0
 10
1015.780276484816
 20
467.3247465277793
 30
0.0
 10
1015.381334427523
 20
467.5204279513906
 30
0.0
 10
1012.245953025614
 20
469.0590075954879
 30
0.0
 10
1011.413617956169
 20
469.4674236653662
 30
0.0
 10
1010.649495777351
 20
469.8422500542553
 30
0.0
 10
1010.257443911031
 20
470.6571873914946
 30
0.0
 10
1010.699449661899
 20
471.5579076063384
 30
0.0
 10
1010.917524206168
 20
472.0026694335953
 30
0.0
 10
1014.867326180997
 20
480.0519627821199
 30
0.0
 10
1015.03510233117
 20
480.3940607638907
 30
0.0
 10
1015.242152569885
 20
480.8159127061649
 30
0.0
 10
1015.89086404992
 20
481.4170818684912
 30
0.0
 10
1017.008108516064
 20
480.8687949218765
 30
0.0
 10
1017.988582691413
 20
480.3876873372413
 30
0.0
 10
1020.291629023878
 20
479.257696017797
 30
0.0
 10
1021.237996753913
 20
478.7932971462691
 30
0.0
  0
SPLINE
  5
46D1
330
18
100
AcDbEntity
  8
10
  6
Continuous
 62
     7
370
    30
100
AcDbSpline
210
0.0
220
0.0
230
1.0
 70
    11
 71
     3
 72
    50
 73
    46
 74
     0
 42
0.0000000001
 43
0.0000000001
 40
0.0
 40
0.0
 40
0.0
 40
0.0
 40
1.0
 40
1.0
 40
1.0
 40
2.0
 40
2.0
 40
2.0
 40
3.0
 40
3.0
 40
3.0
 40
4.0
 40
4.0
 40
4.0
 40
5.0
 40
5.0
 40
5.0
 40
6.0
 40
6.0
 40
6.0
 40
7.0
 40
7.0
 40
7.0
 40
8.0
 40
8.0
 40
8.0
 40
9.0
 40
9.0
 40
9.0
 40
10.0
 40
10.0
 40
10.0
 40
11.0
 40
11.0
 40
11.0
 40
12.0
 40
12.0
 40
12.0
 40
13.0
 40
13.0
 40
13.0
 40
14.0
 40
14.0
 40
14.0
 40
15.0
 40
15.0
 40
15.0
 40
15.0
 10
1006.046848207905
 20
483.2028471137171
 30
0.0
 10
1006.212901810336
 20
482.4860949978316
 30
0.0
 10
1007.778008689677
 20
476.3570978732656
 30
0.0
 10
1007.978857756517
 20
476.3279868164079
 30
0.0
 10
1008.154902135858
 20
476.3024931098107
 30
0.0
 10
1011.833919605476
 20
482.1355565321198
 30
0.0
 10
1011.924181107212
 20
482.3150460069463
 30
0.0
 10
1012.006863398878
 20
482.4442370876753
 30
0.0
 10
1012.120207040368
 20
482.6073623589429
 30
0.0
 10
1012.281782018668
 20
482.5711888563386
 30
0.0
 10
1012.520527135855
 20
482.5367379014775
 30
0.0
 10
1013.075532018669
 20
482.4693862847238
 30
0.0
 10
1013.238829544712
 20
482.4457873806442
 30
0.0
 10
1013.377322383253
 20
482.4258058268246
 30
0.0
 10
1013.301530282559
 20
482.2569961480052
 30
0.0
 10
1013.231250334642
 20
482.126082519533
 30
0.0
 10
1013.040392044712
 20
481.7815729709217
 30
0.0
 10
1009.207034297316
 20
476.0349814453141
 30
0.0
 10
1009.17602843794
 20
475.8213855251754
 30
0.0
 10
1009.143300030822
 20
475.5950427517379
 30
0.0
 10
1008.509402461378
 20
471.118485677085
 30
0.0
 10
1008.440500551656
 20
470.7307401801232
 30
0.0
 10
1008.395025291239
 20
470.5062922092031
 30
0.0
 10
1008.342659839851
 20
470.3212905815989
 30
0.0
 10
1008.091512378912
 20
470.3576363389775
 30
0.0
 10
1007.865169605476
 20
470.3903647460951
 30
0.0
 10
1006.934993824226
 20
470.5248957248281
 30
0.0
 10
1006.11781717492
 20
470.6428902452271
 30
0.0
 10
1005.954519648878
 20
470.6664891493073
 30
0.0
 10
1005.796734275614
 20
470.7278118489601
 30
0.0
 10
1005.845654631517
 20
471.067153754342
 30
0.0
 10
1005.912833993495
 20
471.6221586371545
 30
0.0
 10
1006.505045907559
 20
475.630010470922
 30
0.0
 10
1006.57429232683
 20
476.1076729600711
 30
0.0
 10
1006.155024206168
 20
477.9132475043418
 30
0.0
 10
1004.699471363288
 20
483.0255969509566
 30
0.0
 10
1004.601630651482
 20
483.5017091471371
 30
0.0
 10
1004.566146167975
 20
483.6992853732655
 30
0.0
 10
1004.790421884121
 20
483.6539823676232
 30
0.0
 10
1004.689825095927
 20
483.6684517686648
 30
0.0
 10
1004.966466263462
 20
483.6284886610259
 30
0.0
 10
1005.381255759989
 20
483.5685439995677
 30
0.0
 10
1005.833596797316
 20
483.5032594401059
 30
0.0
 10
1005.972089635857
 20
483.4832778862865
 30
0.0
 10
1005.981046884121
 20
483.4562338867207
 30
0.0
 10
1006.046848207905
 20
483.2028471137171
 30
0.0
  0
SPLINE
  5
46D2
330
18
100
AcDbEntity
  8
10
  6
Continuous
 62
     7
370
    30
100
AcDbSpline
210
0.0
220
0.0
230
1.0
 70
    11
 71
     3
 72
    71
 73
    67
 74
     0
 42
0.0000000001
 43
0.0000000001
 40
0.0
 40
0.0
 40
0.0
 40
0.0
 40
1.0
 40
1.0
 40
1.0
 40
2.0
 40
2.0
 40
2.0
 40
3.0
 40
3.0
 40
3.0
 40
4.0
 40
4.0
 40
4.0
 40
5.0
 40
5.0
 40
5.0
 40
6.0
 40
6.0
 40
6.0
 40
7.0
 40
7.0
 40
7.0
 40
8.0
 40
8.0
 40
8.0
 40
9.0
 40
9.0
 40
9.0
 40
10.0
 40
10.0
 40
10.0
 40
11.0
 40
11.0
 40
11.0
 40
12.0
 40
12.0
 40
12.0
 40
13.0
 40
13.0
 40
13.0
 40
14.0
 40
14.0
 40
14.0
 40
15.0
 40
15.0
 40
15.0
 40
16.0
 40
16.0
 40
16.0
 40
17.0
 40
17.0
 40
17.0
 40
18.0
 40
18.0
 40
18.0
 40
19.0
 40
19.0
 40
19.0
 40
20.0
 40
20.0
 40
20.0
 40
21.0
 40
21.0
 40
21.0
 40
22.0
 40
22.0
 40
22.0
 40
22.0
 10
1024.533919605475
 20
473.6842205403664
 30
0.0
 10
1024.533919605475
 20
473.6842205403664
 30
0.0
 10
1023.804937400613
 20
474.4976075846372
 30
0.0
 10
1023.804937400613
 20
474.4976075846372
 30
0.0
 10
1023.804937400613
 20
474.4976075846372
 30
0.0
 10
1021.478464418841
 20
472.4124635416684
 30
0.0
 10
1021.478464418841
 20
472.4124635416684
 30
0.0
 10
1021.478464418841
 20
472.4124635416684
 30
0.0
 10
1021.842611011726
 20
472.005770019533
 30
0.0
 10
1021.842611011726
 20
472.005770019533
 30
0.0
 10
1021.842611011726
 20
472.005770019533
 30
0.0
 10
1022.750738181865
 20
472.8195015733525
 30
0.0
 10
1022.750738181865
 20
472.8195015733525
 30
0.0
 10
1022.750738181865
 20
472.8195015733525
 30
0.0
 10
1023.047360903219
 20
472.4884278971371
 30
0.0
 10
1023.047360903219
 20
472.4884278971371
 30
0.0
 10
1023.242353307731
 20
472.2710423719635
 30
0.0
 10
1023.359142044712
 20
472.1027494574671
 30
0.0
 10
1023.387047318149
 20
471.9571941731786
 30
0.0
 10
1023.42907748308
 20
471.739119628908
 30
0.0
 10
1023.326758147142
 20
471.5108820529532
 30
0.0
 10
1023.052528546448
 20
471.2650744900192
 30
0.0
 10
1023.052528546448
 20
471.2650744900192
 30
0.0
 10
1022.872694562073
 20
471.1040162760435
 30
0.0
 10
1022.872694562073
 20
471.1040162760435
 30
0.0
 10
1022.872694562073
 20
471.1040162760435
 30
0.0
 10
1022.805515200092
 20
471.0266738823802
 30
0.0
 10
1022.805515200092
 20
471.0266738823802
 30
0.0
 10
1022.79621344228
 20
471.018233398439
 30
0.0
 10
1022.78656717492
 20
471.0097929144982
 30
0.0
 10
1022.777265417107
 20
471.0013524305574
 30
0.0
 10
1022.776231888462
 20
470.9834379340294
 30
0.0
 10
1022.776231888462
 20
470.9834379340294
 30
0.0
 10
1022.7665856211
 20
470.9748251953143
 30
0.0
 10
1022.7665856211
 20
470.9748251953143
 30
0.0
 10
1023.114195755649
 20
470.5870796983522
 30
0.0
 10
1023.114195755649
 20
470.5870796983522
 30
0.0
 10
1023.114195755649
 20
470.5870796983522
 30
0.0
 10
1023.125564570753
 20
470.6315214301231
 30
0.0
 10
1023.125564570753
 20
470.6315214301231
 30
0.0
 10
1023.136244366759
 20
470.6578764105919
 30
0.0
 10
1023.165527678391
 20
470.7012846137171
 30
0.0
 10
1023.231673511725
 20
470.7605402560781
 30
0.0
 10
1023.279904848531
 20
470.8210016818592
 30
0.0
 10
1023.336748924051
 20
470.8718168402795
 30
0.0
 10
1023.393248490024
 20
470.9226319986997
 30
0.0
 10
1023.393248490024
 20
470.9226319986997
 30
0.0
 10
1023.563780716587
 20
471.0752497287344
 30
0.0
 10
1023.563780716587
 20
471.0752497287344
 30
0.0
 10
1023.67712435808
 20
471.1768800455746
 30
0.0
 10
1023.766007821622
 20
471.3250191514775
 30
0.0
 10
1023.812861120233
 20
471.5201838107656
 30
0.0
 10
1023.859369909295
 20
471.715520724828
 30
0.0
 10
1023.816650725267
 20
471.9158530273456
 30
0.0
 10
1023.675401810337
 20
472.130310221356
 30
0.0
 10
1023.829742088114
 20
471.9959514973976
 30
0.0
 10
1023.970301983948
 20
471.9342842881963
 30
0.0
 10
1024.093980911899
 20
471.8915651041684
 30
0.0
 10
1024.324113290369
 20
471.8250747612865
 30
0.0
 10
1024.561135859815
 20
471.8839858940988
 30
0.0
 10
1024.769219627176
 20
472.0705378146718
 30
0.0
 10
1025.062397253045
 20
472.3332263454879
 30
0.0
 10
1025.142323468323
 20
472.6436294487863
 30
0.0
 10
1025.034491979605
 20
472.9733250868073
 30
0.0
 10
1024.963178503045
 20
473.1481636827273
 30
0.0
 10
1024.796435881517
 20
473.3910429144983
 30
0.0
 10
1024.533919605475
 20
473.6842205403664
 30
0.0
  0
SPLINE
  5
46D3
330
18
100
AcDbEntity
  8
10
  6
Continuous
 62
     7
370
    30
100
AcDbSpline
210
0.0
220
0.0
230
1.0
 70
    11
 71
     3
 72
    29
 73
    25
 74
     0
 42
0.0000000001
 43
0.0000000001
 40
0.0
 40
0.0
 40
0.0
 40
0.0
 40
1.0
 40
1.0
 40
1.0
 40
2.0
 40
2.0
 40
2.0
 40
3.0
 40
3.0
 40
3.0
 40
4.0
 40
4.0
 40
4.0
 40
5.0
 40
5.0
 40
5.0
 40
6.0
 40
6.0
 40
6.0
 40
7.0
 40
7.0
 40
7.0
 40
8.0
 40
8.0
 40
8.0
 40
8.0
 10
1023.247520950962
 20
469.7344185655397
 30
0.0
 10
1024.03644781728
 20
469.6913548719633
 30
0.0
 10
1024.724088876308
 20
469.9325115559913
 30
0.0
 10
1025.320090395406
 20
470.4665013563383
 30
0.0
 10
1025.906445647142
 20
470.9920506727448
 30
0.0
 10
1026.221327374573
 20
471.6493748914948
 30
0.0
 10
1026.255089310337
 20
472.4298612738733
 30
0.0
 10
1026.298153003913
 20
473.2189603949668
 30
0.0
 10
1026.056996319885
 20
473.9067737087691
 30
0.0
 10
1025.531274748705
 20
474.4931289605053
 30
0.0
 10
1024.997284948357
 20
475.0889582248281
 30
0.0
 10
1024.339960729607
 20
475.4036676974843
 30
0.0
 10
1023.559646602003
 20
475.4374296332482
 30
0.0
 10
1022.770375226135
 20
475.4804933268246
 30
0.0
 10
1022.092035924919
 20
475.2479493815122
 30
0.0
 10
1021.505680673184
 20
474.7224000651057
 30
0.0
 10
1020.910023663635
 20
474.1884102647587
 30
0.0
 10
1020.595141936204
 20
473.5310860460088
 30
0.0
 10
1020.543465503913
 20
472.7514609375017
 30
0.0
 10
1020.500401810336
 20
471.9623618164081
 30
0.0
 10
1020.741558494363
 20
471.274548502606
 30
0.0
 10
1021.275548294712
 20
470.6787192382828
 30
0.0
 10
1021.800925356344
 20
470.0923639865467
 30
0.0
 10
1022.458249575094
 20
469.7776545138905
 30
0.0
 10
1023.247520950962
 20
469.7344185655397
 30
0.0
  0
SPLINE
  5
46D4
330
18
100
AcDbEntity
  8
10
  6
Continuous
 62
     7
370
    30
100
AcDbSpline
210
0.0
220
0.0
230
1.0
 70
    11
 71
     3
 72
    29
 73
    25
 74
     0
 42
0.0000000001
 43
0.0000000001
 40
0.0
 40
0.0
 40
0.0
 40
0.0
 40
1.0
 40
1.0
 40
1.0
 40
2.0
 40
2.0
 40
2.0
 40
3.0
 40
3.0
 40
3.0
 40
4.0
 40
4.0
 40
4.0
 40
5.0
 40
5.0
 40
5.0
 40
6.0
 40
6.0
 40
6.0
 40
7.0
 40
7.0
 40
7.0
 40
8.0
 40
8.0
 40
8.0
 40
8.0
 10
1023.529329761726
 20
475.052267957901
 30
0.0
 10
1024.210769648878
 20
475.015060926651
 30
0.0
 10
1024.780588442281
 20
474.741003580731
 30
0.0
 10
1025.22982889367
 20
474.2397421875018
 30
0.0
 10
1025.687337574225
 20
473.7290067816856
 30
0.0
 10
1025.889220169712
 20
473.1424792751753
 30
0.0
 10
1025.852013138462
 20
472.4608671332481
 30
0.0
 10
1025.814461597663
 20
471.7794272460955
 30
0.0
 10
1025.550222773878
 20
471.2183934461823
 30
0.0
 10
1025.048961380649
 20
470.7691529947934
 30
0.0
 10
1024.538053720059
 20
470.3112998046893
 30
0.0
 10
1023.942052200962
 20
470.1011489800364
 30
0.0
 10
1023.260612313809
 20
470.1385282660607
 30
0.0
 10
1022.587440655823
 20
470.166261284724
 30
0.0
 10
1022.017966371967
 20
470.4403186306441
 30
0.0
 10
1021.560113181864
 20
470.9510540364599
 30
0.0
 10
1021.110872730476
 20
471.4523154296893
 30
0.0
 10
1020.900721905823
 20
472.0483169487864
 30
0.0
 10
1020.937928937073
 20
472.729756835939
 30
0.0
 10
1020.983748707038
 20
473.4018949652793
 30
0.0
 10
1021.257978307732
 20
473.9713692491338
 30
0.0
 10
1021.768541458774
 20
474.4292224392379
 30
0.0
 10
1022.269802852002
 20
474.8784628906268
 30
0.0
 10
1022.856502613288
 20
475.0801732313385
 30
0.0
 10
1023.529329761726
 20
475.052267957901
 30
0.0
  0
LINE
  5
46D5
330
18
100
AcDbEntity
  8
3
 62
     7
370
    20
100
AcDbLine
 10
1129.362793718799
 20
347.4826788412173
 30
0.0
 11
1169.362793718798
 21
347.4826788412173
 31
0.0
  0
MTEXT
  5
46D6
330
18
100
AcDbEntity
  8
3
 62
     7
370
    20
100
AcDbMText
 10
1138.623377245477
 20
345.1451037032772
 30
0.0
 40
3.0
 41
8.030624239295669
 71
     1
 72
     5
  1
1/1
 73
     1
 44
1.0
  0
LINE
  5
46D7
330
18
100
AcDbEntity
  8
3
 62
     7
370
    20
100
AcDbLine
 10
1129.362793718799
 20
371.4826788412175
 30
0.0
 11
1229.362793718799
 21
371.4826788412175
 31
0.0
  0
LINE
  5
46D8
330
18
100
AcDbEntity
  8
3
 62
     7
370
    20
100
AcDbLine
 10
1129.362793718799
 20
355.4826788412173
 30
0.0
 11
1229.362793718799
 21
355.4826788412173
 31
0.0
  0
LINE
  5
46D9
330
18
100
AcDbEntity
  8
3
 62
     7
370
    20
100
AcDbLine
 10
1129.362793718799
 20
339.4826788412173
 30
0.0
 11
1229.362793718799
 21
339.4826788412173
 31
0.0
  0
DIMENSION
  5
46DA
330
18
100
AcDbEntity
  8
3
  6
Continuous
 62
     7
370
    20
100
AcDbDimension
  2
*D6
 10
1135.865658913435
 20
388.7158625567817
 30
0.0
 11
1125.365658913435
 21
390.7158625567817
 31
0.0
 70
    32
 71
     5
 42
20.99999999999909
  3
STD01$0
100
AcDbAlignedDimension
 13
1114.865658913436
 23
450.6590971137168
 33
0.0
 14
1135.865658913435
 24
400.6590971137168
 34
0.0
100
AcDbRotatedDimension
  0
LINE
  5
46DB
330
18
100
AcDbEntity
  8
10
  6
Continuous
 62
     7
370
    30
100
AcDbLine
 10
1132.865658913436
 20
450.6590971137168
 30
0.0
 11
1132.865658913436
 21
400.7638594221923
 31
0.0
  0
LINE
  5
46DC
330
18
100
AcDbEntity
  8
10
  6
Continuous
 62
     7
370
    30
100
AcDbLine
 10
1132.865658913436
 20
400.7638594221923
 30
0.0
 11
1119.428946349313
 21
407.0295013912705
 31
0.0
  0
LINE
  5
46DD
330
18
100
AcDbEntity
  8
3
 62
     7
370
    20
100
AcDbLine
 10
1134.362793718799
 20
371.4826788412175
 30
0.0
 11
1134.362793718799
 21
339.4826788412173
 31
0.0
  0
LINE
  5
46DE
330
18
100
AcDbEntity
  8
3
 62
     7
370
    20
100
AcDbLine
 10
1129.362793718799
 20
371.4826788412175
 30
0.0
 11
1129.362793718799
 21
339.4826788412173
 31
0.0
  0
MTEXT
  5
46DF
330
18
100
AcDbEntity
  8
3
 62
     7
370
    20
100
AcDbMText
 10
1130.153432553613
 20
369.8307085840387
 30
0.0
 40
2.799999999999998
 41
4.0944
 71
     1
 72
     5
  1
部品図
 73
     1
 44
1.0
  0
MTEXT
  5
46E0
330
18
100
AcDbEntity
  8
3
 62
     7
370
    20
100
AcDbMText
 10
1130.275626989104
 20
355.5074257314413
 30
0.0
 40
2.799999999999998
 41
3.9807
 71
     1
 72
     5
  1
材料
 73
     1
 44
1.0
  0
MTEXT
  5
46E1
330
18
100
AcDbEntity
  8
3
 62
     7
370
    20
100
AcDbMText
 10
1130.275626989104
 20
347.096452604299
 30
0.0
 40
2.799999999999998
 41
3.9807
 71
     1
 72
     5
  1
尺度
 73
     1
 44
1.0
  0
DIMENSION
  5
46E2
330
18
100
AcDbEntity
  8
3
  6
Continuous
 62
     7
370
    20
100
AcDbDimension
  2
*D7
 10
1132.865658913436
 20
394.0275701763011
 30
0.0
 11
1125.365658913435
 21
396.0275701763011
 31
0.0
 70
    32
 71
     5
 42
2.999999999999086
  3
STD01$0
100
AcDbAlignedDimension
 13
1135.865658913435
 23
400.6590971137168
 33
0.0
 14
1132.865658913436
 24
400.7638594221923
 34
0.0
100
AcDbRotatedDimension
  0
LINE
  5
46E3
330
18
100
AcDbEntity
  8
10
  6
Continuous
 62
     7
370
    30
100
AcDbLine
 10
1135.865658913435
 20
400.6590971137168
 30
0.0
 11
1132.865658913436
 21
400.7638594221923
 31
0.0
  0
ARC
  5
46E4
330
18
100
AcDbEntity
  8
10
  6
Continuous
 62
     7
370
    30
100
AcDbCircle
 10
1120.696801134535
 20
409.7484247523802
 30
0.0
 40
3.0
100
AcDbArc
 50
187.9174593950764
 51
245.0000000000001
  0
LINE
  5
46E5
330
18
100
AcDbEntity
  8
10
 62
     7
370
    30
100
AcDbLine
 10
1111.865658913435
 20
450.6590971137168
 30
0.0
 11
1138.865658913436
 21
450.6590971137168
 31
0.0
  0
LINE
  5
46E6
330
18
100
AcDbEntity
  8
11
  6
DASHED
 62
     7
370
    30
100
AcDbLine
 10
1123.017953013946
 20
485.5478495696966
 30
0.0
 11
1135.765658913436
 21
485.6590971137168
 31
0.0
  0
LINE
  5
46E7
330
18
100
AcDbEntity
  8
11
  6
DASHED
 62
     7
370
    30
100
AcDbLine
 10
1123.588685125328
 20
488.7653639540571
 30
0.0
 11
1135.765658913436
 21
488.6590971137168
 31
0.0
  0
LINE
  5
46E8
330
18
100
AcDbEntity
  8
11
  6
DASHED
 62
     7
370
    30
100
AcDbLine
 10
1120.508325048625
 20
488.6590971137168
 30
0.0
 11
1120.86123292634
 21
488.6590971137168
 31
0.0
  0
ARC
  5
46E9
330
18
100
AcDbEntity
  8
11
  6
DASHED
 62
     7
370
    30
100
AcDbCircle
 10
1123.026679549445
 20
484.5478876466327
 30
0.0
 40
1.0
100
AcDbArc
 50
90.49999999999805
 51
173.3763911576036
  0
ARC
  5
46EA
330
18
100
AcDbEntity
  8
11
  6
DASHED
 62
     7
370
    30
100
AcDbCircle
 10
1123.597411660827
 20
489.7653258771212
 30
0.0
 40
1.000000000000017
100
AcDbArc
 50
195.7215716170603
 51
269.5000000000019
  0
LINE
  5
46EB
330
18
100
AcDbEntity
  8
11
  6
DASHED
 62
     7
370
    30
100
AcDbLine
 10
1121.799698245399
 20
472.5372180213962
 30
0.0
 11
1135.765658913436
 21
472.6590971137168
 31
0.0
  0
LINE
  5
46EC
330
18
100
AcDbEntity
  8
11
  6
DASHED
 62
     7
370
    30
100
AcDbLine
 10
1122.22015904528
 20
475.7773069002261
 30
0.0
 11
1135.765658913436
 21
475.6590971137168
 31
0.0
  0
ARC
  5
46ED
330
18
100
AcDbEntity
  8
11
  6
DASHED
 62
     7
370
    30
100
AcDbCircle
 10
1121.808424780897
 20
471.5372560983318
 30
0.0
 40
1.0
100
AcDbArc
 50
90.49999999999807
 51
175.9249847127549
  0
ARC
  5
46EE
330
18
100
AcDbEntity
  8
11
  6
DASHED
 62
     7
370
    30
100
AcDbCircle
 10
1122.228885580778
 20
476.7772688232903
 30
0.0
 40
1.0
100
AcDbArc
 50
174.8997988653865
 51
269.5000000000019
  0
LINE
  5
46EF
330
18
100
AcDbEntity
  8
11
  6
DASHED
 62
     7
370
    30
100
AcDbLine
 10
1121.190944228916
 20
460.5319055055772
 30
0.0
 11
1135.765658913436
 21
460.6590971137168
 31
0.0
  0
LINE
  5
46F0
330
18
100
AcDbEntity
  8
11
  6
DASHED
 62
     7
370
    30
100
AcDbLine
 10
1121.396689311221
 20
463.784493211725
 30
0.0
 11
1135.765658913436
 21
463.6590971137168
 31
0.0
  0
ARC
  5
46F1
330
18
100
AcDbEntity
  8
11
  6
DASHED
 62
     7
370
    30
100
AcDbCircle
 10
1121.199670764414
 20
459.5319435825131
 30
0.0
 40
1.0
100
AcDbArc
 50
90.49999999999805
 51
178.2693874580989
  0
ARC
  5
46F2
330
18
100
AcDbEntity
  8
11
  6
DASHED
 62
     7
370
    30
100
AcDbCircle
 10
1121.405415846719
 20
464.7844551347891
 30
0.0
 40
1.0
100
AcDbArc
 50
177.2442630484529
 51
269.5000000000019
  0
ARC
  5
46F3
330
18
100
AcDbEntity
  8
11
  6
DASHED
 62
     7
370
    30
100
AcDbCircle
 10
1109.215658913436
 20
450.6590971137168
 30
0.0
 40
12.0
100
AcDbArc
 50
0.0
 51
20.63237688981183
  0
ARC
  5
46F4
330
18
100
AcDbEntity
  8
11
  6
DASHED
 62
     7
370
    30
100
AcDbCircle
 10
1109.215658913436
 20
450.6590971137168
 30
0.0
 40
10.0
100
AcDbArc
 50
0.0
 51
22.70419920815403
  0
ARC
  5
46F5
330
18
100
AcDbEntity
  8
11
  6
DASHED
 62
     7
370
    30
100
AcDbCircle
 10
1414.865658913436
 20
450.6590971137168
 30
0.0
 40
296.45
100
AcDbArc
 50
172.6353634078596
 51
180.0
  0
ARC
  5
46F6
330
18
100
AcDbEntity
  8
11
  6
DASHED
 62
     7
370
    30
100
AcDbCircle
 10
1414.865658913436
 20
450.6590971137168
 30
0.0
 40
294.8
100
AcDbArc
 50
172.4301787404885
 51
180.0
  0
MTEXT
  5
46F7
102
{ACAD_XDICTIONARY
360
46F8
102
}
330
18
100
AcDbEntity
  8
3
 62
     7
370
    20
100
AcDbMText
 10
1174.642331847324
 20
418.6575000437533
 30
0.0
 40
3.0
 41
55.5006
 71
     1
 72
     5
  1
註）　１　ＰＣ（蛍光）\P　　　２　ＰＣ（白）\P　　　 \P　　　　一般公差　±1.0\P　　　　表面アラサ　\U+25BD\U+25BD\U+25BD
 73
     1
 44
1.5
  0
LINE
  5
46FA
330
18
100
AcDbEntity
  8
3
  6
Continuous
 62
     7
370
    20
100
AcDbLine
 10
1187.06596270329
 20
384.9817381767276
 30
0.0
 11
1222.18484547072
 21
384.9817381767276
 31
0.0
  0
LINE
  5
46FB
330
18
100
AcDbEntity
  8
3
  6
Continuous
 62
     7
370
    20
100
AcDbLine
 10
1187.06596270329
 20
392.4817381767276
 30
0.0
 11
1227.644053789272
 21
392.4817381767276
 31
0.0
  0
MTEXT
  5
46FE
330
18
100
AcDbEntity
  8
3
 62
     7
370
    20
100
AcDbMText
 10
1197.346321343925
 20
365.7382293953608
 30
0.0
 40
4.0
 41
21.0785
 71
     1
 72
     5
  1
Ｒ－２
 73
     1
 44
1.0
  0
LINE
  5
4701
330
18
100
AcDbEntity
  8
3
 62
     7
370
    20
100
AcDbLine
 10
1179.362793718799
 20
371.4826788412175
 30
0.0
 11
1179.362793718799
 21
339.4826788412173
 31
0.0
  0
LINE
  5
4702
330
18
100
AcDbEntity
  8
3
 62
     7
370
    20
100
AcDbLine
 10
1184.362793718799
 20
371.4826788412175
 30
0.0
 11
1184.362793718799
 21
339.4826788412173
 31
0.0
  0
MTEXT
  5
4703
330
18
100
AcDbEntity
  8
3
 62
     7
370
    20
100
AcDbMText
 10
1179.888126728523
 20
369.5400382964731
 30
0.0
 40
2.799999999999998
 41
4.0944
 71
     1
 72
     5
  1
図　　番
 73
     1
 44
1.0
  0
MTEXT
  5
4704
330
18
100
AcDbEntity
  8
3
 62
     7
370
    20
100
AcDbMText
 10
1170.523473342316
 20
354.8412347160282
 30
0.0
 40
2.799999999999998
 41
9.237
 71
     1
 72
     5
  1
部番
 73
     1
 44
1.0
  0
LINE
  5
4705
330
18
100
AcDbEntity
  8
3
 62
     7
370
    20
100
AcDbLine
 10
1169.362793718798
 20
351.4826788412173
 30
0.0
 11
1179.362793718799
 21
351.4826788412173
 31
0.0
  0
MTEXT
  5
4706
330
18
100
AcDbEntity
  8
3
 62
     7
370
    20
100
AcDbMText
 10
1150.103286937957
 20
355.5074257314413
 30
0.0
 40
2.799999999999998
 41
3.9807
 71
     1
 72
     5
  1
個数
 73
     1
 44
1.0
  0
MTEXT
  5
4707
330
18
100
AcDbEntity
  8
3
 62
     7
370
    20
100
AcDbMText
 10
1150.103286937957
 20
347.096452604299
 30
0.0
 40
2.799999999999998
 41
3.9807
 71
     1
 72
     5
  1
単位
 73
     1
 44
1.0
  0
MTEXT
  5
4708
330
18
100
AcDbEntity
  8
3
 62
     7
370
    20
100
AcDbMText
 10
1158.091556217015
 20
345.1451037032772
 30
0.0
 40
3.0
 41
8.030599999999997
 71
     1
 72
     5
  1
m/m
 73
     1
 44
1.0
  0
LINE
  5
4709
330
18
100
AcDbEntity
  8
3
 62
     7
370
    20
100
AcDbLine
 10
1154.362793718799
 20
355.4826788412173
 30
0.0
 11
1154.362793718799
 21
339.4826788412173
 31
0.0
  0
LINE
  5
470A
330
18
100
AcDbEntity
  8
3
 62
     7
370
    20
100
AcDbLine
 10
1149.362793718798
 20
355.4826788412173
 30
0.0
 11
1149.362793718798
 21
339.4826788412173
 31
0.0
  0
LINE
  5
470B
330
18
100
AcDbEntity
  8
3
 62
     7
370
    20
100
AcDbLine
 10
1169.362793718798
 20
355.4826788412173
 30
0.0
 11
1169.362793718798
 21
339.4826788412173
 31
0.0
  0
MTEXT
  5
470D
330
18
100
AcDbEntity
  8
3
 62
     7
370
    20
100
AcDbMText
 10
1180.033549379144
 20
353.553161919088
 30
0.0
 40
2.799999999999998
 41
4.0944
 71
     1
 72
     5
  1
品　　名
 73
     1
 44
1.0
  0
MTEXT
  5
470E
330
18
100
AcDbEntity
  8
3
 62
     7
370
    20
100
AcDbMText
 10
1173.057718655136
 20
346.9691423263704
 30
0.0
 40
3.0
 41
6.3272
 71
     1
 72
     5
  1
/
 73
     1
 44
1.0
  0
MTEXT
  5
4715
330
18
100
AcDbEntity
  8
3
 62
     7
370
    20
100
AcDbMText
 10
1143.906690115259
 20
365.2716311891446
 30
0.0
 40
4.0
 41
23.8204688167958
 71
     1
 72
     5
  1
セーフアイ
 73
     1
 44
1.0
  0
LINE
  5
4717
330
18
100
AcDbEntity
  8
3
 62
     7
370
    20
100
AcDbLine
 10
1229.362793718799
 20
371.4826788412175
 30
0.0
 11
1229.362793718799
 21
339.4826788412173
 31
0.0
  0
LINE
  5
4721
330
18
100
AcDbEntity
  8
3
  6
Continuous
 62
     7
370
    20
100
AcDbLine
 10
1174.47073987923
 20
414.9817381767276
 30
0.0
 11
1227.644053789272
 21
414.9817381767276
 31
0.0
  0
LINE
  5
4722
330
18
100
AcDbEntity
  8
3
  6
Continuous
 62
     7
370
    20
100
AcDbLine
 10
1174.47073987923
 20
407.4817381767275
 30
0.0
 11
1227.644053789272
 21
407.4817381767275
 31
0.0
  0
CIRCLE
  5
4723
330
18
100
AcDbEntity
  8
3
 62
     7
370
    20
100
AcDbCircle
 10
1186.863687790854
 20
417.0459055219486
 30
0.0
 40
2.0
  0
CIRCLE
  5
4724
330
18
100
AcDbEntity
  8
3
 62
     7
370
    20
100
AcDbCircle
 10
1186.863687790854
 20
409.5459055219487
 30
0.0
 40
2.0
  0
LINE
  5
4725
330
18
100
AcDbEntity
  8
3
  6
Continuous
 62
     7
370
    20
100
AcDbLine
 10
1126.302152812572
 20
487.0747236190691
 30
0.0
 11
1114.108106720048
 21
514.4980718044588
 31
0.0
  0
MTEXT
  5
4726
330
18
100
AcDbEntity
  8
3
  6
Continuous
 62
     7
370
    20
100
AcDbMText
 10
1113.446893632092
 20
518.8593161104331
 30
0.0
 40
3.0
 41
5.0415
 71
     1
 72
     5
  1
2
 73
     1
 44
1.0
  0
CIRCLE
  5
4727
330
18
100
AcDbEntity
  8
3
  6
Continuous
 62
     7
370
    20
100
AcDbCircle
 10
1114.108106720048
 20
517.3150205842191
 30
0.0
 40
2.816948779760171
  0
MTEXT
  5
4728
330
18
100
AcDbEntity
  8
3
  6
Continuous
 62
     7
370
    20
100
AcDbMText
 10
1103.156217133187
 20
518.3043940896196
 30
0.0
 40
3.0
 41
5.0415
 71
     1
 72
     5
  1
1
 73
     1
 44
1.0
  0
CIRCLE
  5
4729
330
18
100
AcDbEntity
  8
3
  6
Continuous
 62
     7
370
    20
100
AcDbCircle
 10
1103.817430221144
 20
516.7600985634067
 30
0.0
 40
2.816948779760171
  0
LINE
  5
472D
330
18
100
AcDbEntity
  8
10
  6
CENTER
 62
     7
370
    30
100
AcDbLine
 10
1134.665658913434
 20
498.3090971137171
 30
0.0
 11
1133.315658913436
 21
498.3090971137171
 31
0.0
  0
LINE
  5
472E
330
18
100
AcDbEntity
  8
10
  6
Continuous
 62
     7
370
    30
100
AcDbLine
 10
1135.865658913435
 20
499.6590971137169
 30
0.0
 11
1133.865658913435
 21
499.1231987288546
 31
0.0
  0
LINE
  5
472F
330
18
100
AcDbEntity
  8
10
  6
Continuous
 62
     7
370
    30
100
AcDbLine
 10
1135.865658913435
 20
500.6590971137168
 30
0.0
 11
1132.865658913436
 21
500.5543348052417
 31
0.0
  0
LINE
  5
4730
330
18
100
AcDbEntity
  8
11
  6
Continuous
 62
     7
370
    30
100
AcDbLine
 10
1135.765658913436
 20
499.5823021944739
 30
0.0
 11
1134.348621826581
 21
499.2026082514061
 31
0.0
  0
LINE
  5
4731
330
18
100
AcDbEntity
  8
11
  6
Continuous
 62
     7
370
    30
100
AcDbLine
 10
1134.348621826581
 20
499.2026082514061
 30
0.0
 11
1133.865658913435
 21
498.5731987288549
 31
0.0
  0
LINE
  5
4732
330
18
100
AcDbEntity
  8
10
  6
Continuous
 62
     7
370
    30
100
AcDbLine
 10
1134.415658913435
 20
498.3090971137171
 30
0.0
 11
1133.865658913435
 21
498.8590971137173
 31
0.0
  0
LINE
  5
4733
330
18
100
AcDbEntity
  8
10
  6
Continuous
 62
     7
370
    30
100
AcDbLine
 10
1134.415658913435
 20
498.3090971137171
 30
0.0
 11
1133.865658913435
 21
497.7590971137173
 31
0.0
  0
ARC
  5
4734
330
18
100
AcDbEntity
  8
10
  6
Continuous
 62
     7
370
    30
100
AcDbCircle
 10
1120.696801134535
 20
491.5697694750536
 30
0.0
 40
3.0
100
AcDbArc
 50
114.9999999999996
 51
172.0825406049234
  0
LINE
  5
4735
330
18
100
AcDbEntity
  8
10
  6
Continuous
 62
     7
370
    30
100
AcDbLine
 10
1133.865658913435
 20
499.1231987288546
 30
0.0
 11
1133.865658913435
 21
497.7105087065091
 31
0.0
  0
LINE
  5
4736
330
18
100
AcDbEntity
  8
10
  6
Continuous
 62
     7
370
    30
100
AcDbLine
 10
1132.865658913436
 20
500.5543348052417
 30
0.0
 11
1119.428946349313
 21
494.2886928361637
 31
0.0
  0
LINE
  5
4737
330
18
100
AcDbEntity
  8
10
  6
Continuous
 62
     7
370
    30
100
AcDbLine
 10
1133.865658913435
 20
497.7105087065091
 30
0.0
 11
1120.696801134535
 21
491.5697694750535
 31
0.0
  0
LINE
  5
4738
330
18
100
AcDbEntity
  8
11
  6
Continuous
 62
     7
370
    30
100
AcDbLine
 10
1133.865658913435
 20
496.9381441632354
 30
0.0
 11
1120.798766790022
 21
490.8449522978021
 31
0.0
  0
LINE
  5
4739
330
18
100
AcDbEntity
  8
11
  6
DASHED
 62
     7
370
    30
100
AcDbLine
 10
1133.865658913435
 20
496.4967929956507
 30
0.0
 11
1120.734759435751
 21
490.3737540107427
 31
0.0
  0
LINE
  5
473A
330
18
100
AcDbEntity
  8
10
  6
DASHED
 62
     7
370
    30
100
AcDbLine
 10
1133.865658913435
 20
496.6622996834953
 30
0.0
 11
1120.543237360893
 21
490.4499524883747
 31
0.0
  0
MTEXT
  5
4934
330
18
100
AcDbEntity
  8
3
100
AcDbMText
 10
1161.049424495571
 20
337.3371899101068
 30
0.0
 40
4.0
 41
74.69590670254252
 71
     1
 72
     5
  1
製造元  大塚刷毛製造株式会社
 73
     1
 44
1.0
  0
LWPOLYLINE
  5
4B72
330
18
100
AcDbEntity
  8
waku1
 62
     7
100
AcDbPolyline
 90
        3
 70
     0
 43
0.0
 10
947.4089879193876
 20
320.0047593065804
 10
942.4089879193877
 20
320.0047593065804
 10
942.4089879193877
 20
325.0047593065804
  0
LWPOLYLINE
  5
4C88
330
18
100
AcDbEntity
  8
waku1
 62
     7
100
AcDbPolyline
 90
        3
 70
     0
 43
0.0
 10
942.4089879193877
 20
525.0047593065802
 10
942.4089879193877
 20
530.0047593065802
 10
947.4089879193876
 20
530.0047593065802
  0
LWPOLYLINE
  5
4CF6
330
18
100
AcDbEntity
  8
waku1
 62
     7
100
AcDbPolyline
 90
        3
 70
     0
 43
0.0
 10
1239.408987919387
 20
325.0047593065803
 10
1239.408987919387
 20
320.0047593065804
 10
1234.408987919387
 20
320.0047593065804
  0
LWPOLYLINE
  5
4D07
330
18
100
AcDbEntity
  8
waku1
 62
     7
100
AcDbPolyline
 90
        3
 70
     0
 43
0.0
 10
1234.408987919387
 20
530.0047593065802
 10
1239.408987919387
 20
530.0047593065802
 10
1239.408987919387
 20
525.0047593065802
  0
MTEXT
  5
4DA0
330
18
100
AcDbEntity
  8
3
 62
     7
370
    20
100
AcDbMText
 10
1197.346321343925
 20
349.7382293953606
 30
0.0
 40
4.0
 41
21.0785
 71
     1
 72
     5
  1
L－L
 73
     1
 44
1.0
  0
VIEWPORT
  5
44D0
330
44CF
100
AcDbEntity
 67
     1
  8
0
100
AcDbViewport
 10
13.79418001743644
 20
-32.35192285242644
 30
0.0
 40
476.6284617558844
 41
308.3833652058421
 68
     1
 69
     1
 12
13.79418001743644
 22
-32.35192285242644
 13
0.0
 23
0.0
 14
10.0
 24
10.0
 15
10.0
 25
10.0
 16
0.0
 26
0.0
 36
1.0
 17
0.0
 27
0.0
 37
0.0
 42
50.0
 43
0.0
 44
0.0
 45
308.3833652058421
 50
0.0
 51
0.0
 72
   100
 90
    32800
  1

281
     0
 71
     1
 74
     0
110
0.0
120
0.0
130
0.0
111
1.0
121
0.0
131
0.0
112
0.0
122
1.0
132
0.0
 79
     0
146
0.0
  0
TEXT
  5
44D1
330
44CF
100
AcDbEntity
 67
     1
  8
waku
 62
     7
100
AcDbText
 10
-8.400000000000089
 20
-63.0
 30
0.0
 40
3.0
  1
記  号
100
AcDbText
  0
TEXT
  5
44D2
330
44CF
100
AcDbEntity
 67
     1
  8
waku
 62
     7
100
AcDbText
 10
-3.200000000000044
 20
83.0
 30
0.0
 40
3.0
  1
品  名  ・  寸  法
100
AcDbText
  0
VIEWPORT
  5
44D3
330
44CF
100
AcDbEntity
 67
     1
  8
vp
100
AcDbViewport
 10
0.0
 20
4.5
 30
0.0
 40
253.0
 41
185.0
 68
     0
 69
     2
 12
210.0
 22
148.5
 13
0.0
 23
0.0
 14
10.0
 24
10.0
 15
10.0
 25
10.0
 16
0.0
 26
0.0
 36
1.0
 17
0.0
 27
0.0
 37
0.0
 42
50.0
 43
0.0
 44
0.0
 45
309.7583658933543
 50
0.0
 51
0.0
 72
   100
 90
   163872
  1

281
     0
 71
     1
 74
     0
110
0.0
120
0.0
130
0.0
111
1.0
121
0.0
131
0.0
112
0.0
122
1.0
132
0.0
 79
     0
146
0.0
  0
LINE
  5
44D4
330
44CF
100
AcDbEntity
 67
     1
  8
waku
  6
Continuous
 62
     7
100
AcDbLine
 10
-129.4999999999999
 20
87.0
 30
0.0
 11
126.5
 21
87.0
 31
0.0
  0
LINE
  5
44D5
330
44CF
100
AcDbEntity
 67
     1
  8
waku
  6
Continuous
 62
     7
100
AcDbLine
 10
126.5
 20
-88.0
 30
0.0
 11
-129.4999999999999
 21
-88.0
 31
0.0
  0
LINE
  5
44D6
330
44CF
100
AcDbEntity
 67
     1
  8
waku
  6
Continuous
 62
     7
100
AcDbLine
 10
-17.50000000000022
 20
-90.0
 30
0.0
 11
126.5
 21
-90.0
 31
0.0
  0
LINE
  5
44D7
330
44CF
100
AcDbEntity
 67
     1
  8
waku
  6
Continuous
 62
     7
100
AcDbLine
 10
126.5
 20
-98.0
 30
0.0
 11
-17.50000000000022
 21
-98.0
 31
0.0
  0
LINE
  5
44D8
330
44CF
100
AcDbEntity
 67
     1
  8
waku
  6
Continuous
 62
     7
100
AcDbLine
 10
-53.50000000000022
 20
-64.0
 30
0.0
 11
126.5
 21
-64.0
 31
0.0
  0
LINE
  5
44D9
330
44CF
100
AcDbEntity
 67
     1
  8
waku
  6
Continuous
 62
     7
100
AcDbLine
 10
-9.5
 20
-54.0
 30
0.0
 11
126.5
 21
-54.0
 31
0.0
  0
LINE
  5
44DA
330
44CF
100
AcDbEntity
 67
     1
  8
waku
  6
Continuous
 62
     7
100
AcDbLine
 10
-9.5
 20
-59.0
 30
0.0
 11
126.5
 21
-59.0
 31
0.0
  0
LINE
  5
44DB
330
44CF
100
AcDbEntity
 67
     1
  8
waku
  6
Continuous
 62
     7
100
AcDbLine
 10
-53.50000000000022
 20
-72.0
 30
0.0
 11
126.5
 21
-72.0
 31
0.0
  0
LINE
  5
44DC
330
44CF
100
AcDbEntity
 67
     1
  8
waku
  6
Continuous
 62
     7
100
AcDbLine
 10
-53.50000000000022
 20
-77.0
 30
0.0
 11
54.49999999999977
 21
-77.0
 31
0.0
  0
LINE
  5
44DD
330
44CF
100
AcDbEntity
 67
     1
  8
waku
  6
Continuous
 62
     7
100
AcDbLine
 10
126.5
 20
82.0
 30
0.0
 11
-53.5
 21
82.0
 31
0.0
  0
LINE
  5
44DE
330
44CF
100
AcDbEntity
 67
     1
  8
waku
  6
Continuous
 62
     7
100
AcDbLine
 10
-53.5
 20
77.0
 30
0.0
 11
126.5
 21
77.0
 31
0.0
  0
LINE
  5
44DF
330
44CF
100
AcDbEntity
 67
     1
  8
waku
  6
Continuous
 62
     7
100
AcDbLine
 10
-129.4999999999999
 20
-88.0
 30
0.0
 11
-129.4999999999999
 21
87.0
 31
0.0
  0
LINE
  5
44E0
330
44CF
100
AcDbEntity
 67
     1
  8
waku
  6
Continuous
 62
     7
100
AcDbLine
 10
-53.50000000000022
 20
-88.0
 30
0.0
 11
-53.50000000000022
 21
-64.0
 31
0.0
  0
LINE
  5
44E1
330
44CF
100
AcDbEntity
 67
     1
  8
waku
  6
Continuous
 62
     7
100
AcDbLine
 10
-17.50000000000022
 20
-88.0
 30
0.0
 11
-17.50000000000022
 21
-64.0
 31
0.0
  0
TEXT
  5
44E2
330
44CF
100
AcDbEntity
 67
     1
  8
waku
 62
     7
100
AcDbText
 10
-51.20000000000028
 20
-76.0
 30
0.0
 40
3.0
  1
材  質  ・  寸  法
100
AcDbText
  0
TEXT
  5
44E3
330
44CF
100
AcDbEntity
 67
     1
  8
waku
100
AcDbText
 10
-46.75011018824259
 20
-93.28449342760892
 30
0.0
 40
3.0
  1
A4
100
AcDbText
  0
LINE
  5
44E4
330
44CF
100
AcDbEntity
 67
     1
  8
waku
  6
Continuous
 62
     7
100
AcDbLine
 10
-48.50000000000022
 20
-88.0
 30
0.0
 11
-48.50000000000022
 21
-77.0
 31
0.0
  0
TEXT
  5
44E5
330
44CF
100
AcDbEntity
 67
     1
  8
waku
 62
     7
100
AcDbText
 10
-52.30000000000018
 20
-86.5
 30
0.0
 40
3.0
  1
度
100
AcDbText
  0
TEXT
  5
44E6
330
44CF
100
AcDbEntity
 67
     1
  8
waku
 62
     7
100
AcDbText
 10
-52.50000000000023
 20
-81.5
 30
0.0
 40
3.0
  1
尺
100
AcDbText
  0
LINE
  5
44E7
330
44CF
100
AcDbEntity
 67
     1
  8
waku
  6
Continuous
 62
     7
100
AcDbLine
 10
-30.50000000000022
 20
-88.0
 30
0.0
 11
-30.50000000000022
 21
-77.0
 31
0.0
  0
LINE
  5
44E8
330
44CF
100
AcDbEntity
 67
     1
  8
waku
  6
Continuous
 62
     7
100
AcDbLine
 10
-35.50000000000022
 20
-88.0
 30
0.0
 11
-35.50000000000022
 21
-77.0
 31
0.0
  0
TEXT
  5
44E9
330
44CF
100
AcDbEntity
 67
     1
  8
waku
 62
     7
100
AcDbText
 10
-34.30000000000018
 20
-86.5
 30
0.0
 40
3.0
  1
計
100
AcDbText
  0
TEXT
  5
44EA
330
44CF
100
AcDbEntity
 67
     1
  8
waku
 62
     7
100
AcDbText
 10
-42.03333333333353
 20
-70.0
 30
0.0
 40
4.0
  1
上  記
100
AcDbText
  0
TEXT
  5
44EB
330
44CF
100
AcDbEntity
 67
     1
  8
waku
 62
     7
100
AcDbText
 10
-34.50000000000022
 20
-81.5
 30
0.0
 40
3.0
  1
設
100
AcDbText
  0
LINE
  5
44EC
330
44CF
100
AcDbEntity
 67
     1
  8
waku
  6
Continuous
 62
     7
100
AcDbLine
 10
-12.50000000000022
 20
-88.0
 30
0.0
 11
-12.50000000000022
 21
-77.0
 31
0.0
  0
TEXT
  5
44ED
330
44CF
100
AcDbEntity
 67
     1
  8
waku
 62
     7
100
AcDbText
 10
-15.20000000000027
 20
-95.5
 30
0.0
 40
3.0
  1
管理ＮＯ
100
AcDbText
  0
LINE
  5
44EE
330
44CF
100
AcDbEntity
 67
     1
  8
waku
  6
Continuous
 62
     7
100
AcDbLine
 10
-17.50000000000022
 20
-98.0
 30
0.0
 11
-17.50000000000022
 21
-90.0
 31
0.0
  0
TEXT
  5
44EF
330
44CF
100
AcDbEntity
 67
     1
  8
waku
 62
     7
100
AcDbText
 10
-16.20000000000025
 20
-86.5
 30
0.0
 40
3.0
  1
図
100
AcDbText
  0
TEXT
  5
44F0
330
44CF
100
AcDbEntity
 67
     1
  8
waku
 62
     7
100
AcDbText
 10
-16.50000000000022
 20
-81.5
 30
0.0
 40
3.0
  1
製
100
AcDbText
  0
TEXT
  5
44F1
330
44CF
100
AcDbEntity
 67
     1
  8
waku
 62
     7
100
AcDbText
 10
-3.416666666666742
 20
-57.75
 30
0.0
 40
2.5
  1
1
100
AcDbText
  0
LINE
  5
44F2
330
44CF
100
AcDbEntity
 67
     1
  8
waku
  6
Continuous
 62
     7
100
AcDbLine
 10
-9.5
 20
-64.0
 30
0.0
 11
-9.5
 21
-54.0
 31
0.0
  0
LINE
  5
44F3
330
44CF
100
AcDbEntity
 67
     1
  8
waku
  6
Continuous
 62
     7
100
AcDbLine
 10
-2.810996436013509
 20
-54.0
 30
0.0
 11
-5.665589575705777
 21
-59.0
 31
0.0
  0
LINE
  5
44F4
330
44CF
100
AcDbEntity
 67
     1
  8
waku
  6
Continuous
 62
     7
100
AcDbLine
 10
-0.0403625019732772
 20
-59.0
 30
0.0
 11
-2.810996436013509
 21
-54.0
 31
0.0
  0
LINE
  5
44F5
330
44CF
100
AcDbEntity
 67
     1
  8
waku
  6
Continuous
 62
     7
100
AcDbLine
 10
-5.665589575705777
 20
-59.0
 30
0.0
 11
-0.0403625019732772
 21
-59.0
 31
0.0
  0
LINE
  5
44F6
330
44CF
100
AcDbEntity
 67
     1
  8
waku
  6
Continuous
 62
     7
100
AcDbLine
 10
-53.5
 20
77.0
 30
0.0
 11
-53.5
 21
87.0
 31
0.0
  0
TEXT
  5
44F7
330
44CF
100
AcDbEntity
 67
     1
  8
waku
 62
     7
100
AcDbText
 10
-53.10000000000013
 20
83.0
 30
0.0
 40
3.0
  1
記号
100
AcDbText
  0
LINE
  5
44F8
330
44CF
100
AcDbEntity
 67
     1
  8
waku
  6
Continuous
 62
     7
100
AcDbLine
 10
-45.49999999999999
 20
77.0
 30
0.0
 11
-45.49999999999999
 21
87.0
 31
0.0
  0
LINE
  5
44F9
330
44CF
100
AcDbEntity
 67
     1
  8
waku
  6
Continuous
 62
     7
100
AcDbLine
 10
126.5
 20
87.0
 30
0.0
 11
126.5
 21
-88.0
 31
0.0
  0
LINE
  5
44FA
330
44CF
100
AcDbEntity
 67
     1
  8
waku
  6
Continuous
 62
     7
100
AcDbLine
 10
54.49999999999977
 20
-80.0
 30
0.0
 11
126.5
 21
-80.0
 31
0.0
  0
LINE
  5
44FB
330
44CF
100
AcDbEntity
 67
     1
  8
waku
  6
Continuous
 62
     7
100
AcDbLine
 10
72.49999999999976
 20
-88.0
 30
0.0
 11
72.49999999999976
 21
-64.0
 31
0.0
  0
LINE
  5
44FC
330
44CF
100
AcDbEntity
 67
     1
  8
waku
  6
Continuous
 62
     7
100
AcDbLine
 10
54.49999999999977
 20
-88.0
 30
0.0
 11
54.49999999999977
 21
-64.0
 31
0.0
  0
LINE
  5
44FD
330
44CF
100
AcDbEntity
 67
     1
  8
waku
  6
Continuous
 62
     7
100
AcDbLine
 10
15.83333333333303
 20
-88.0
 30
0.0
 11
15.83333333333303
 21
-77.0
 31
0.0
  0
LINE
  5
44FE
330
44CF
100
AcDbEntity
 67
     1
  8
waku
  6
Continuous
 62
     7
100
AcDbLine
 10
5.499999999999769
 20
-88.0
 30
0.0
 11
5.499999999999769
 21
-77.0
 31
0.0
  0
LINE
  5
44FF
330
44CF
100
AcDbEntity
 67
     1
  8
waku
  6
Continuous
 62
     7
100
AcDbLine
 10
0.4999999999997728
 20
-88.0
 30
0.0
 11
0.4999999999997728
 21
-77.0
 31
0.0
  0
LINE
  5
4500
330
44CF
100
AcDbEntity
 67
     1
  8
waku
  6
Continuous
 62
     7
100
AcDbLine
 10
0.4999999999997728
 20
-98.0
 30
0.0
 11
0.4999999999997728
 21
-90.0
 31
0.0
  0
TEXT
  5
4501
330
44CF
100
AcDbEntity
 67
     1
  8
waku
 62
     7
100
AcDbText
 10
1.799999999999725
 20
-86.5
 30
0.0
 40
3.0
  1
図
100
AcDbText
  0
TEXT
  5
4502
330
44CF
100
AcDbEntity
 67
     1
  8
waku
 62
     7
100
AcDbText
 10
1.199999999999817
 20
-81.5
 30
0.0
 40
3.0
  1
検
100
AcDbText
  0
LINE
  5
4503
330
44CF
100
AcDbEntity
 67
     1
  8
waku
  6
Continuous
 62
     7
100
AcDbLine
 10
41.49999999999977
 20
-88.0
 30
0.0
 11
41.49999999999977
 21
-77.0
 31
0.0
  0
LINE
  5
4504
330
44CF
100
AcDbEntity
 67
     1
  8
waku
  6
Continuous
 62
     7
100
AcDbLine
 10
36.49999999999977
 20
-88.0
 30
0.0
 11
36.49999999999977
 21
-77.0
 31
0.0
  0
LINE
  5
4505
330
44CF
100
AcDbEntity
 67
     1
  8
waku
  6
Continuous
 62
     7
100
AcDbLine
 10
26.16666666666651
 20
-88.0
 30
0.0
 11
26.16666666666651
 21
-77.0
 31
0.0
  0
TEXT
  5
4506
330
44CF
100
AcDbEntity
 67
     1
  8
waku
 62
     7
100
AcDbText
 10
37.69999999999981
 20
-86.5
 30
0.0
 40
3.0
  1
認
100
AcDbText
  0
TEXT
  5
4507
330
44CF
100
AcDbEntity
 67
     1
  8
waku
 62
     7
100
AcDbText
 10
37.49999999999977
 20
-81.5
 30
0.0
 40
3.0
  1
承
100
AcDbText
  0
TEXT
  5
4508
330
44CF
100
AcDbEntity
 67
     1
  8
waku
 62
     7
100
AcDbText
 10
56.29999999999995
 20
-95.92417863950322
 30
0.0
 40
3.0
  1
整理番号
100
AcDbText
  0
TEXT
  5
4509
330
44CF
100
AcDbEntity
 67
     1
  8
waku
 62
     7
100
AcDbText
 10
56.69999999999982
 20
-85.5
 30
0.0
 40
3.0
  1
図面名称
100
AcDbText
  0
TEXT
  5
450A
330
44CF
100
AcDbEntity
 67
     1
  8
waku
 62
     7
100
AcDbText
 10
56.59999999999968
 20
-69.5
 30
0.0
 40
3.0
  1
品    名
100
AcDbText
  0
LINE
  5
450B
330
44CF
100
AcDbEntity
 67
     1
  8
waku
  6
Continuous
 62
     7
100
AcDbLine
 10
54.49999999999977
 20
-98.0
 30
0.0
 11
54.49999999999977
 21
-90.0
 31
0.0
  0
TEXT
  5
450C
330
44CF
100
AcDbEntity
 67
     1
  8
waku
 62
     7
100
AcDbText
 10
57.74999999999977
 20
-79.33333333333331
 30
0.0
 40
2.5
  1
部品品番
100
AcDbText
  0
TEXT
  5
450D
330
44CF
100
AcDbEntity
 67
     1
  8
waku
 62
     7
100
AcDbText
 10
57.83333333333303
 20
-75.16666666666669
 30
0.0
 40
2.5
  1
図番又は
100
AcDbText
  0
LINE
  5
450E
330
44CF
100
AcDbEntity
 67
     1
  8
waku
  6
Continuous
 62
     7
100
AcDbLine
 10
72.49999999999976
 20
-98.0
 30
0.0
 11
72.49999999999976
 21
-90.0
 31
0.0
  0
TEXT
  5
450F
330
44CF
100
AcDbEntity
 67
     1
  8
waku
 62
     7
100
AcDbText
 10
35.0999999999999
 20
-63.0
 30
0.0
 40
3.0
  1
訂  正  な  ど  の  履  歴
100
AcDbText
  0
TEXT
  5
4510
330
44CF
100
AcDbEntity
 67
     1
  8
waku
 62
     7
100
AcDbText
 10
4.599999999999909
 20
-63.0
 30
0.0
 40
3.0
  1
年月日
100
AcDbText
  0
LINE
  5
4511
330
44CF
100
AcDbEntity
 67
     1
  8
waku
  6
Continuous
 62
     7
100
AcDbLine
 10
3.5
 20
-64.0
 30
0.0
 11
3.5
 21
-54.0
 31
0.0
  0
LINE
  5
4512
330
44CF
100
AcDbEntity
 67
     1
  8
waku
  6
Continuous
 62
     7
100
AcDbLine
 10
16.5
 20
-64.0
 30
0.0
 11
16.5
 21
-54.0
 31
0.0
  0
LINE
  5
4513
330
44CF
100
AcDbEntity
 67
     1
  8
waku
  6
Continuous
 62
     7
100
AcDbLine
 10
126.5
 20
-90.0
 30
0.0
 11
126.5
 21
-98.0
 31
0.0
  0
TEXT
  5
4514
330
44CF
100
AcDbEntity
 67
     1
  8
waku
 62
     7
100
AcDbText
 10
114.5999999999999
 20
-63.0
 30
0.0
 40
3.0
  1
検  印
100
AcDbText
  0
TEXT
  5
4515
330
44CF
100
AcDbEntity
 67
     1
  8
waku
 62
     7
100
AcDbText
 10
101.5999999999999
 20
-63.0
 30
0.0
 40
3.0
  1
記  印
100
AcDbText
  0
LINE
  5
4516
330
44CF
100
AcDbEntity
 67
     1
  8
waku
  6
Continuous
 62
     7
100
AcDbLine
 10
100.5
 20
-64.0
 30
0.0
 11
100.5
 21
-54.0
 31
0.0
  0
LINE
  5
4517
330
44CF
100
AcDbEntity
 67
     1
  8
waku
  6
Continuous
 62
     7
100
AcDbLine
 10
113.5
 20
-64.0
 30
0.0
 11
113.5
 21
-54.0
 31
0.0
  0
TEXT
  5
4518
330
44CF
100
AcDbEntity
 67
     1
  8
waku
 62
     7
100
AcDbText
 10
91.39999999999986
 20
83.0
 30
0.0
 40
3.0
  1
数  量
100
AcDbText
  0
TEXT
  5
4519
330
44CF
100
AcDbEntity
 67
     1
  8
waku
 62
     7
100
AcDbText
 10
75.39999999999986
 20
83.0
 30
0.0
 40
3.0
  1
材  質
100
AcDbText
  0
LINE
  5
451A
330
44CF
100
AcDbEntity
 67
     1
  8
waku
  6
Continuous
 62
     7
100
AcDbLine
 10
70.5
 20
77.0
 30
0.0
 11
70.5
 21
87.0
 31
0.0
  0
LINE
  5
451B
330
44CF
100
AcDbEntity
 67
     1
  8
waku
  6
Continuous
 62
     7
100
AcDbLine
 10
90.5
 20
77.0
 30
0.0
 11
90.5
 21
87.0
 31
0.0
  0
TEXT
  5
451C
330
44CF
100
AcDbEntity
 67
     1
  8
waku
 62
     7
100
AcDbText
 10
109.0999999999999
 20
83.0
 30
0.0
 40
3.0
  1
記  事
100
AcDbText
  0
LINE
  5
451D
330
44CF
100
AcDbEntity
 67
     1
  8
waku
  6
Continuous
 62
     7
100
AcDbLine
 10
102.4999999999999
 20
77.0
 30
0.0
 11
102.4999999999999
 21
87.0
 31
0.0
  0
LWPOLYLINE
  5
451E
330
44CF
100
AcDbEntity
 67
     1
  8
waku1
 62
     1
100
AcDbPolyline
 90
        4
 70
     1
 43
0.0
 10
-148.5
 20
105.0
 10
148.5
 20
105.0
 10
148.5
 20
-105.0
 10
-148.5
 20
-105.0
  0
LINE
  5
451F
330
44CF
100
AcDbEntity
 67
     1
  8
waku
100
AcDbLine
 10
-1.499999999999998
 20
97.0
 30
0.0
 11
-1.5
 21
87.0
 31
0.0
  0
ENDSEC
  0
SECTION
  2
OBJECTS
  0
DICTIONARY
  5
C
330
0
100
AcDbDictionary
281
     1
  3
ACAD_GROUP
350
D
  3
ACAD_LAYOUT
350
177
  3
ACAD_MLINESTYLE
350
1B
  3
ACAD_PLOTSETTINGS
350
178
  3
ACAD_PLOTSTYLENAME
350
175
  3
AcadDim
350
2DCA
  3
AcDbVariableDictionary
350
21C
  3
CONTENTDICTIONARY
350
39
  0
DICTIONARY
  5
46F8
330
46F7
100
AcDbDictionary
280
     1
281
     1
  3
ACAD_MTEXT_RT
360
46F9
  0
DICTIONARY
  5
D
102
{ACAD_REACTORS
330
C
102
}
330
C
100
AcDbDictionary
281
     1
  0
DICTIONARY
  5
177
102
{ACAD_REACTORS
330
C
102
}
330
C
100
AcDbDictionary
281
     1
  3
A3
350
405
  3
Model
350
179
  3
ﾚｲｱｳﾄ1
350
17A
  3
ﾚｲｱｳﾄ2-ﾚｲｱｳﾄ1
350
44CE
  0
DICTIONARY
  5
1B
102
{ACAD_REACTORS
330
C
102
}
330
C
100
AcDbDictionary
281
     1
  3
STANDARD
350
1C
  0
DICTIONARY
  5
178
102
{ACAD_REACTORS
330
C
102
}
330
C
100
AcDbDictionary
281
     1
  0
ACDBDICTIONARYWDFLT
  5
175
102
{ACAD_REACTORS
330
C
102
}
330
C
100
AcDbDictionary
281
     1
  3
Normal
350
176
100
AcDbDictionaryWithDefault
340
176
  0
XRECORD
  5
2DCA
102
{ACAD_REACTORS
330
C
102
}
330
C
100
AcDbXrecord
280
     1
 90
   990106
  3
OPEN
 60
     0
 61
     0
 62
     4
 63
     4
 64
     1
 65
     0
 66
     0
 67
     3
 68
     1
 69
     0
 70
     0
 71
     0
 72
     0
 40
0.0
170
     2
340
0
  0
DICTIONARY
  5
21C
102
{ACAD_REACTORS
330
C
102
}
330
C
100
AcDbDictionary
281
     1
  3
DIMASSOC
350
21D
  0
DICTIONARY
  5
39
102
{ACAD_REACTORS
330
C
102
}
330
C
100
AcDbDictionary
281
     1
  0
XRECORD
  5
46F9
102
{ACAD_REACTORS
330
46F8
102
}
330
46F8
100
AcDbXrecord
280
     1
 40
69011.0
  1
駐）　１　ＰＣ\P　　　２　ＰＣ\P　　　　一般公差　%%p1.0\P　　　　表面アラサ　\U+25BD\U+25BD\U+25BD
  0
LAYOUT
  5
405
102
{ACAD_REACTORS
330
177
102
}
330
177
100
AcDbPlotSettings
  1

  2
京セラ LS-6700S
  4
A3
  6

 40
6.720416545867919
 41
5.196427345275878
 42
6.974395751953125
 43
5.027069091796875
 44
296.9259948730469
 45
420.1159973144531
 46
0.0
 47
0.0
 48
-220.0
 49
-153.5
140
200.0
141
143.5
142
1.0
143
0.9887096326466783
 70
   688
 72
     1
 73
     1
 74
     1
  7
monochrome.ctb
 75
     0
147
1.011419295393227
148
215.0111776122176
149
135.5120363157371
100
AcDbLayout
  1
A3
 70
     1
 71
     2
 10
-219.9814892472575
 20
-142.1565768900348
 11
195.3912441265081
 21
151.4170144241447
 12
0.0
 22
0.0
 32
0.0
 14
-220.0
 24
-153.5
 34
0.0
 15
200.0
 25
144.5
 35
0.0
146
0.0
 13
0.0
 23
0.0
 33
0.0
 16
1.0
 26
0.0
 36
0.0
 17
0.0
 27
1.0
 37
0.0
 76
     0
330
406
331
407
  0
LAYOUT
  5
179
102
{ACAD_REACTORS
330
177
102
}
330
177
100
AcDbPlotSettings
  1

  2
DocuCom PDF Driver
  4
A4
  6
OLE1
 40
3.174999952316281
 41
3.174999952316281
 42
3.175003051757812
 43
3.17498779296875
 44
209.9733276367186
 45
296.9683227539062
 46
-3.2
 47
-3.209999999999999
 48
932.3627937187993
 49
599.4128195429246
140
1229.362793718799
141
809.4128195429247
142
1.0
143
1.0
 70
 11956
 72
     1
 73
     1
 74
     1
  7
monochrome.ctb
 75
    16
147
1.0
148
-942.4020640364011
149
-319.9989397934134
100
AcDbLayout
  1
Model
 70
     1
 71
     0
 10
0.0
 20
0.0
 11
12.0
 21
9.0
 12
0.0
 22
0.0
 32
0.0
 14
0.0
 24
0.0
 34
0.0
 15
0.0
 25
0.0
 35
0.0
146
0.0
 13
0.0
 23
0.0
 33
0.0
 16
1.0
 26
0.0
 36
0.0
 17
0.0
 27
1.0
 37
0.0
 76
     0
330
18
  0
LAYOUT
  5
17A
102
{ACAD_REACTORS
330
177
102
}
330
177
100
AcDbPlotSettings
  1

  2
HP DesignJet 750C+ (E/A0) by HP
  4
User268
  6

 40
4.995333194732666
 41
16.93333625793457
 42
4.995330810546875
 43
16.93331909179687
 44
209.9733276367186
 45
296.8413391113281
 46
0.0
 47
0.0
 48
0.0
 49
0.0
140
0.0
141
0.0
142
1.0
143
1.0
 70
   688
 72
     1
 73
     1
 74
     5
  7
monochrome.ctb
 75
    16
147
1.0
148
0.0
149
0.0
100
AcDbLayout
  1
ﾚｲｱｳﾄ1
 70
     1
 71
     1
 10
-16.93331909179687
 20
-4.995333194732666
 11
279.9080200195311
 21
204.977994441986
 12
0.0
 22
0.0
 32
0.0
 14
26.29746837615964
 24
19.99826636314391
 34
0.0
 15
236.677215385437
 25
179.9843972682949
 35
0.0
146
0.0
 13
0.0
 23
0.0
 33
0.0
 16
1.0
 26
0.0
 36
0.0
 17
0.0
 27
1.0
 37
0.0
 76
     0
330
15
331
44CA
  0
LAYOUT
  5
44CE
102
{ACAD_REACTORS
330
177
102
}
330
177
100
AcDbPlotSettings
  1

  2
HP DesignJet 750C+ (E/A0) by HP
  4
User268
  6

 40
4.995333194732666
 41
16.93333625793457
 42
4.995330810546875
 43
16.93331909179687
 44
209.9733276367186
 45
296.8413391113281
 46
0.0
 47
0.0
 48
0.0
 49
0.0
140
0.0
141
0.0
142
1.0
143
0.9751596767107272
 70
   688
 72
     1
 73
     1
 74
     1
  7
hp750.ctb
 75
     0
147
1.025473082903775
148
129.5207384643539
149
98.00396829344393
100
AcDbLayout
  1
ﾚｲｱｳﾄ2-ﾚｲｱｳﾄ1
 70
     1
 71
     3
 10
-146.03342843555
 20
-102.8752157966817
 11
143.4342758466318
 21
101.8823064994164
 12
0.0
 22
0.0
 32
0.0
 14
-148.5
 24
-105.0
 34
0.0
 15
148.5
 25
105.0
 35
0.0
146
0.0
 13
0.0
 23
0.0
 33
0.0
 16
1.0
 26
0.0
 36
0.0
 17
0.0
 27
1.0
 37
0.0
 76
     0
330
44CF
331
44D0
  0
MLINESTYLE
  5
1C
102
{ACAD_REACTORS
330
1B
102
}
330
1B
100
AcDbMlineStyle
  2
STANDARD
 70
     0
  3

 62
   256
 51
90.0
 52
90.0
 71
     2
 49
0.5
 62
   256
  6
BYLAYER
 49
-0.5
 62
   256
  6
BYLAYER
  0
ACDBPLACEHOLDER
  5
176
102
{ACAD_REACTORS
330
175
102
}
330
175
  0
DICTIONARYVAR
  5
21D
102
{ACAD_REACTORS
330
21C
102
}
330
21C
100
DictionaryVariables
280
     0
  1
1
  0
ENDSEC
  0
EOF
