  0
SECTION
  2
HEADER
  9
$ACADVER
  1
AC1015
  9
$ACADMAINTVER
 70
    14
  9
$DWGCODEPAGE
  3
ANSI_932
  9
$INSBASE
 10
0.0
 20
0.0
 30
0.0
  9
$EXTMIN
 10
82.28045802176984
 20
63.46527204786582
 30
-0.0000000349181948
  9
$EXTMAX
 10
379.343903721012
 20
273.5101326432896
 30
0.0000000814935747
  9
$LIMMIN
 10
0.0
 20
0.0
  9
$LIMMAX
 10
594.0
 20
420.0
  9
$ORTHOMODE
 70
     0
  9
$REGENMODE
 70
     1
  9
$FILLMODE
 70
     1
  9
$QTEXTMODE
 70
     0
  9
$MIRRTEXT
 70
     1
  9
$LTSCALE
 40
10.0
  9
$ATTMODE
 70
     1
  9
$TEXTSIZE
 40
3.0
  9
$TRACEWID
 40
0.05
  9
$TEXTSTYLE
  7
STANDARD
  9
$CLAYER
  8
dim
  9
$CELTYPE
  6
ByLayer
  9
$CECOLOR
 62
     3
  9
$CELTSCALE
 40
1.0
  9
$DISPSILH
 70
     0
  9
$DIMSCALE
 40
1.0
  9
$DIMASZ
 40
3.0
  9
$DIMEXO
 40
0.5
  9
$DIMDLI
 40
4.0
  9
$DIMRND
 40
0.0
  9
$DIMDLE
 40
0.0
  9
$DIMEXE
 40
1.0
  9
$DIMTP
 40
0.0
  9
$DIMTM
 40
0.0
  9
$DIMTXT
 40
3.0
  9
$DIMCEN
 40
0.0
  9
$DIMTSZ
 40
0.0
  9
$DIMTOL
 70
     0
  9
$DIMLIM
 70
     0
  9
$DIMTIH
 70
     0
  9
$DIMTOH
 70
     0
  9
$DIMSE1
 70
     0
  9
$DIMSE2
 70
     0
  9
$DIMTAD
 70
     1
  9
$DIMZIN
 70
     9
  9
$DIMBLK
  1

  9
$DIMASO
 70
     1
  9
$DIMSHO
 70
     1
  9
$DIMPOST
  1

  9
$DIMAPOST
  1

  9
$DIMALT
 70
     0
  9
$DIMALTD
 70
     4
  9
$DIMALTF
 40
0.0394
  9
$DIMLFAC
 40
1.0
  9
$DIMTOFL
 70
     0
  9
$DIMTVP
 40
0.0
  9
$DIMTIX
 70
     0
  9
$DIMSOXD
 70
     0
  9
$DIMSAH
 70
     1
  9
$DIMBLK1
  1
OPEN
  9
$DIMBLK2
  1
OPEN
  9
$DIMSTYLE
  2
STD01
  9
$DIMCLRD
 70
     7
  9
$DIMCLRE
 70
     7
  9
$DIMCLRT
 70
     0
  9
$DIMTFAC
 40
1.0
  9
$DIMGAP
 40
0.5
  9
$DIMJUST
 70
     0
  9
$DIMSD1
 70
     0
  9
$DIMSD2
 70
     0
  9
$DIMTOLJ
 70
     1
  9
$DIMTZIN
 70
     9
  9
$DIMALTZ
 70
     0
  9
$DIMALTTZ
 70
     0
  9
$DIMUPT
 70
     0
  9
$DIMDEC
 70
     3
  9
$DIMTDEC
 70
     3
  9
$DIMALTU
 70
     8
  9
$DIMALTTD
 70
     4
  9
$DIMTXSTY
  7
STANDARD
  9
$DIMAUNIT
 70
     0
  9
$DIMADEC
 70
     3
  9
$DIMALTRND
 40
0.0
  9
$DIMAZIN
 70
     2
  9
$DIMDSEP
 70
    46
  9
$DIMATFIT
 70
     3
  9
$DIMFRAC
 70
     0
  9
$DIMLDRBLK
  1
OPEN
  9
$DIMLUNIT
 70
     2
  9
$DIMLWD
 70
    -2
  9
$DIMLWE
 70
    -2
  9
$DIMTMOVE
 70
     0
  9
$LUNITS
 70
     2
  9
$LUPREC
 70
     4
  9
$SKETCHINC
 40
0.1
  9
$FILLETRAD
 40
0.0
  9
$AUNITS
 70
     0
  9
$AUPREC
 70
     0
  9
$MENU
  1
acad
  9
$ELEVATION
 40
0.0
  9
$PELEVATION
 40
0.0
  9
$THICKNESS
 40
0.0
  9
$LIMCHECK
 70
     0
  9
$CHAMFERA
 40
0.0
  9
$CHAMFERB
 40
0.0
  9
$CHAMFERC
 40
0.0
  9
$CHAMFERD
 40
0.0
  9
$SKPOLY
 70
     0
  9
$TDCREATE
 40
2444975.375000000
  9
$TDUCREATE
 40
2444974.999999999
  9
$TDUPDATE
 40
2456150.726816006
  9
$TDUUPDATE
 40
2456150.351816007
  9
$TDINDWG
 40
0.0819277083
  9
$TDUSRTIMER
 40
0.0819252431
  9
$USRTIMER
 70
     1
  9
$ANGBASE
 50
0.0
  9
$ANGDIR
 70
     0
  9
$PDMODE
 70
     0
  9
$PDSIZE
 40
0.0
  9
$PLINEWID
 40
0.0
  9
$SPLFRAME
 70
     0
  9
$SPLINETYPE
 70
     6
  9
$SPLINESEGS
 70
     8
  9
$HANDSEED
  5
191C5
  9
$SURFTAB1
 70
     6
  9
$SURFTAB2
 70
     6
  9
$SURFTYPE
 70
     6
  9
$SURFU
 70
     6
  9
$SURFV
 70
     6
  9
$UCSBASE
  2

  9
$UCSNAME
  2

  9
$UCSORG
 10
0.0
 20
0.0
 30
0.0
  9
$UCSXDIR
 10
1.0
 20
0.0
 30
0.0
  9
$UCSYDIR
 10
0.0
 20
1.0
 30
0.0
  9
$UCSORTHOREF
  2

  9
$UCSORTHOVIEW
 70
     0
  9
$UCSORGTOP
 10
0.0
 20
0.0
 30
0.0
  9
$UCSORGBOTTOM
 10
0.0
 20
0.0
 30
0.0
  9
$UCSORGLEFT
 10
0.0
 20
0.0
 30
0.0
  9
$UCSORGRIGHT
 10
0.0
 20
0.0
 30
0.0
  9
$UCSORGFRONT
 10
0.0
 20
0.0
 30
0.0
  9
$UCSORGBACK
 10
0.0
 20
0.0
 30
0.0
  9
$PUCSBASE
  2

  9
$PUCSNAME
  2

  9
$PUCSORG
 10
0.0
 20
0.0
 30
0.0
  9
$PUCSXDIR
 10
1.0
 20
0.0
 30
0.0
  9
$PUCSYDIR
 10
0.0
 20
1.0
 30
0.0
  9
$PUCSORTHOREF
  2

  9
$PUCSORTHOVIEW
 70
     0
  9
$PUCSORGTOP
 10
0.0
 20
0.0
 30
0.0
  9
$PUCSORGBOTTOM
 10
0.0
 20
0.0
 30
0.0
  9
$PUCSORGLEFT
 10
0.0
 20
0.0
 30
0.0
  9
$PUCSORGRIGHT
 10
0.0
 20
0.0
 30
0.0
  9
$PUCSORGFRONT
 10
0.0
 20
0.0
 30
0.0
  9
$PUCSORGBACK
 10
0.0
 20
0.0
 30
0.0
  9
$USERI1
 70
     0
  9
$USERI2
 70
     0
  9
$USERI3
 70
     0
  9
$USERI4
 70
     0
  9
$USERI5
 70
     0
  9
$USERR1
 40
0.0
  9
$USERR2
 40
0.0
  9
$USERR3
 40
0.0
  9
$USERR4
 40
0.0
  9
$USERR5
 40
0.0
  9
$WORLDVIEW
 70
     1
  9
$SHADEDGE
 70
     3
  9
$SHADEDIF
 70
    70
  9
$TILEMODE
 70
     1
  9
$MAXACTVP
 70
    16
  9
$PINSBASE
 10
0.0
 20
0.0
 30
0.0
  9
$PLIMCHECK
 70
     0
  9
$PEXTMIN
 10
0.0
 20
0.0
 30
0.0
  9
$PEXTMAX
 10
0.0
 20
0.0
 30
0.0
  9
$PLIMMIN
 10
0.0
 20
0.0
  9
$PLIMMAX
 10
12.0
 20
9.0
  9
$UNITMODE
 70
     0
  9
$VISRETAIN
 70
     0
  9
$PLINEGEN
 70
     1
  9
$PSLTSCALE
 70
     1
  9
$TREEDEPTH
 70
  3020
  9
$CMLSTYLE
  2
Standard
  9
$CMLJUST
 70
     0
  9
$CMLSCALE
 40
1.0
  9
$PROXYGRAPHICS
 70
     1
  9
$MEASUREMENT
 70
     0
  9
$CELWEIGHT
370
    -1
  9
$ENDCAPS
280
     0
  9
$JOINSTYLE
280
     0
  9
$LWDISPLAY
290
     0
  9
$INSUNITS
 70
     0
  9
$HYPERLINKBASE
  1

  9
$STYLESHEET
  1
monochrome.ctb
  9
$XEDIT
290
     1
  9
$CEPSNTYPE
380
     0
  9
$PSTYLEMODE
290
     1
  9
$FINGERPRINTGUID
  2
{7E1F9735-F5C1-455F-B53A-48D08A1EECC8}
  9
$VERSIONGUID
  2
{659916E0-4428-4A83-9376-25ABF5117FF9}
  9
$EXTNAMES
290
     1
  9
$PSVPSCALE
 40
0.0
  9
$OLESTARTUP
290
     0
  0
ENDSEC
  0
SECTION
  2
CLASSES
  0
CLASS
  1
ACDBDICTIONARYWDFLT
  2
AcDbDictionaryWithDefault
  3
AutoCAD 2000
 90
        0
280
     0
281
     0
  0
CLASS
  1
DIMASSOC
  2
AcDbDimAssoc
  3
"AcDbDimAssoc|Product Desc:     AcDim ARX App For Dimension|Company:          Autodesk, Inc.|WEB Address:      www.autodesk.com"
 90
    32768
280
     0
281
     0
  0
CLASS
  1
DICTIONARYVAR
  2
AcDbDictionaryVar
  3
AutoCAD 2000
 90
        0
280
     0
281
     0
  0
CLASS
  1
ACDBPLACEHOLDER
  2
AcDbPlaceHolder
  3
AutoCAD 2000
 90
        0
280
     0
281
     0
  0
CLASS
  1
LAYOUT
  2
AcDbLayout
  3
AutoCAD 2000
 90
        0
280
     0
281
     0
  0
ENDSEC
  0
SECTION
  2
TABLES
  0
TABLE
  2
VPORT
  5
8
330
0
100
AcDbSymbolTable
 70
     5
  0
VPORT
  5
191C4
330
8
100
AcDbSymbolTableRecord
100
AcDbViewportTableRecord
  2
*Active
 70
     0
 10
0.0
 20
0.0
 11
1.0
 21
1.0
 12
230.8121808713909
 22
168.4877023455777
 13
0.0
 23
0.0
 14
1.0
 24
1.0
 15
0.0
 25
0.0
 16
0.0
 26
0.0
 36
1.0
 17
0.0
 27
0.0
 37
0.0
 40
211.6564579912965
 41
1.541613316261203
 42
50.0
 43
0.0
 44
0.0
 50
0.0
 51
0.0
 71
     0
 72
   100
 73
     1
 74
     1
 75
     0
 76
     0
 77
     0
 78
     0
281
     0
 65
     1
110
0.0
120
0.0
130
0.0
111
1.0
121
-0.0000000000000977
131
0.0
112
0.0000000000000977
122
1.0
132
0.0
 79
     0
146
0.0
  0
ENDTAB
  0
TABLE
  2
LTYPE
  5
5
330
0
100
AcDbSymbolTable
 70
     9
  0
LTYPE
  5
13
330
5
100
AcDbSymbolTableRecord
100
AcDbLinetypeTableRecord
  2
ByBlock
 70
     0
  3

 72
    65
 73
     0
 40
0.0
  0
LTYPE
  5
14
330
5
100
AcDbSymbolTableRecord
100
AcDbLinetypeTableRecord
  2
ByLayer
 70
     0
  3

 72
    65
 73
     0
 40
0.0
  0
LTYPE
  5
15
330
5
100
AcDbSymbolTableRecord
100
AcDbLinetypeTableRecord
  2
CONTINUOUS
 70
     0
  3
Solid line
 72
    65
 73
     0
 40
0.0
  0
LTYPE
  5
187CE
330
5
100
AcDbSymbolTableRecord
100
AcDbLinetypeTableRecord
  2
BORDER
 70
     0
  3
Border __ __ _ __ __ _ __ __ _ __ __ _ __ __ _
 72
    65
 73
     6
 40
1.02
 49
0.36
 74
     0
 49
-0.08
 74
     0
 49
0.36
 74
     0
 49
-0.08
 74
     0
 49
0.06
 74
     0
 49
-0.08
 74
     0
  0
LTYPE
  5
187CF
330
5
100
AcDbSymbolTableRecord
100
AcDbLinetypeTableRecord
  2
CENTER
 70
     0
  3
Center ____ _ ____ _ ____ _ ____ _ ____ _ ____
 72
    65
 73
     4
 40
0.5800000000000001
 49
0.36
 74
     0
 49
-0.08
 74
     0
 49
0.06
 74
     0
 49
-0.08
 74
     0
  0
LTYPE
  5
187D0
330
5
100
AcDbSymbolTableRecord
100
AcDbLinetypeTableRecord
  2
DASHDOT
 70
     0
  3
Dash dot ____ _ ____ _ ____ _ ____ _ ____ _ ___
 72
    65
 73
     4
 40
0.5800000000000001
 49
0.36
 74
     0
 49
-0.08
 74
     0
 49
0.06
 74
     0
 49
-0.08
 74
     0
  0
LTYPE
  5
187D1
330
5
100
AcDbSymbolTableRecord
100
AcDbLinetypeTableRecord
  2
DASHED
 70
     0
  3
Dashed __ __ __ __ __ __ __ __ __ __ __ __ __ _
 72
    65
 73
     2
 40
0.3
 49
0.2
 74
     0
 49
-0.1
 74
     0
  0
LTYPE
  5
187D2
330
5
100
AcDbSymbolTableRecord
100
AcDbLinetypeTableRecord
  2
DIVIDE
 70
     0
  3
Divide ______  __  __  ______  __  __  ______
 72
    65
 73
     6
 40
0.72
 49
0.36
 74
     0
 49
-0.08
 74
     0
 49
0.06
 74
     0
 49
-0.08
 74
     0
 49
0.06
 74
     0
 49
-0.08
 74
     0
  0
LTYPE
  5
187D3
330
5
100
AcDbSymbolTableRecord
100
AcDbLinetypeTableRecord
  2
DOT
 70
     0
  3
Dot __ __ __ __ __ __ __ __ __ __ __ __ __ __
 72
    65
 73
     2
 40
0.3
 49
0.2
 74
     0
 49
-0.1
 74
     0
  0
LTYPE
  5
187D4
330
5
100
AcDbSymbolTableRecord
100
AcDbLinetypeTableRecord
  2
HIDDEN
 70
     0
  3
Hidden __ __ __ __ __ __ __ __ __ __ __ __ __ _
 72
    65
 73
     2
 40
0.3
 49
0.2
 74
     0
 49
-0.1
 74
     0
  0
LTYPE
  5
187D5
330
5
100
AcDbSymbolTableRecord
100
AcDbLinetypeTableRecord
  2
PHANTOM
 70
     0
  3
Phantom ______  __  __  ______  __  __  ______
 72
    65
 73
     6
 40
0.72
 49
0.36
 74
     0
 49
-0.08
 74
     0
 49
0.06
 74
     0
 49
-0.08
 74
     0
 49
0.06
 74
     0
 49
-0.08
 74
     0
  0
ENDTAB
  0
TABLE
  2
LAYER
  5
2
330
0
100
AcDbSymbolTable
 70
     9
  0
LAYER
  5
10
330
2
100
AcDbSymbolTableRecord
100
AcDbLayerTableRecord
  2
0
 70
     0
 62
     7
  6
CONTINUOUS
370
    -3
390
F
  0
LAYER
  5
6C11
330
2
100
AcDbSymbolTableRecord
100
AcDbLayerTableRecord
  2
DEFPOINTS
 70
     0
 62
     7
  6
CONTINUOUS
290
     0
370
    -3
390
F
  0
LAYER
  5
6C12
330
2
100
AcDbSymbolTableRecord
100
AcDbLayerTableRecord
  2
dim
 70
     0
 62
     7
  6
CONTINUOUS
370
    -3
390
F
  0
LAYER
  5
6C13
330
2
100
AcDbSymbolTableRecord
100
AcDbLayerTableRecord
  2
pnt
 70
     0
 62
     1
  6
CONTINUOUS
290
     0
370
    -3
390
F
  0
LAYER
  5
118BC
330
2
100
AcDbSymbolTableRecord
100
AcDbLayerTableRecord
  2
3
 70
     0
 62
     7
  6
CONTINUOUS
370
    -3
390
F
  0
LAYER
  5
187D6
330
2
100
AcDbSymbolTableRecord
100
AcDbLayerTableRecord
  2
cent
 70
     0
 62
     2
  6
CENTER
370
    -3
390
F
  0
LAYER
  5
18976
330
2
100
AcDbSymbolTableRecord
100
AcDbLayerTableRecord
  2
DEFAULT_2
 70
     0
 62
     8
  6
HIDDEN
370
    -3
390
F
  0
LAYER
  5
18977
330
2
100
AcDbSymbolTableRecord
100
AcDbLayerTableRecord
  2
01_ASM_CSYS_DTM_PLN
 70
     0
 62
     7
  6
CONTINUOUS
370
    -3
390
F
  0
LAYER
  5
18978
330
2
100
AcDbSymbolTableRecord
100
AcDbLayerTableRecord
  2
waku1
 70
     0
 62
     7
  6
CONTINUOUS
290
     0
370
    -3
390
F
  0
ENDTAB
  0
TABLE
  2
STYLE
  5
3
330
0
100
AcDbSymbolTable
 70
     2
  0
STYLE
  5
11
330
3
100
AcDbSymbolTableRecord
100
AcDbTextStyleTableRecord
  2
STANDARD
 70
     0
 40
0.0
 41
1.0
 50
0.0
 71
     0
 42
3.0
  3
txt.shx
  4
bigfont.shx
  0
STYLE
  5
187D7
330
3
100
AcDbSymbolTableRecord
100
AcDbTextStyleTableRecord
  2

 70
     1
 40
0.0
 41
1.0
 50
0.0
 71
     0
 42
2.5
  3
ltypeshp.shx
  4

  0
ENDTAB
  0
TABLE
  2
VIEW
  5
6
330
0
100
AcDbSymbolTable
 70
     0
  0
ENDTAB
  0
TABLE
  2
UCS
  5
7
330
0
100
AcDbSymbolTable
 70
     0
  0
ENDTAB
  0
TABLE
  2
APPID
  5
9
330
0
100
AcDbSymbolTable
 70
     5
  0
APPID
  5
12
330
9
100
AcDbSymbolTableRecord
100
AcDbRegAppTableRecord
  2
ACAD
 70
     0
  0
APPID
  5
6C2E
330
9
100
AcDbSymbolTableRecord
100
AcDbRegAppTableRecord
  2
CONTENTTABDATA
 70
     0
  0
APPID
  5
6C2F
330
9
100
AcDbSymbolTableRecord
100
AcDbRegAppTableRecord
  2
CONTENTCURRENTTAB
 70
     0
  0
APPID
  5
6C30
330
9
100
AcDbSymbolTableRecord
100
AcDbRegAppTableRecord
  2
CONTENTBLOCKICON
 70
     0
  0
APPID
  5
6C31
330
9
100
AcDbSymbolTableRecord
100
AcDbRegAppTableRecord
  2
CONTENTBLOCKDESCRIPTION
 70
     0
  0
ENDTAB
  0
TABLE
  2
DIMSTYLE
  5
A
330
0
100
AcDbSymbolTable
 70
    25
100
AcDbDimStyleTable
 71
     2
340
6C16
340
4B
  0
DIMSTYLE
105
4B
330
A
100
AcDbSymbolTableRecord
100
AcDbDimStyleTableRecord
  2
STANDARD
 70
     0
 41
5.0
 42
3.712499999999999
 43
22.572
 44
10.692
140
6.712332589299999
141
5.346
279
     2
340
11
  0
DIMSTYLE
105
6C16
102
{ACAD_REACTORS
330
11D7C
330
11D82
102
}
330
A
100
AcDbSymbolTableRecord
100
AcDbDimStyleTableRecord
  2
STD01
 70
     0
 41
3.0
 42
0.5
 43
4.0
 44
1.0
 73
     0
 74
     0
 77
     1
 78
     9
 79
     2
140
3.0
141
0.0
143
0.0394
147
0.5
171
     4
173
     1
176
     7
177
     7
179
     3
271
     3
272
     3
273
     8
274
     4
284
     9
340
11
341
6C05
343
6C05
344
6C05
  0
DIMSTYLE
105
6C26
102
{ACAD_REACTORS
330
11AF9
330
11AFC
330
11D79
330
11D85
330
11DB5
330
11DB2
102
}
330
A
100
AcDbSymbolTableRecord
100
AcDbDimStyleTableRecord
  2
STD01$0
 70
     0
 41
3.0
 42
0.5
 43
4.0
 44
1.0
 73
     0
 74
     0
 77
     1
 78
     9
 79
     2
140
3.0
141
0.0
143
0.0394
147
0.5
171
     4
172
     1
173
     1
176
     7
177
     7
179
     3
271
     3
272
     3
273
     8
274
     4
284
     9
340
11
341
6C05
343
6C05
344
6C05
  0
DIMSTYLE
105
187D8
330
A
100
AcDbSymbolTableRecord
100
AcDbDimStyleTableRecord
  2
STD02
 70
     0
 40
0.5
 41
3.0
 42
0.5
 43
4.0
 44
1.0
 73
     0
 74
     0
 77
     1
 78
     9
 79
     2
140
3.0
141
0.0
143
0.0394
147
0.5
171
     4
173
     1
176
   256
177
   256
179
     3
271
     3
272
     3
273
     8
274
     4
284
     9
340
11
341
6C05
343
6C05
344
6C05
  0
DIMSTYLE
105
187D9
330
A
100
AcDbSymbolTableRecord
100
AcDbDimStyleTableRecord
  2
STD05
 70
     0
 40
0.2
 41
3.0
 42
0.5
 43
4.0
 44
1.0
 73
     0
 74
     0
 77
     1
 78
     9
 79
     2
140
3.0
141
0.0
143
0.0394
147
0.5
171
     4
173
     1
176
   256
177
   256
179
     3
271
     3
272
     3
273
     8
274
     4
284
     9
340
11
341
6C05
343
6C05
344
6C05
  0
DIMSTYLE
105
187DA
330
A
100
AcDbSymbolTableRecord
100
AcDbDimStyleTableRecord
  2
STD10
 70
     0
 40
0.1
 41
3.0
 42
0.5
 43
4.0
 44
1.0
 73
     0
 74
     0
 77
     1
 78
     9
 79
     2
140
3.0
141
0.0
143
0.0394
147
0.5
171
     4
173
     1
176
   256
177
   256
179
     3
271
     3
272
     3
273
     8
274
     4
284
     9
340
11
341
6C05
343
6C05
344
6C05
  0
DIMSTYLE
105
187DB
330
A
100
AcDbSymbolTableRecord
100
AcDbDimStyleTableRecord
  2
STD01$4
 70
     0
 41
3.0
 42
0.5
 43
4.0
 44
1.0
 73
     0
 77
     1
 78
     9
 79
     2
140
3.0
141
0.0
143
0.0394
147
0.5
171
     4
173
     1
176
   256
177
   256
179
     3
271
     3
272
     3
273
     8
274
     4
284
     9
340
11
341
6C05
343
6C05
344
6C05
  0
DIMSTYLE
105
187DC
330
A
100
AcDbSymbolTableRecord
100
AcDbDimStyleTableRecord
  2
STD01$3
 70
     0
 41
3.0
 42
0.5
 43
4.0
 44
1.0
 73
     0
 77
     1
 78
     9
 79
     2
140
3.0
141
0.0
143
0.0394
147
0.5
171
     4
173
     1
176
   256
177
   256
179
     3
271
     3
272
     3
273
     8
274
     4
284
     9
340
11
341
6C05
343
6C05
344
6C05
  0
DIMSTYLE
105
187DD
330
A
100
AcDbSymbolTableRecord
100
AcDbDimStyleTableRecord
  2
STD01$6
 70
     0
 41
3.0
 42
0.5
 43
4.0
 44
1.0
 73
     0
 74
     0
 78
     9
 79
     2
140
3.0
141
0.0
143
0.0394
147
0.5
171
     4
173
     1
176
   256
177
   256
179
     3
271
     3
272
     3
273
     8
274
     4
284
     9
340
11
341
6C05
343
6C05
344
6C05
  0
DIMSTYLE
105
187DE
330
A
100
AcDbSymbolTableRecord
100
AcDbDimStyleTableRecord
  2
STD02$4
 70
     0
 40
0.5
 41
3.0
 42
0.5
 43
4.0
 44
1.0
 73
     0
 77
     1
 78
     9
 79
     2
140
3.0
141
0.0
143
0.0394
147
0.5
171
     4
173
     1
176
   256
177
   256
179
     3
271
     3
272
     3
273
     8
274
     4
284
     9
340
11
341
6C05
343
6C05
344
6C05
  0
DIMSTYLE
105
187DF
330
A
100
AcDbSymbolTableRecord
100
AcDbDimStyleTableRecord
  2
STD02$3
 70
     0
 40
0.5
 41
3.0
 42
0.5
 43
4.0
 44
1.0
 73
     0
 77
     1
 78
     9
 79
     2
140
3.0
141
0.0
143
0.0394
147
0.5
171
     4
173
     1
176
   256
177
   256
179
     3
271
     3
272
     3
273
     8
274
     4
284
     9
340
11
341
6C05
343
6C05
344
6C05
  0
DIMSTYLE
105
187E0
330
A
100
AcDbSymbolTableRecord
100
AcDbDimStyleTableRecord
  2
STD02$6
 70
     0
 40
0.5
 41
3.0
 42
0.5
 43
4.0
 44
1.0
 73
     0
 74
     0
 78
     9
 79
     2
140
3.0
141
0.0
143
0.0394
147
0.5
171
     4
173
     1
176
   256
177
   256
179
     3
271
     3
272
     3
273
     8
274
     4
284
     9
340
11
341
6C05
343
6C05
344
6C05
  0
DIMSTYLE
105
187E1
330
A
100
AcDbSymbolTableRecord
100
AcDbDimStyleTableRecord
  2
STD05$4
 70
     0
 40
0.2
 41
3.0
 42
0.5
 43
4.0
 44
1.0
 73
     0
 77
     1
 78
     9
 79
     2
140
3.0
141
0.0
143
0.0394
147
0.5
171
     4
173
     1
176
   256
177
   256
179
     3
271
     3
272
     3
273
     8
274
     4
284
     9
340
11
341
6C05
343
6C05
344
6C05
  0
DIMSTYLE
105
187E2
330
A
100
AcDbSymbolTableRecord
100
AcDbDimStyleTableRecord
  2
STD05$3
 70
     0
 40
0.2
 41
3.0
 42
0.5
 43
4.0
 44
1.0
 73
     0
 77
     1
 78
     9
 79
     2
140
3.0
141
0.0
143
0.0394
147
0.5
171
     4
173
     1
176
   256
177
   256
179
     3
271
     3
272
     3
273
     8
274
     4
284
     9
340
11
341
6C05
343
6C05
344
6C05
  0
DIMSTYLE
105
187E3
330
A
100
AcDbSymbolTableRecord
100
AcDbDimStyleTableRecord
  2
STD05$6
 70
     0
 40
0.2
 41
3.0
 42
0.5
 43
4.0
 44
1.0
 73
     0
 74
     0
 78
     9
 79
     2
140
3.0
141
0.0
143
0.0394
147
0.5
171
     4
173
     1
176
   256
177
   256
179
     3
271
     3
272
     3
273
     8
274
     4
284
     9
340
11
341
6C05
343
6C05
344
6C05
  0
DIMSTYLE
105
187E4
330
A
100
AcDbSymbolTableRecord
100
AcDbDimStyleTableRecord
  2
STD10$4
 70
     0
 40
0.1
 41
3.0
 42
0.5
 43
4.0
 44
1.0
 73
     0
 77
     1
 78
     9
 79
     2
140
3.0
141
0.0
143
0.0394
147
0.5
171
     4
173
     1
176
   256
177
   256
179
     3
271
     3
272
     3
273
     8
274
     4
284
     9
340
11
341
6C05
343
6C05
344
6C05
  0
DIMSTYLE
105
187E5
330
A
100
AcDbSymbolTableRecord
100
AcDbDimStyleTableRecord
  2
STD10$3
 70
     0
 40
0.1
 41
3.0
 42
0.5
 43
4.0
 44
1.0
 73
     0
 77
     1
 78
     9
 79
     2
140
3.0
141
0.0
143
0.0394
147
0.5
171
     4
173
     1
176
   256
177
   256
179
     3
271
     3
272
     3
273
     8
274
     4
284
     9
340
11
341
6C05
343
6C05
344
6C05
  0
DIMSTYLE
105
187E6
330
A
100
AcDbSymbolTableRecord
100
AcDbDimStyleTableRecord
  2
STD10$6
 70
     0
 40
0.1
 41
3.0
 42
0.5
 43
4.0
 44
1.0
 73
     0
 74
     0
 78
     9
 79
     2
140
3.0
141
0.0
143
0.0394
147
0.5
171
     4
173
     1
176
   256
177
   256
179
     3
271
     3
272
     3
273
     8
274
     4
284
     9
340
11
341
6C05
343
6C05
344
6C05
  0
DIMSTYLE
105
187E7
330
A
100
AcDbSymbolTableRecord
100
AcDbDimStyleTableRecord
  2
STD01$2
 70
     0
 41
3.0
 42
0.5
 43
4.0
 44
1.0
 73
     0
 74
     0
 77
     1
 78
     9
 79
     2
140
3.0
141
0.0
143
0.0394
147
0.5
171
     4
172
     1
173
     1
176
   256
177
   256
179
     3
271
     3
272
     3
273
     8
274
     4
284
     9
340
11
341
6C05
343
6C05
344
6C05
  0
DIMSTYLE
105
187E8
330
A
100
AcDbSymbolTableRecord
100
AcDbDimStyleTableRecord
  2
STD02$0
 70
     0
 40
0.5
 41
3.0
 42
0.5
 43
4.0
 44
1.0
 73
     0
 74
     0
 77
     1
 78
     9
 79
     2
140
3.0
141
0.0
143
0.0394
147
0.5
171
     4
172
     1
173
     1
176
   256
177
   256
179
     3
271
     3
272
     3
273
     8
274
     4
284
     9
340
11
341
6C05
343
6C05
344
6C05
  0
DIMSTYLE
105
187E9
330
A
100
AcDbSymbolTableRecord
100
AcDbDimStyleTableRecord
  2
STD02$2
 70
     0
 40
0.5
 41
3.0
 42
0.5
 43
4.0
 44
1.0
 73
     0
 74
     0
 77
     1
 78
     9
 79
     2
140
3.0
141
0.0
143
0.0394
147
0.5
171
     4
172
     1
173
     1
176
   256
177
   256
179
     3
271
     3
272
     3
273
     8
274
     4
284
     9
340
11
341
6C05
343
6C05
344
6C05
  0
DIMSTYLE
105
187EA
330
A
100
AcDbSymbolTableRecord
100
AcDbDimStyleTableRecord
  2
STD05$0
 70
     0
 40
0.2
 41
3.0
 42
0.5
 43
4.0
 44
1.0
 73
     0
 74
     0
 77
     1
 78
     9
 79
     2
140
3.0
141
0.0
143
0.0394
147
0.5
171
     4
172
     1
173
     1
176
   256
177
   256
179
     3
271
     3
272
     3
273
     8
274
     4
284
     9
340
11
341
6C05
343
6C05
344
6C05
  0
DIMSTYLE
105
187EB
330
A
100
AcDbSymbolTableRecord
100
AcDbDimStyleTableRecord
  2
STD05$2
 70
     0
 40
0.2
 41
3.0
 42
0.5
 43
4.0
 44
1.0
 73
     0
 74
     0
 77
     1
 78
     9
 79
     2
140
3.0
141
0.0
143
0.0394
147
0.5
171
     4
172
     1
173
     1
176
   256
177
   256
179
     3
271
     3
272
     3
273
     8
274
     4
284
     9
340
11
341
6C05
343
6C05
344
6C05
  0
DIMSTYLE
105
187EC
330
A
100
AcDbSymbolTableRecord
100
AcDbDimStyleTableRecord
  2
STD10$2
 70
     0
 40
0.1
 41
3.0
 42
0.5
 43
4.0
 44
1.0
 73
     0
 74
     0
 77
     1
 78
     9
 79
     2
140
3.0
141
0.0
143
0.0394
147
0.5
171
     4
172
     1
173
     1
176
   256
177
   256
179
     3
271
     3
272
     3
273
     8
274
     4
284
     9
340
11
341
6C05
343
6C05
344
6C05
  0
DIMSTYLE
105
187ED
330
A
100
AcDbSymbolTableRecord
100
AcDbDimStyleTableRecord
  2
STD10$0
 70
     0
 40
0.1
 41
3.0
 42
0.5
 43
4.0
 44
1.0
 73
     0
 74
     0
 77
     1
 78
     9
 79
     2
140
3.0
141
0.0
143
0.0394
147
0.5
171
     4
172
     1
173
     1
176
   256
177
   256
179
     3
271
     3
272
     3
273
     8
274
     4
284
     9
340
11
341
6C05
343
6C05
344
6C05
  0
ENDTAB
  0
TABLE
  2
BLOCK_RECORD
  5
1
330
0
100
AcDbSymbolTable
 70
    22
  0
BLOCK_RECORD
  5
20
330
1
100
AcDbSymbolTableRecord
100
AcDbBlockTableRecord
  2
*Model_Space
340
23
  0
BLOCK_RECORD
  5
11857
330
1
100
AcDbSymbolTableRecord
100
AcDbBlockTableRecord
  2
*Paper_Space
340
11858
  0
BLOCK_RECORD
  5
6C05
330
1
100
AcDbSymbolTableRecord
100
AcDbBlockTableRecord
  2
_OPEN
340
0
102
{BLKREFS
331
187F7
331
187F8
331
18800
331
18801
331
18809
331
1880A
331
18812
331
18813
331
1881B
331
1881C
331
18824
331
18825
331
18D9C
331
18D9D
331
18D90
331
18D91
331
18DB4
331
18DB5
331
18DC0
331
18DC1
331
18DCC
331
18DCD
331
18DA8
331
18DA9
331
19144
331
19145
331
19150
331
19151
331
1915C
331
1915D
331
19168
331
19169
331
19174
331
19175
331
19180
331
19181
331
1918B
331
1918C
331
19194
331
19195
331
1919D
331
1919E
331
191A6
331
191A7
331
191AF
331
191B0
331
191B8
331
191B9
102
}
  0
BLOCK_RECORD
  5
6C0B
330
1
100
AcDbSymbolTableRecord
100
AcDbBlockTableRecord
  2
aclt
340
0
102
{BLKREFS
331
6C37
331
187EF
102
}
  0
BLOCK_RECORD
  5
11D2B
330
1
100
AcDbSymbolTableRecord
100
AcDbBlockTableRecord
  2
*D2
340
0
  0
BLOCK_RECORD
  5
11D37
330
1
100
AcDbSymbolTableRecord
100
AcDbBlockTableRecord
  2
*D3
340
0
  0
BLOCK_RECORD
  5
11D88
330
1
100
AcDbSymbolTableRecord
100
AcDbBlockTableRecord
  2
*D4
340
0
  0
BLOCK_RECORD
  5
11D94
330
1
100
AcDbSymbolTableRecord
100
AcDbBlockTableRecord
  2
*D5
340
0
  0
BLOCK_RECORD
  5
11DB8
330
1
100
AcDbSymbolTableRecord
100
AcDbBlockTableRecord
  2
*D6
340
0
  0
BLOCK_RECORD
  5
11DC4
330
1
100
AcDbSymbolTableRecord
100
AcDbBlockTableRecord
  2
*D7
340
0
  0
BLOCK_RECORD
  5
187EE
330
1
100
AcDbSymbolTableRecord
100
AcDbBlockTableRecord
  2
lt1_1
340
0
102
{BLKREFS
331
187F3
102
}
  0
BLOCK_RECORD
  5
18D8C
330
1
100
AcDbSymbolTableRecord
100
AcDbBlockTableRecord
  2
*D9
340
0
  0
BLOCK_RECORD
  5
18D98
330
1
100
AcDbSymbolTableRecord
100
AcDbBlockTableRecord
  2
*D10
340
0
  0
BLOCK_RECORD
  5
18DA4
330
1
100
AcDbSymbolTableRecord
100
AcDbBlockTableRecord
  2
*D11
340
0
  0
BLOCK_RECORD
  5
18DB0
330
1
100
AcDbSymbolTableRecord
100
AcDbBlockTableRecord
  2
*D12
340
0
  0
BLOCK_RECORD
  5
18DBC
330
1
100
AcDbSymbolTableRecord
100
AcDbBlockTableRecord
  2
*D13
340
0
  0
BLOCK_RECORD
  5
18DC8
330
1
100
AcDbSymbolTableRecord
100
AcDbBlockTableRecord
  2
*D14
340
0
  0
BLOCK_RECORD
  5
19140
330
1
100
AcDbSymbolTableRecord
100
AcDbBlockTableRecord
  2
*D16
340
0
  0
BLOCK_RECORD
  5
1914C
330
1
100
AcDbSymbolTableRecord
100
AcDbBlockTableRecord
  2
*D17
340
0
  0
BLOCK_RECORD
  5
19158
330
1
100
AcDbSymbolTableRecord
100
AcDbBlockTableRecord
  2
*D18
340
0
  0
BLOCK_RECORD
  5
19164
330
1
100
AcDbSymbolTableRecord
100
AcDbBlockTableRecord
  2
*D19
340
0
  0
BLOCK_RECORD
  5
19170
330
1
100
AcDbSymbolTableRecord
100
AcDbBlockTableRecord
  2
*D20
340
0
  0
BLOCK_RECORD
  5
1917C
330
1
100
AcDbSymbolTableRecord
100
AcDbBlockTableRecord
  2
*D21
340
0
  0
ENDTAB
  0
ENDSEC
  0
SECTION
  2
BLOCKS
  0
BLOCK
  5
51
330
20
100
AcDbEntity
  8
0
100
AcDbBlockBegin
  2
*Model_Space
 70
     0
 10
0.0
 20
0.0
 30
0.0
  3
*Model_Space
  1

  0
ENDBLK
  5
52
330
20
100
AcDbEntity
  8
0
100
AcDbBlockEnd
  0
BLOCK
  5
11859
330
11857
100
AcDbEntity
 67
     1
  8
0
100
AcDbBlockBegin
  2
*Paper_Space
 70
     0
 10
0.0
 20
0.0
 30
0.0
  3
*Paper_Space
  1

  0
ENDBLK
  5
1185A
330
11857
100
AcDbEntity
 67
     1
  8
0
100
AcDbBlockEnd
  0
BLOCK
  5
6C06
330
6C05
100
AcDbEntity
  8
0
100
AcDbBlockBegin
  2
_OPEN
 70
     0
 10
0.0
 20
0.0
 30
0.0
  3
_OPEN
  1

  0
LINE
  5
6C07
330
6C05
100
AcDbEntity
  8
0
  6
ByBlock
 62
     0
100
AcDbLine
 10
-1.0
 20
0.1666666666666666
 30
0.0
 11
0.0
 21
0.0
 31
0.0
  0
LINE
  5
6C08
330
6C05
100
AcDbEntity
  8
0
  6
ByBlock
 62
     0
100
AcDbLine
 10
0.0
 20
0.0
 30
0.0
 11
-1.0
 21
-0.1666666666666666
 31
0.0
  0
LINE
  5
6C09
330
6C05
100
AcDbEntity
  8
0
  6
ByBlock
 62
     0
100
AcDbLine
 10
0.0
 20
0.0
 30
0.0
 11
-1.0
 21
0.0
 31
0.0
  0
ENDBLK
  5
6C0A
330
6C05
100
AcDbEntity
  8
0
100
AcDbBlockEnd
  0
BLOCK
  5
6C0C
330
6C0B
100
AcDbEntity
  8
0
100
AcDbBlockBegin
  2
aclt
 70
     0
 10
0.0
 20
0.0
 30
0.0
  3
aclt
  1

  0
ENDBLK
  5
6C0D
330
6C0B
100
AcDbEntity
  8
0
100
AcDbBlockEnd
  0
BLOCK
  5
11D35
330
11D2B
100
AcDbEntity
  8
0
100
AcDbBlockBegin
  2
*D2
 70
     1
 10
0.0
 20
0.0
 30
0.0
  3
*D2
  1

  0
LINE
  5
187F4
330
11D2B
100
AcDbEntity
  8
dim
 62
     7
370
    -2
100
AcDbLine
 10
125.8526340398999
 20
97.4756552345948
 30
0.0
 11
121.1352799670944
 21
97.4756552345948
 31
0.0
  0
LINE
  5
187F5
330
11D2B
100
AcDbEntity
  8
dim
 62
     7
370
    -2
100
AcDbLine
 10
140.1777116611999
 20
114.4756552345947
 30
0.0
 11
121.1352799670944
 21
114.4756552345947
 31
0.0
  0
LINE
  5
187F6
330
11D2B
100
AcDbEntity
  8
dim
 62
     7
370
    -2
100
AcDbLine
 10
122.1352799670944
 20
100.4756552345948
 30
0.0
 11
122.1352799670944
 21
111.4756552345947
 31
0.0
  0
INSERT
  5
187F7
330
11D2B
100
AcDbEntity
  8
dim
 62
     7
370
    -2
100
AcDbBlockReference
  2
_OPEN
 10
122.1352799670944
 20
97.4756552345948
 30
0.0
 41
3.0
 42
3.0
 43
3.0
 50
270.0
  0
INSERT
  5
187F8
330
11D2B
100
AcDbEntity
  8
dim
 62
     7
370
    -2
100
AcDbBlockReference
  2
_OPEN
 10
122.1352799670944
 20
114.4756552345947
 30
0.0
 41
3.0
 42
3.0
 43
3.0
 50
90.0
  0
MTEXT
  5
187F9
330
11D2B
100
AcDbEntity
  8
dim
 62
     0
100
AcDbMText
 10
120.1352799670942
 20
105.9756552345948
 30
0.0
 40
3.0
 41
0.0
 71
     5
 72
     1
  1
\A1;17
 11
0.0000000000000001
 21
1.0
 31
0.0
 73
     1
 44
1.0
  0
POINT
  5
187FA
330
11D2B
100
AcDbEntity
  8
DEFPOINTS
 62
     0
100
AcDbPoint
 10
126.3526340399
 20
97.4756552345948
 30
0.0
  0
POINT
  5
187FB
330
11D2B
100
AcDbEntity
  8
DEFPOINTS
 62
     0
100
AcDbPoint
 10
140.6777116611999
 20
114.4756552345947
 30
0.0
  0
POINT
  5
187FC
330
11D2B
100
AcDbEntity
  8
DEFPOINTS
 62
     0
100
AcDbPoint
 10
122.1352799670944
 20
114.4756552345947
 30
0.0
  0
ENDBLK
  5
11D36
330
11D2B
100
AcDbEntity
  8
0
100
AcDbBlockEnd
  0
BLOCK
  5
11D41
330
11D37
100
AcDbEntity
  8
0
100
AcDbBlockBegin
  2
*D3
 70
     1
 10
0.0
 20
0.0
 30
0.0
  3
*D3
  1

  0
LINE
  5
187FD
330
11D37
100
AcDbEntity
  8
dim
 62
     7
370
    -2
100
AcDbLine
 10
129.3526340399
 20
96.97565523459481
 30
0.0
 11
129.3526340399
 21
88.16013335505928
 31
0.0
  0
LINE
  5
187FE
330
11D37
100
AcDbEntity
  8
dim
 62
     7
370
    -2
100
AcDbLine
 10
229.3526340399
 20
96.97565523459481
 30
0.0
 11
229.3526340399
 21
88.16013335505928
 31
0.0
  0
LINE
  5
187FF
330
11D37
100
AcDbEntity
  8
dim
 62
     7
370
    -2
100
AcDbLine
 10
132.3526340399
 20
89.16013335505928
 30
0.0
 11
226.3526340399001
 21
89.16013335505928
 31
0.0
  0
INSERT
  5
18800
330
11D37
100
AcDbEntity
  8
dim
 62
     7
370
    -2
100
AcDbBlockReference
  2
_OPEN
 10
129.3526340399
 20
89.16013335505928
 30
0.0
 41
3.0
 42
3.0
 43
3.0
 50
180.0
  0
INSERT
  5
18801
330
11D37
100
AcDbEntity
  8
dim
 62
     7
370
    -2
100
AcDbBlockReference
  2
_OPEN
 10
229.3526340399
 20
89.16013335505928
 30
0.0
 41
3.0
 42
3.0
 43
3.0
  0
MTEXT
  5
18802
330
11D37
100
AcDbEntity
  8
dim
 62
     0
100
AcDbMText
 10
179.3526340399
 20
91.16013335505929
 30
0.0
 40
3.0
 41
0.0
 71
     5
 72
     1
  1
\A1;100
 73
     1
 44
1.0
  0
POINT
  5
18803
330
11D37
100
AcDbEntity
  8
DEFPOINTS
 62
     0
100
AcDbPoint
 10
129.3526340399
 20
97.4756552345948
 30
0.0
  0
POINT
  5
18804
330
11D37
100
AcDbEntity
  8
DEFPOINTS
 62
     0
100
AcDbPoint
 10
229.3526340399
 20
97.4756552345948
 30
0.0
  0
POINT
  5
18805
330
11D37
100
AcDbEntity
  8
DEFPOINTS
 62
     0
100
AcDbPoint
 10
229.3526340399
 20
89.16013335505928
 30
0.0
  0
ENDBLK
  5
11D42
330
11D37
100
AcDbEntity
  8
0
100
AcDbBlockEnd
  0
BLOCK
  5
11D92
330
11D88
100
AcDbEntity
  8
0
100
AcDbBlockBegin
  2
*D4
 70
     1
 10
0.0
 20
0.0
 30
0.0
  3
*D4
  1

  0
LINE
  5
18806
330
11D88
100
AcDbEntity
  8
dim
 62
     7
370
    -2
100
AcDbLine
 10
131.8412181342
 20
141.8772599750999
 30
0.0
 11
118.6507386201079
 21
141.8772599750999
 31
0.0
  0
LINE
  5
18807
330
11D88
100
AcDbEntity
  8
dim
 62
     7
370
    -2
100
AcDbLine
 10
131.8412181342
 20
241.8772599750999
 30
0.0
 11
118.6507386201083
 21
241.8772599750999
 31
0.0
  0
LINE
  5
18808
330
11D88
100
AcDbEntity
  8
dim
 62
     7
370
    -2
100
AcDbLine
 10
119.6507386201079
 20
144.8772599750999
 30
0.0
 11
119.6507386201083
 21
238.8772599750999
 31
0.0
  0
INSERT
  5
18809
330
11D88
100
AcDbEntity
  8
dim
 62
     7
370
    -2
100
AcDbBlockReference
  2
_OPEN
 10
119.6507386201079
 20
141.8772599750999
 30
0.0
 41
3.0
 42
3.0
 43
3.0
 50
270.0
  0
INSERT
  5
1880A
330
11D88
100
AcDbEntity
  8
dim
 62
     7
370
    -2
100
AcDbBlockReference
  2
_OPEN
 10
119.6507386201083
 20
241.8772599750999
 30
0.0
 41
3.0
 42
3.0
 43
3.0
 50
90.0
  0
MTEXT
  5
1880B
330
11D88
100
AcDbEntity
  8
dim
 62
     0
100
AcDbMText
 10
117.6507386201079
 20
191.8772599750999
 30
0.0
 40
3.0
 41
0.0
 71
     5
 72
     1
  1
\A1;100
 11
0.0000000000000001
 21
1.0
 31
0.0
 73
     1
 44
1.0
  0
POINT
  5
1880C
330
11D88
100
AcDbEntity
  8
DEFPOINTS
 62
     0
100
AcDbPoint
 10
132.3412181342
 20
141.8772599750999
 30
0.0
  0
POINT
  5
1880D
330
11D88
100
AcDbEntity
  8
DEFPOINTS
 62
     0
100
AcDbPoint
 10
132.3412181342
 20
241.8772599750999
 30
0.0
  0
POINT
  5
1880E
330
11D88
100
AcDbEntity
  8
DEFPOINTS
 62
     0
100
AcDbPoint
 10
119.6507386201083
 20
241.8772599750999
 30
0.0
  0
ENDBLK
  5
11D93
330
11D88
100
AcDbEntity
  8
0
100
AcDbBlockEnd
  0
BLOCK
  5
11D9E
330
11D94
100
AcDbEntity
  8
0
100
AcDbBlockBegin
  2
*D5
 70
     1
 10
0.0
 20
0.0
 30
0.0
  3
*D5
  1

  0
LINE
  5
1880F
330
11D94
100
AcDbEntity
  8
dim
 62
     7
370
    -2
100
AcDbLine
 10
129.3526340399
 20
239.3886758808999
 30
0.0
 11
129.3526340399
 21
251.4491006792468
 31
0.0
  0
LINE
  5
18810
330
11D94
100
AcDbEntity
  8
dim
 62
     7
370
    -2
100
AcDbLine
 10
229.3526340399
 20
239.3886758808999
 30
0.0
 11
229.3526340399
 21
251.4491006792468
 31
0.0
  0
LINE
  5
18811
330
11D94
100
AcDbEntity
  8
dim
 62
     7
370
    -2
100
AcDbLine
 10
132.3526340399
 20
250.4491006792469
 30
0.0
 11
226.3526340399001
 21
250.4491006792469
 31
0.0
  0
INSERT
  5
18812
330
11D94
100
AcDbEntity
  8
dim
 62
     7
370
    -2
100
AcDbBlockReference
  2
_OPEN
 10
129.3526340399
 20
250.4491006792469
 30
0.0
 41
3.0
 42
3.0
 43
3.0
 50
180.0
  0
INSERT
  5
18813
330
11D94
100
AcDbEntity
  8
dim
 62
     7
370
    -2
100
AcDbBlockReference
  2
_OPEN
 10
229.3526340399
 20
250.4491006792469
 30
0.0
 41
3.0
 42
3.0
 43
3.0
  0
MTEXT
  5
18814
330
11D94
100
AcDbEntity
  8
dim
 62
     0
100
AcDbMText
 10
179.3526340399
 20
252.4491006792469
 30
0.0
 40
3.0
 41
0.0
 71
     5
 72
     1
  1
\A1;100
 73
     1
 44
1.0
  0
POINT
  5
18815
330
11D94
100
AcDbEntity
  8
DEFPOINTS
 62
     0
100
AcDbPoint
 10
129.3526340399
 20
238.8886758808999
 30
0.0
  0
POINT
  5
18816
330
11D94
100
AcDbEntity
  8
DEFPOINTS
 62
     0
100
AcDbPoint
 10
229.3526340399
 20
238.8886758808999
 30
0.0
  0
POINT
  5
18817
330
11D94
100
AcDbEntity
  8
DEFPOINTS
 62
     0
100
AcDbPoint
 10
229.3526340399
 20
250.4491006792469
 30
0.0
  0
ENDBLK
  5
11D9F
330
11D94
100
AcDbEntity
  8
0
100
AcDbBlockEnd
  0
BLOCK
  5
11DC2
330
11DB8
100
AcDbEntity
  8
0
100
AcDbBlockBegin
  2
*D6
 70
     1
 10
0.0
 20
0.0
 30
0.0
  3
*D6
  1

  0
LINE
  5
18818
330
11DB8
100
AcDbEntity
  8
dim
 62
     7
370
    -2
100
AcDbLine
 10
285.1170776755072
 20
245.3772599750999
 30
0.0
 11
285.1170776755072
 21
250.767103792464
 31
0.0
  0
LINE
  5
18819
330
11DB8
100
AcDbEntity
  8
dim
 62
     7
370
    -2
100
AcDbLine
 10
268.117077675507
 20
217.0622351012
 30
0.0
 11
268.117077675507
 21
250.767103792464
 31
0.0
  0
LINE
  5
1881A
330
11DB8
100
AcDbEntity
  8
dim
 62
     7
370
    -2
100
AcDbLine
 10
282.1170776755073
 20
249.7671037924642
 30
0.0
 11
271.117077675507
 21
249.7671037924642
 31
0.0
  0
INSERT
  5
1881B
330
11DB8
100
AcDbEntity
  8
dim
 62
     7
370
    -2
100
AcDbBlockReference
  2
_OPEN
 10
285.1170776755072
 20
249.7671037924642
 30
0.0
 41
3.0
 42
3.0
 43
3.0
  0
INSERT
  5
1881C
330
11DB8
100
AcDbEntity
  8
dim
 62
     7
370
    -2
100
AcDbBlockReference
  2
_OPEN
 10
268.117077675507
 20
249.7671037924642
 30
0.0
 41
3.0
 42
3.0
 43
3.0
 50
180.0
  0
MTEXT
  5
1881D
330
11DB8
100
AcDbEntity
  8
dim
 62
     0
100
AcDbMText
 10
276.617077675507
 20
251.7671037924642
 30
0.0
 40
3.0
 41
0.0
 71
     5
 72
     1
  1
\A1;17
 73
     1
 44
1.0
  0
POINT
  5
1881E
330
11DB8
100
AcDbEntity
  8
DEFPOINTS
 62
     0
100
AcDbPoint
 10
285.1170776755072
 20
244.8772599750999
 30
0.0
  0
POINT
  5
1881F
330
11DB8
100
AcDbEntity
  8
DEFPOINTS
 62
     0
100
AcDbPoint
 10
268.117077675507
 20
216.5622351012
 30
0.0
  0
POINT
  5
18820
330
11DB8
100
AcDbEntity
  8
DEFPOINTS
 62
     0
100
AcDbPoint
 10
268.117077675507
 20
249.7671037924642
 30
0.0
  0
ENDBLK
  5
11DC3
330
11DB8
100
AcDbEntity
  8
0
100
AcDbBlockEnd
  0
BLOCK
  5
11DCE
330
11DC4
100
AcDbEntity
  8
0
100
AcDbBlockBegin
  2
*D7
 70
     1
 10
0.0
 20
0.0
 30
0.0
  3
*D7
  1

  0
LINE
  5
18821
330
11DC4
100
AcDbEntity
  8
dim
 62
     7
370
    -2
100
AcDbLine
 10
285.6170776755071
 20
141.8772599750999
 30
0.0
 11
295.3576415645078
 21
141.8772599750999
 31
0.0
  0
LINE
  5
18822
330
11DC4
100
AcDbEntity
  8
dim
 62
     7
370
    -2
100
AcDbLine
 10
285.6170776755071
 20
241.8772599750999
 30
0.0
 11
295.3576415645078
 21
241.8772599750999
 31
0.0
  0
LINE
  5
18823
330
11DC4
100
AcDbEntity
  8
dim
 62
     7
370
    -2
100
AcDbLine
 10
294.3576415645078
 20
144.8772599750999
 30
0.0
 11
294.3576415645078
 21
238.8772599750999
 31
0.0
  0
INSERT
  5
18824
330
11DC4
100
AcDbEntity
  8
dim
 62
     7
370
    -2
100
AcDbBlockReference
  2
_OPEN
 10
294.3576415645078
 20
141.8772599750999
 30
0.0
 41
3.0
 42
3.0
 43
3.0
 50
270.0
  0
INSERT
  5
18825
330
11DC4
100
AcDbEntity
  8
dim
 62
     7
370
    -2
100
AcDbBlockReference
  2
_OPEN
 10
294.3576415645078
 20
241.8772599750999
 30
0.0
 41
3.0
 42
3.0
 43
3.0
 50
90.0
  0
MTEXT
  5
18826
330
11DC4
100
AcDbEntity
  8
dim
 62
     0
100
AcDbMText
 10
292.3576415645078
 20
191.8772599750999
 30
0.0
 40
3.0
 41
0.0
 71
     5
 72
     1
  1
\A1;100
 11
0.0000000000000001
 21
1.0
 31
0.0
 73
     1
 44
1.0
  0
POINT
  5
18827
330
11DC4
100
AcDbEntity
  8
DEFPOINTS
 62
     0
100
AcDbPoint
 10
285.1170776755072
 20
141.8772599750999
 30
0.0
  0
POINT
  5
18828
330
11DC4
100
AcDbEntity
  8
DEFPOINTS
 62
     0
100
AcDbPoint
 10
285.1170776755072
 20
241.8772599750999
 30
0.0
  0
POINT
  5
18829
330
11DC4
100
AcDbEntity
  8
DEFPOINTS
 62
     0
100
AcDbPoint
 10
294.3576415645078
 20
241.8772599750999
 30
0.0
  0
ENDBLK
  5
11DCF
330
11DC4
100
AcDbEntity
  8
0
100
AcDbBlockEnd
  0
BLOCK
  5
187F0
330
187EE
100
AcDbEntity
  8
0
100
AcDbBlockBegin
  2
lt1_1
 70
     0
 10
0.0
 20
0.0
 30
0.0
  3
lt1_1
  1

  0
INSERT
  5
187EF
330
187EE
100
AcDbEntity
  8
0
  6
Continuous
100
AcDbBlockReference
  2
aclt
 10
0.0
 20
0.0
 30
0.0
  0
ENDBLK
  5
187F1
330
187EE
100
AcDbEntity
  8
0
100
AcDbBlockEnd
  0
BLOCK
  5
18D96
330
18D8C
100
AcDbEntity
  8
0
100
AcDbBlockBegin
  2
*D9
 70
     1
 10
0.0
 20
0.0
 30
0.0
  3
*D9
  1

  0
LINE
  5
18D8D
330
18D8C
100
AcDbEntity
  8
dim
 62
     7
370
    -2
100
AcDbLine
 10
125.8526340398999
 20
97.4756552345948
 30
0.0
 11
121.1352799670944
 21
97.4756552345948
 31
0.0
  0
LINE
  5
18D8E
330
18D8C
100
AcDbEntity
  8
dim
 62
     7
370
    -2
100
AcDbLine
 10
140.1777116611999
 20
114.4756552345947
 30
0.0
 11
121.1352799670944
 21
114.4756552345947
 31
0.0
  0
LINE
  5
18D8F
330
18D8C
100
AcDbEntity
  8
dim
 62
     7
370
    -2
100
AcDbLine
 10
122.1352799670944
 20
100.4756552345948
 30
0.0
 11
122.1352799670944
 21
111.4756552345947
 31
0.0
  0
INSERT
  5
18D90
330
18D8C
100
AcDbEntity
  8
dim
 62
     7
370
    -2
100
AcDbBlockReference
  2
_OPEN
 10
122.1352799670944
 20
97.4756552345948
 30
0.0
 41
3.0
 42
3.0
 43
3.0
 50
270.0
  0
INSERT
  5
18D91
330
18D8C
100
AcDbEntity
  8
dim
 62
     7
370
    -2
100
AcDbBlockReference
  2
_OPEN
 10
122.1352799670944
 20
114.4756552345947
 30
0.0
 41
3.0
 42
3.0
 43
3.0
 50
90.0
  0
MTEXT
  5
18D92
330
18D8C
100
AcDbEntity
  8
dim
 62
     0
100
AcDbMText
 10
120.1352799670942
 20
105.9756552345948
 30
0.0
 40
3.0
 41
0.0
 71
     5
 72
     1
  1
\A1;17
 11
0.0000000000000001
 21
1.0
 31
0.0
 73
     1
 44
1.0
  0
POINT
  5
18D93
330
18D8C
100
AcDbEntity
  8
DEFPOINTS
 62
     0
100
AcDbPoint
 10
126.3526340399
 20
97.4756552345948
 30
0.0
  0
POINT
  5
18D94
330
18D8C
100
AcDbEntity
  8
DEFPOINTS
 62
     0
100
AcDbPoint
 10
140.6777116611999
 20
114.4756552345947
 30
0.0
  0
POINT
  5
18D95
330
18D8C
100
AcDbEntity
  8
DEFPOINTS
 62
     0
100
AcDbPoint
 10
122.1352799670944
 20
114.4756552345947
 30
0.0
  0
ENDBLK
  5
18D97
330
18D8C
100
AcDbEntity
  8
0
100
AcDbBlockEnd
  0
BLOCK
  5
18DA2
330
18D98
100
AcDbEntity
  8
0
100
AcDbBlockBegin
  2
*D10
 70
     1
 10
0.0
 20
0.0
 30
0.0
  3
*D10
  1

  0
LINE
  5
18D99
330
18D98
100
AcDbEntity
  8
dim
 62
     7
370
    -2
100
AcDbLine
 10
129.3526340399
 20
96.97565523459481
 30
0.0
 11
129.3526340399
 21
88.16013335505928
 31
0.0
  0
LINE
  5
18D9A
330
18D98
100
AcDbEntity
  8
dim
 62
     7
370
    -2
100
AcDbLine
 10
229.3526340399
 20
96.97565523459481
 30
0.0
 11
229.3526340399
 21
88.16013335505928
 31
0.0
  0
LINE
  5
18D9B
330
18D98
100
AcDbEntity
  8
dim
 62
     7
370
    -2
100
AcDbLine
 10
132.3526340399
 20
89.16013335505928
 30
0.0
 11
226.3526340399001
 21
89.16013335505928
 31
0.0
  0
INSERT
  5
18D9C
330
18D98
100
AcDbEntity
  8
dim
 62
     7
370
    -2
100
AcDbBlockReference
  2
_OPEN
 10
129.3526340399
 20
89.16013335505928
 30
0.0
 41
3.0
 42
3.0
 43
3.0
 50
180.0
  0
INSERT
  5
18D9D
330
18D98
100
AcDbEntity
  8
dim
 62
     7
370
    -2
100
AcDbBlockReference
  2
_OPEN
 10
229.3526340399
 20
89.16013335505928
 30
0.0
 41
3.0
 42
3.0
 43
3.0
  0
MTEXT
  5
18D9E
330
18D98
100
AcDbEntity
  8
dim
 62
     0
100
AcDbMText
 10
179.3526340399
 20
91.16013335505929
 30
0.0
 40
3.0
 41
0.0
 71
     5
 72
     1
  1
\A1;100
 73
     1
 44
1.0
  0
POINT
  5
18D9F
330
18D98
100
AcDbEntity
  8
DEFPOINTS
 62
     0
100
AcDbPoint
 10
129.3526340399
 20
97.4756552345948
 30
0.0
  0
POINT
  5
18DA0
330
18D98
100
AcDbEntity
  8
DEFPOINTS
 62
     0
100
AcDbPoint
 10
229.3526340399
 20
97.4756552345948
 30
0.0
  0
POINT
  5
18DA1
330
18D98
100
AcDbEntity
  8
DEFPOINTS
 62
     0
100
AcDbPoint
 10
229.3526340399
 20
89.16013335505928
 30
0.0
  0
ENDBLK
  5
18DA3
330
18D98
100
AcDbEntity
  8
0
100
AcDbBlockEnd
  0
BLOCK
  5
18DAE
330
18DA4
100
AcDbEntity
  8
0
100
AcDbBlockBegin
  2
*D11
 70
     1
 10
0.0
 20
0.0
 30
0.0
  3
*D11
  1

  0
LINE
  5
18DA5
330
18DA4
100
AcDbEntity
  8
dim
 62
     7
370
    -2
100
AcDbLine
 10
131.8412181342
 20
141.8772599750999
 30
0.0
 11
118.6507386201079
 21
141.8772599750999
 31
0.0
  0
LINE
  5
18DA6
330
18DA4
100
AcDbEntity
  8
dim
 62
     7
370
    -2
100
AcDbLine
 10
131.8412181342
 20
241.8772599750999
 30
0.0
 11
118.6507386201083
 21
241.8772599750999
 31
0.0
  0
LINE
  5
18DA7
330
18DA4
100
AcDbEntity
  8
dim
 62
     7
370
    -2
100
AcDbLine
 10
119.6507386201079
 20
144.8772599750999
 30
0.0
 11
119.6507386201083
 21
238.8772599750999
 31
0.0
  0
INSERT
  5
18DA8
330
18DA4
100
AcDbEntity
  8
dim
 62
     7
370
    -2
100
AcDbBlockReference
  2
_OPEN
 10
119.6507386201079
 20
141.8772599750999
 30
0.0
 41
3.0
 42
3.0
 43
3.0
 50
270.0
  0
INSERT
  5
18DA9
330
18DA4
100
AcDbEntity
  8
dim
 62
     7
370
    -2
100
AcDbBlockReference
  2
_OPEN
 10
119.6507386201083
 20
241.8772599750999
 30
0.0
 41
3.0
 42
3.0
 43
3.0
 50
90.0
  0
MTEXT
  5
18DAA
330
18DA4
100
AcDbEntity
  8
dim
 62
     0
100
AcDbMText
 10
117.6507386201079
 20
191.8772599750999
 30
0.0
 40
3.0
 41
0.0
 71
     5
 72
     1
  1
\A1;100
 11
0.0000000000000001
 21
1.0
 31
0.0
 73
     1
 44
1.0
  0
POINT
  5
18DAB
330
18DA4
100
AcDbEntity
  8
DEFPOINTS
 62
     0
100
AcDbPoint
 10
132.3412181342
 20
141.8772599750999
 30
0.0
  0
POINT
  5
18DAC
330
18DA4
100
AcDbEntity
  8
DEFPOINTS
 62
     0
100
AcDbPoint
 10
132.3412181342
 20
241.8772599750999
 30
0.0
  0
POINT
  5
18DAD
330
18DA4
100
AcDbEntity
  8
DEFPOINTS
 62
     0
100
AcDbPoint
 10
119.6507386201083
 20
241.8772599750999
 30
0.0
  0
ENDBLK
  5
18DAF
330
18DA4
100
AcDbEntity
  8
0
100
AcDbBlockEnd
  0
BLOCK
  5
18DBA
330
18DB0
100
AcDbEntity
  8
0
100
AcDbBlockBegin
  2
*D12
 70
     1
 10
0.0
 20
0.0
 30
0.0
  3
*D12
  1

  0
LINE
  5
18DB1
330
18DB0
100
AcDbEntity
  8
dim
 62
     7
370
    -2
100
AcDbLine
 10
129.3526340399
 20
239.3886758808999
 30
0.0
 11
129.3526340399
 21
251.4491006792468
 31
0.0
  0
LINE
  5
18DB2
330
18DB0
100
AcDbEntity
  8
dim
 62
     7
370
    -2
100
AcDbLine
 10
229.3526340399
 20
239.3886758808999
 30
0.0
 11
229.3526340399
 21
251.4491006792468
 31
0.0
  0
LINE
  5
18DB3
330
18DB0
100
AcDbEntity
  8
dim
 62
     7
370
    -2
100
AcDbLine
 10
132.3526340399
 20
250.4491006792469
 30
0.0
 11
226.3526340399001
 21
250.4491006792469
 31
0.0
  0
INSERT
  5
18DB4
330
18DB0
100
AcDbEntity
  8
dim
 62
     7
370
    -2
100
AcDbBlockReference
  2
_OPEN
 10
129.3526340399
 20
250.4491006792469
 30
0.0
 41
3.0
 42
3.0
 43
3.0
 50
180.0
  0
INSERT
  5
18DB5
330
18DB0
100
AcDbEntity
  8
dim
 62
     7
370
    -2
100
AcDbBlockReference
  2
_OPEN
 10
229.3526340399
 20
250.4491006792469
 30
0.0
 41
3.0
 42
3.0
 43
3.0
  0
MTEXT
  5
18DB6
330
18DB0
100
AcDbEntity
  8
dim
 62
     0
100
AcDbMText
 10
179.3526340399
 20
252.4491006792469
 30
0.0
 40
3.0
 41
0.0
 71
     5
 72
     1
  1
\A1;100
 73
     1
 44
1.0
  0
POINT
  5
18DB7
330
18DB0
100
AcDbEntity
  8
DEFPOINTS
 62
     0
100
AcDbPoint
 10
129.3526340399
 20
238.8886758808999
 30
0.0
  0
POINT
  5
18DB8
330
18DB0
100
AcDbEntity
  8
DEFPOINTS
 62
     0
100
AcDbPoint
 10
229.3526340399
 20
238.8886758808999
 30
0.0
  0
POINT
  5
18DB9
330
18DB0
100
AcDbEntity
  8
DEFPOINTS
 62
     0
100
AcDbPoint
 10
229.3526340399
 20
250.4491006792469
 30
0.0
  0
ENDBLK
  5
18DBB
330
18DB0
100
AcDbEntity
  8
0
100
AcDbBlockEnd
  0
BLOCK
  5
18DC6
330
18DBC
100
AcDbEntity
  8
0
100
AcDbBlockBegin
  2
*D13
 70
     1
 10
0.0
 20
0.0
 30
0.0
  3
*D13
  1

  0
LINE
  5
18DBD
330
18DBC
100
AcDbEntity
  8
dim
 62
     7
370
    -2
100
AcDbLine
 10
285.1170776755072
 20
245.3772599750999
 30
0.0
 11
285.1170776755072
 21
250.767103792464
 31
0.0
  0
LINE
  5
18DBE
330
18DBC
100
AcDbEntity
  8
dim
 62
     7
370
    -2
100
AcDbLine
 10
268.117077675507
 20
217.0622351012
 30
0.0
 11
268.117077675507
 21
250.767103792464
 31
0.0
  0
LINE
  5
18DBF
330
18DBC
100
AcDbEntity
  8
dim
 62
     7
370
    -2
100
AcDbLine
 10
282.1170776755073
 20
249.7671037924642
 30
0.0
 11
271.117077675507
 21
249.7671037924642
 31
0.0
  0
INSERT
  5
18DC0
330
18DBC
100
AcDbEntity
  8
dim
 62
     7
370
    -2
100
AcDbBlockReference
  2
_OPEN
 10
285.1170776755072
 20
249.7671037924642
 30
0.0
 41
3.0
 42
3.0
 43
3.0
  0
INSERT
  5
18DC1
330
18DBC
100
AcDbEntity
  8
dim
 62
     7
370
    -2
100
AcDbBlockReference
  2
_OPEN
 10
268.117077675507
 20
249.7671037924642
 30
0.0
 41
3.0
 42
3.0
 43
3.0
 50
180.0
  0
MTEXT
  5
18DC2
330
18DBC
100
AcDbEntity
  8
dim
 62
     0
100
AcDbMText
 10
276.617077675507
 20
251.7671037924642
 30
0.0
 40
3.0
 41
0.0
 71
     5
 72
     1
  1
\A1;17
 73
     1
 44
1.0
  0
POINT
  5
18DC3
330
18DBC
100
AcDbEntity
  8
DEFPOINTS
 62
     0
100
AcDbPoint
 10
285.1170776755072
 20
244.8772599750999
 30
0.0
  0
POINT
  5
18DC4
330
18DBC
100
AcDbEntity
  8
DEFPOINTS
 62
     0
100
AcDbPoint
 10
268.117077675507
 20
216.5622351012
 30
0.0
  0
POINT
  5
18DC5
330
18DBC
100
AcDbEntity
  8
DEFPOINTS
 62
     0
100
AcDbPoint
 10
268.117077675507
 20
249.7671037924642
 30
0.0
  0
ENDBLK
  5
18DC7
330
18DBC
100
AcDbEntity
  8
0
100
AcDbBlockEnd
  0
BLOCK
  5
18DD2
330
18DC8
100
AcDbEntity
  8
0
100
AcDbBlockBegin
  2
*D14
 70
     1
 10
0.0
 20
0.0
 30
0.0
  3
*D14
  1

  0
LINE
  5
18DC9
330
18DC8
100
AcDbEntity
  8
dim
 62
     7
370
    -2
100
AcDbLine
 10
285.6170776755071
 20
141.8772599750999
 30
0.0
 11
295.3576415645078
 21
141.8772599750999
 31
0.0
  0
LINE
  5
18DCA
330
18DC8
100
AcDbEntity
  8
dim
 62
     7
370
    -2
100
AcDbLine
 10
285.6170776755071
 20
241.8772599750999
 30
0.0
 11
295.3576415645078
 21
241.8772599750999
 31
0.0
  0
LINE
  5
18DCB
330
18DC8
100
AcDbEntity
  8
dim
 62
     7
370
    -2
100
AcDbLine
 10
294.3576415645078
 20
144.8772599750999
 30
0.0
 11
294.3576415645078
 21
238.8772599750999
 31
0.0
  0
INSERT
  5
18DCC
330
18DC8
100
AcDbEntity
  8
dim
 62
     7
370
    -2
100
AcDbBlockReference
  2
_OPEN
 10
294.3576415645078
 20
141.8772599750999
 30
0.0
 41
3.0
 42
3.0
 43
3.0
 50
270.0
  0
INSERT
  5
18DCD
330
18DC8
100
AcDbEntity
  8
dim
 62
     7
370
    -2
100
AcDbBlockReference
  2
_OPEN
 10
294.3576415645078
 20
241.8772599750999
 30
0.0
 41
3.0
 42
3.0
 43
3.0
 50
90.0
  0
MTEXT
  5
18DCE
330
18DC8
100
AcDbEntity
  8
dim
 62
     0
100
AcDbMText
 10
292.3576415645078
 20
191.8772599750999
 30
0.0
 40
3.0
 41
0.0
 71
     5
 72
     1
  1
\A1;100
 11
0.0000000000000001
 21
1.0
 31
0.0
 73
     1
 44
1.0
  0
POINT
  5
18DCF
330
18DC8
100
AcDbEntity
  8
DEFPOINTS
 62
     0
100
AcDbPoint
 10
285.1170776755072
 20
141.8772599750999
 30
0.0
  0
POINT
  5
18DD0
330
18DC8
100
AcDbEntity
  8
DEFPOINTS
 62
     0
100
AcDbPoint
 10
285.1170776755072
 20
241.8772599750999
 30
0.0
  0
POINT
  5
18DD1
330
18DC8
100
AcDbEntity
  8
DEFPOINTS
 62
     0
100
AcDbPoint
 10
294.3576415645078
 20
241.8772599750999
 30
0.0
  0
ENDBLK
  5
18DD3
330
18DC8
100
AcDbEntity
  8
0
100
AcDbBlockEnd
  0
BLOCK
  5
1914A
330
19140
100
AcDbEntity
  8
0
100
AcDbBlockBegin
  2
*D16
 70
     1
 10
0.0
 20
0.0
 30
0.0
  3
*D16
  1

  0
LINE
  5
19188
330
19140
100
AcDbEntity
  8
dim
 62
     7
370
    -2
100
AcDbLine
 10
826.9729101196627
 20
-24.67474553001361
 30
0.0
 11
836.7134740086633
 21
-24.67474553001361
 31
0.0
  0
LINE
  5
19189
330
19140
100
AcDbEntity
  8
dim
 62
     7
370
    -2
100
AcDbLine
 10
826.9729101196627
 20
75.32525446998639
 30
0.0
 11
836.7134740086633
 21
75.32525446998639
 31
0.0
  0
LINE
  5
1918A
330
19140
100
AcDbEntity
  8
dim
 62
     7
370
    -2
100
AcDbLine
 10
835.7134740086634
 20
-21.67474553001361
 30
0.0
 11
835.7134740086634
 21
72.32525446998639
 31
0.0
  0
INSERT
  5
1918B
330
19140
100
AcDbEntity
  8
dim
 62
     7
370
    -2
100
AcDbBlockReference
  2
_OPEN
 10
835.7134740086634
 20
-24.67474553001361
 30
0.0
 41
3.0
 42
3.0
 43
3.0
 50
270.0
  0
INSERT
  5
1918C
330
19140
100
AcDbEntity
  8
dim
 62
     7
370
    -2
100
AcDbBlockReference
  2
_OPEN
 10
835.7134740086634
 20
75.32525446998639
 30
0.0
 41
3.0
 42
3.0
 43
3.0
 50
90.0
  0
MTEXT
  5
1918D
330
19140
100
AcDbEntity
  8
dim
 62
     0
100
AcDbMText
 10
833.7134740086634
 20
25.32525446998652
 30
0.0
 40
3.0
 41
0.0
 71
     5
 72
     1
  1
\A1;100
 11
0.0000000000000001
 21
1.0
 31
0.0
 73
     1
 44
1.0
  0
POINT
  5
1918E
330
19140
100
AcDbEntity
  8
DEFPOINTS
 62
     0
100
AcDbPoint
 10
826.4729101196627
 20
-24.67474553001361
 30
0.0
  0
POINT
  5
1918F
330
19140
100
AcDbEntity
  8
DEFPOINTS
 62
     0
100
AcDbPoint
 10
826.4729101196627
 20
75.32525446998639
 30
0.0
  0
POINT
  5
19190
330
19140
100
AcDbEntity
  8
DEFPOINTS
 62
     0
100
AcDbPoint
 10
835.7134740086634
 20
75.32525446998639
 30
0.0
  0
ENDBLK
  5
1914B
330
19140
100
AcDbEntity
  8
0
100
AcDbBlockEnd
  0
BLOCK
  5
19156
330
1914C
100
AcDbEntity
  8
0
100
AcDbBlockBegin
  2
*D17
 70
     1
 10
0.0
 20
0.0
 30
0.0
  3
*D17
  1

  0
LINE
  5
19191
330
1914C
100
AcDbEntity
  8
dim
 62
     7
370
    -2
100
AcDbLine
 10
673.1970505783556
 20
-24.67474553001361
 30
0.0
 11
660.0065710642638
 21
-24.6747455300136
 31
0.0
  0
LINE
  5
19192
330
1914C
100
AcDbEntity
  8
dim
 62
     7
370
    -2
100
AcDbLine
 10
673.1970505783556
 20
75.32525446998639
 30
0.0
 11
660.0065710642638
 21
75.3252544699864
 31
0.0
  0
LINE
  5
19193
330
1914C
100
AcDbEntity
  8
dim
 62
     7
370
    -2
100
AcDbLine
 10
661.0065710642638
 20
-21.6747455300136
 30
0.0
 11
661.0065710642638
 21
72.3252544699864
 31
0.0
  0
INSERT
  5
19194
330
1914C
100
AcDbEntity
  8
dim
 62
     7
370
    -2
100
AcDbBlockReference
  2
_OPEN
 10
661.0065710642638
 20
-24.6747455300136
 30
0.0
 41
3.0
 42
3.0
 43
3.0
 50
270.0
  0
INSERT
  5
19195
330
1914C
100
AcDbEntity
  8
dim
 62
     7
370
    -2
100
AcDbBlockReference
  2
_OPEN
 10
661.0065710642638
 20
75.3252544699864
 30
0.0
 41
3.0
 42
3.0
 43
3.0
 50
90.0
  0
MTEXT
  5
19196
330
1914C
100
AcDbEntity
  8
dim
 62
     0
100
AcDbMText
 10
659.0065710642639
 20
25.3252544699865
 30
0.0
 40
3.0
 41
0.0
 71
     5
 72
     1
  1
\A1;100
 11
0.0000000000000001
 21
1.0
 31
0.0
 73
     1
 44
1.0
  0
POINT
  5
19197
330
1914C
100
AcDbEntity
  8
DEFPOINTS
 62
     0
100
AcDbPoint
 10
673.6970505783556
 20
-24.67474553001361
 30
0.0
  0
POINT
  5
19198
330
1914C
100
AcDbEntity
  8
DEFPOINTS
 62
     0
100
AcDbPoint
 10
673.6970505783556
 20
75.32525446998639
 30
0.0
  0
POINT
  5
19199
330
1914C
100
AcDbEntity
  8
DEFPOINTS
 62
     0
100
AcDbPoint
 10
661.0065710642638
 20
75.3252544699864
 30
0.0
  0
ENDBLK
  5
19157
330
1914C
100
AcDbEntity
  8
0
100
AcDbBlockEnd
  0
BLOCK
  5
19162
330
19158
100
AcDbEntity
  8
0
100
AcDbBlockBegin
  2
*D18
 70
     1
 10
0.0
 20
0.0
 30
0.0
  3
*D18
  1

  0
LINE
  5
1919A
330
19158
100
AcDbEntity
  8
dim
 62
     7
370
    -2
100
AcDbLine
 10
670.7084664840556
 20
-69.57635027051873
 30
0.0
 11
670.7084664840556
 21
-78.39187215005424
 31
0.0
  0
LINE
  5
1919B
330
19158
100
AcDbEntity
  8
dim
 62
     7
370
    -2
100
AcDbLine
 10
770.7084664840556
 20
-69.57635027051873
 30
0.0
 11
770.7084664840556
 21
-78.39187215005424
 31
0.0
  0
LINE
  5
1919C
330
19158
100
AcDbEntity
  8
dim
 62
     7
370
    -2
100
AcDbLine
 10
673.7084664840556
 20
-77.39187215005424
 30
0.0
 11
767.7084664840556
 21
-77.39187215005424
 31
0.0
  0
INSERT
  5
1919D
330
19158
100
AcDbEntity
  8
dim
 62
     7
370
    -2
100
AcDbBlockReference
  2
_OPEN
 10
670.7084664840556
 20
-77.39187215005424
 30
0.0
 41
3.0
 42
3.0
 43
3.0
 50
180.0
  0
INSERT
  5
1919E
330
19158
100
AcDbEntity
  8
dim
 62
     7
370
    -2
100
AcDbBlockReference
  2
_OPEN
 10
770.7084664840556
 20
-77.39187215005424
 30
0.0
 41
3.0
 42
3.0
 43
3.0
  0
MTEXT
  5
1919F
330
19158
100
AcDbEntity
  8
dim
 62
     0
100
AcDbMText
 10
720.7084664840556
 20
-75.39187215005424
 30
0.0
 40
3.0
 41
0.0
 71
     5
 72
     1
  1
\A1;100
 73
     1
 44
1.0
  0
POINT
  5
191A0
330
19158
100
AcDbEntity
  8
DEFPOINTS
 62
     0
100
AcDbPoint
 10
670.7084664840556
 20
-69.07635027051873
 30
0.0
  0
POINT
  5
191A1
330
19158
100
AcDbEntity
  8
DEFPOINTS
 62
     0
100
AcDbPoint
 10
770.7084664840556
 20
-69.07635027051873
 30
0.0
  0
POINT
  5
191A2
330
19158
100
AcDbEntity
  8
DEFPOINTS
 62
     0
100
AcDbPoint
 10
770.7084664840556
 20
-77.39187215005424
 30
0.0
  0
ENDBLK
  5
19163
330
19158
100
AcDbEntity
  8
0
100
AcDbBlockEnd
  0
BLOCK
  5
1916E
330
19164
100
AcDbEntity
  8
0
100
AcDbBlockBegin
  2
*D19
 70
     1
 10
0.0
 20
0.0
 30
0.0
  3
*D19
  1

  0
LINE
  5
191A3
330
19164
100
AcDbEntity
  8
dim
 62
     7
370
    -2
100
AcDbLine
 10
667.2084664840554
 20
-69.07635027051873
 30
0.0
 11
662.49111241125
 21
-69.07635027051873
 31
0.0
  0
LINE
  5
191A4
330
19164
100
AcDbEntity
  8
dim
 62
     7
370
    -2
100
AcDbLine
 10
681.5335441053555
 20
-52.07635027051882
 30
0.0
 11
662.49111241125
 21
-52.07635027051882
 31
0.0
  0
LINE
  5
191A5
330
19164
100
AcDbEntity
  8
dim
 62
     7
370
    -2
100
AcDbLine
 10
663.49111241125
 20
-66.07635027051873
 30
0.0
 11
663.49111241125
 21
-55.07635027051882
 31
0.0
  0
INSERT
  5
191A6
330
19164
100
AcDbEntity
  8
dim
 62
     7
370
    -2
100
AcDbBlockReference
  2
_OPEN
 10
663.49111241125
 20
-69.07635027051873
 30
0.0
 41
3.0
 42
3.0
 43
3.0
 50
270.0
  0
INSERT
  5
191A7
330
19164
100
AcDbEntity
  8
dim
 62
     7
370
    -2
100
AcDbBlockReference
  2
_OPEN
 10
663.49111241125
 20
-52.07635027051882
 30
0.0
 41
3.0
 42
3.0
 43
3.0
 50
90.0
  0
MTEXT
  5
191A8
330
19164
100
AcDbEntity
  8
dim
 62
     0
100
AcDbMText
 10
661.49111241125
 20
-60.57635027051867
 30
0.0
 40
3.0
 41
0.0
 71
     5
 72
     1
  1
\A1;17
 11
0.0000000000000001
 21
1.0
 31
0.0
 73
     1
 44
1.0
  0
POINT
  5
191A9
330
19164
100
AcDbEntity
  8
DEFPOINTS
 62
     0
100
AcDbPoint
 10
667.7084664840555
 20
-69.07635027051873
 30
0.0
  0
POINT
  5
191AA
330
19164
100
AcDbEntity
  8
DEFPOINTS
 62
     0
100
AcDbPoint
 10
682.0335441053555
 20
-52.07635027051882
 30
0.0
  0
POINT
  5
191AB
330
19164
100
AcDbEntity
  8
DEFPOINTS
 62
     0
100
AcDbPoint
 10
663.49111241125
 20
-52.07635027051882
 30
0.0
  0
ENDBLK
  5
1916F
330
19164
100
AcDbEntity
  8
0
100
AcDbBlockEnd
  0
BLOCK
  5
1917A
330
19170
100
AcDbEntity
  8
0
100
AcDbBlockBegin
  2
*D20
 70
     1
 10
0.0
 20
0.0
 30
0.0
  3
*D20
  1

  0
LINE
  5
191AC
330
19170
100
AcDbEntity
  8
dim
 62
     7
370
    -2
100
AcDbLine
 10
670.7084664840556
 20
72.83667037578641
 30
0.0
 11
670.7084664840556
 21
84.89709517413336
 31
0.0
  0
LINE
  5
191AD
330
19170
100
AcDbEntity
  8
dim
 62
     7
370
    -2
100
AcDbLine
 10
770.7084664840556
 20
72.83667037578641
 30
0.0
 11
770.7084664840556
 21
84.89709517413336
 31
0.0
  0
LINE
  5
191AE
330
19170
100
AcDbEntity
  8
dim
 62
     7
370
    -2
100
AcDbLine
 10
673.7084664840556
 20
83.89709517413336
 30
0.0
 11
767.7084664840556
 21
83.89709517413336
 31
0.0
  0
INSERT
  5
191AF
330
19170
100
AcDbEntity
  8
dim
 62
     7
370
    -2
100
AcDbBlockReference
  2
_OPEN
 10
670.7084664840556
 20
83.89709517413336
 30
0.0
 41
3.0
 42
3.0
 43
3.0
 50
180.0
  0
INSERT
  5
191B0
330
19170
100
AcDbEntity
  8
dim
 62
     7
370
    -2
100
AcDbBlockReference
  2
_OPEN
 10
770.7084664840556
 20
83.89709517413336
 30
0.0
 41
3.0
 42
3.0
 43
3.0
  0
MTEXT
  5
191B1
330
19170
100
AcDbEntity
  8
dim
 62
     0
100
AcDbMText
 10
720.7084664840556
 20
85.89709517413337
 30
0.0
 40
3.0
 41
0.0
 71
     5
 72
     1
  1
\A1;100
 73
     1
 44
1.0
  0
POINT
  5
191B2
330
19170
100
AcDbEntity
  8
DEFPOINTS
 62
     0
100
AcDbPoint
 10
670.7084664840556
 20
72.33667037578641
 30
0.0
  0
POINT
  5
191B3
330
19170
100
AcDbEntity
  8
DEFPOINTS
 62
     0
100
AcDbPoint
 10
770.7084664840556
 20
72.33667037578641
 30
0.0
  0
POINT
  5
191B4
330
19170
100
AcDbEntity
  8
DEFPOINTS
 62
     0
100
AcDbPoint
 10
770.7084664840556
 20
83.89709517413336
 30
0.0
  0
ENDBLK
  5
1917B
330
19170
100
AcDbEntity
  8
0
100
AcDbBlockEnd
  0
BLOCK
  5
19186
330
1917C
100
AcDbEntity
  8
0
100
AcDbBlockBegin
  2
*D21
 70
     1
 10
0.0
 20
0.0
 30
0.0
  3
*D21
  1

  0
LINE
  5
191B5
330
1917C
100
AcDbEntity
  8
dim
 62
     7
370
    -2
100
AcDbLine
 10
826.4729101196627
 20
78.82525446998639
 30
0.0
 11
826.4729101196627
 21
84.21509828735066
 31
0.0
  0
LINE
  5
191B6
330
1917C
100
AcDbEntity
  8
dim
 62
     7
370
    -2
100
AcDbLine
 10
809.4729101196627
 20
50.51022959608648
 30
0.0
 11
809.4729101196627
 21
84.21509828735066
 31
0.0
  0
LINE
  5
191B7
330
1917C
100
AcDbEntity
  8
dim
 62
     7
370
    -2
100
AcDbLine
 10
823.4729101196627
 20
83.21509828735065
 30
0.0
 11
812.4729101196626
 21
83.21509828735065
 31
0.0
  0
INSERT
  5
191B8
330
1917C
100
AcDbEntity
  8
dim
 62
     7
370
    -2
100
AcDbBlockReference
  2
_OPEN
 10
826.4729101196627
 20
83.21509828735065
 30
0.0
 41
3.0
 42
3.0
 43
3.0
  0
INSERT
  5
191B9
330
1917C
100
AcDbEntity
  8
dim
 62
     7
370
    -2
100
AcDbBlockReference
  2
_OPEN
 10
809.4729101196627
 20
83.21509828735065
 30
0.0
 41
3.0
 42
3.0
 43
3.0
 50
180.0
  0
MTEXT
  5
191BA
330
1917C
100
AcDbEntity
  8
dim
 62
     0
100
AcDbMText
 10
817.9729101196626
 20
85.21509828735066
 30
0.0
 40
3.0
 41
0.0
 71
     5
 72
     1
  1
\A1;17
 73
     1
 44
1.0
  0
POINT
  5
191BB
330
1917C
100
AcDbEntity
  8
DEFPOINTS
 62
     0
100
AcDbPoint
 10
826.4729101196627
 20
78.32525446998639
 30
0.0
  0
POINT
  5
191BC
330
1917C
100
AcDbEntity
  8
DEFPOINTS
 62
     0
100
AcDbPoint
 10
809.4729101196627
 20
50.01022959608647
 30
0.0
  0
POINT
  5
191BD
330
1917C
100
AcDbEntity
  8
DEFPOINTS
 62
     0
100
AcDbPoint
 10
809.4729101196627
 20
83.21509828735065
 30
0.0
  0
ENDBLK
  5
19187
330
1917C
100
AcDbEntity
  8
0
100
AcDbBlockEnd
  0
ENDSEC
  0
SECTION
  2
ENTITIES
  0
INSERT
  5
6C37
330
20
100
AcDbEntity
  8
0
  6
Continuous
100
AcDbBlockReference
  2
aclt
 10
0.0
 20
0.0
 30
0.0
  0
DIMENSION
  5
11AF9
330
20
100
AcDbEntity
  8
dim
100
AcDbDimension
  2
*D2
 10
122.1352799670944
 20
114.4756552345947
 30
0.0
 11
120.1352799670942
 21
105.9756552345948
 31
0.0
 70
    32
 71
     5
 42
17.0
  3
STD01$0
100
AcDbAlignedDimension
 13
126.3526340399
 23
97.4756552345948
 33
0.0
 14
140.6777116611999
 24
114.4756552345947
 34
0.0
 50
90.0
100
AcDbRotatedDimension
  0
DIMENSION
  5
11AFC
330
20
100
AcDbEntity
  8
dim
100
AcDbDimension
  2
*D3
 10
229.3526340399
 20
89.16013335505928
 30
0.0
 11
179.3526340399
 21
91.16013335505929
 31
0.0
 70
    32
 71
     5
 42
100.0
  3
STD01$0
100
AcDbAlignedDimension
 13
129.3526340399
 23
97.4756552345948
 33
0.0
 14
229.3526340399
 24
97.4756552345948
 34
0.0
100
AcDbRotatedDimension
  0
LINE
  5
11B0B
330
20
100
AcDbEntity
  8
3
  6
Continuous
100
AcDbLine
 10
313.0726231899098
 20
153.5314439526118
 30
0.0
 11
353.6507142758926
 21
153.5314439526118
 31
0.0
  0
LINE
  5
11B0C
330
20
100
AcDbEntity
  8
3
  6
Continuous
100
AcDbLine
 10
300.4774003658498
 20
161.0314439526115
 30
0.0
 11
353.6507142758926
 21
161.0314439526115
 31
0.0
  0
LINE
  5
11B0D
330
20
100
AcDbEntity
  8
3
  6
Continuous
100
AcDbLine
 10
300.4774003658498
 20
168.5314439526115
 30
0.0
 11
353.6507142758926
 21
168.5314439526115
 31
0.0
  0
MTEXT
  5
11B0E
102
{ACAD_XDICTIONARY
360
187C7
102
}
330
20
100
AcDbEntity
  8
3
100
AcDbMText
 10
300.6246748471343
 20
172.2047127614072
 30
0.0
 40
3.0
 41
55.5006
 71
     1
 72
     5
  1
註）　１　ＰＣ\P　　　２　ＰＣ\P　　　　一般公差　±1.0\P　　　　表面アラサ　\U+25BD\U+25BD\U+25BD
 73
     1
 44
1.5
  0
LINE
  5
11B0F
330
20
100
AcDbEntity
  8
3
  6
Continuous
100
AcDbLine
 10
313.0726231899098
 20
146.0314439526118
 30
0.0
 11
348.1915059573396
 21
146.0314439526118
 31
0.0
  0
CIRCLE
  5
11B10
330
20
100
AcDbEntity
  8
3
 62
     7
100
AcDbCircle
 10
312.9380737709416
 20
163.0141933029026
 30
0.0
 40
2.0
  0
CIRCLE
  5
11B11
330
20
100
AcDbEntity
  8
3
 62
     7
100
AcDbCircle
 10
312.8703482774746
 20
170.5956112978325
 30
0.0
 40
2.0
  0
MTEXT
  5
11B12
330
20
100
AcDbEntity
  8
3
100
AcDbMText
 10
269.913350601879
 20
116.3213369650287
 30
0.0
 40
4.0
 41
23.82046881679582
 71
     1
 72
     5
  1
セーフアイ
 73
     1
 44
1.0
  0
LINE
  5
11B13
330
20
100
AcDbEntity
  8
3
100
AcDbLine
 10
255.369454205419
 20
98.5323846171015
 30
0.0
 11
295.369454205419
 21
98.5323846171015
 31
0.0
  0
LINE
  5
11B14
330
20
100
AcDbEntity
  8
3
100
AcDbLine
 10
255.369454205419
 20
122.5323846171012
 30
0.0
 11
355.369454205419
 21
122.5323846171012
 31
0.0
  0
LINE
  5
11B15
330
20
100
AcDbEntity
  8
3
100
AcDbLine
 10
255.369454205419
 20
106.5323846171015
 30
0.0
 11
355.369454205419
 21
106.5323846171015
 31
0.0
  0
LINE
  5
11B16
330
20
100
AcDbEntity
  8
3
100
AcDbLine
 10
255.369454205419
 20
90.53238461710149
 30
0.0
 11
355.369454205419
 21
90.53238461710149
 31
0.0
  0
LINE
  5
11B17
330
20
100
AcDbEntity
  8
3
100
AcDbLine
 10
255.369454205419
 20
122.5323846171012
 30
0.0
 11
255.369454205419
 21
90.53238461710149
 31
0.0
  0
LINE
  5
11B18
330
20
100
AcDbEntity
  8
3
100
AcDbLine
 10
260.3694542054189
 20
122.5323846171012
 30
0.0
 11
260.3694542054189
 21
90.53238461710149
 31
0.0
  0
MTEXT
  5
11B19
330
20
100
AcDbEntity
  8
3
100
AcDbMText
 10
256.2822874757246
 20
98.14615838018291
 30
0.0
 40
2.799999999999998
 41
3.9807
 71
     1
 72
     5
  1
尺度
 73
     1
 44
1.0
  0
MTEXT
  5
11B1A
330
20
100
AcDbEntity
  8
3
100
AcDbMText
 10
256.2822874757246
 20
106.5571315073254
 30
0.0
 40
2.799999999999998
 41
3.9807
 71
     1
 72
     5
  1
材料
 73
     1
 44
1.0
  0
MTEXT
  5
11B1B
330
20
100
AcDbEntity
  8
3
100
AcDbMText
 10
256.160093040233
 20
120.8804143599228
 30
0.0
 40
2.799999999999998
 41
4.0944
 71
     1
 72
     5
  1
部品図
 73
     1
 44
1.0
  0
MTEXT
  5
11B1C
330
20
100
AcDbEntity
  8
3
100
AcDbMText
 10
276.1099474245771
 20
98.14615838018291
 30
0.0
 40
2.799999999999998
 41
3.9807
 71
     1
 72
     5
  1
単位
 73
     1
 44
1.0
  0
MTEXT
  5
11B1D
330
20
100
AcDbEntity
  8
3
100
AcDbMText
 10
276.1099474245771
 20
106.5571315073254
 30
0.0
 40
2.799999999999998
 41
3.9807
 71
     1
 72
     5
  1
個数
 73
     1
 44
1.0
  0
LINE
  5
11B1E
330
20
100
AcDbEntity
  8
3
100
AcDbLine
 10
275.369454205419
 20
106.5323846171015
 30
0.0
 11
275.369454205419
 21
90.53238461710149
 31
0.0
  0
MTEXT
  5
11B1F
330
20
100
AcDbEntity
  8
3
100
AcDbMText
 10
264.6300377320973
 20
96.19480947916144
 30
0.0
 40
3.0
 41
8.030624239295669
 71
     1
 72
     5
  1
1/1
 73
     1
 44
1.0
  0
LINE
  5
11B20
330
20
100
AcDbEntity
  8
3
100
AcDbLine
 10
280.369454205419
 20
106.5323846171015
 30
0.0
 11
280.369454205419
 21
90.53238461710149
 31
0.0
  0
MTEXT
  5
11B21
330
20
100
AcDbEntity
  8
3
100
AcDbMText
 10
284.098216703636
 20
96.19480947916144
 30
0.0
 40
3.0
 41
8.030599999999997
 71
     1
 72
     5
  1
m/m
 73
     1
 44
1.0
  0
MTEXT
  5
11B31
330
20
100
AcDbEntity
  8
3
100
AcDbMText
 10
323.3529818305456
 20
116.7879351712449
 30
0.0
 40
4.0
 41
21.07853875442573
 71
     1
 72
     5
  1
ＳＢ
 73
     1
 44
1.0
  0
LINE
  5
11B32
330
20
100
AcDbEntity
  8
3
100
AcDbLine
 10
305.369454205419
 20
122.5323846171012
 30
0.0
 11
305.369454205419
 21
90.53238461710149
 31
0.0
  0
LINE
  5
11B33
330
20
100
AcDbEntity
  8
3
100
AcDbLine
 10
310.3694542054191
 20
122.5323846171012
 30
0.0
 11
310.3694542054191
 21
90.53238461710149
 31
0.0
  0
MTEXT
  5
11B35
330
20
100
AcDbEntity
  8
3
100
AcDbMText
 10
306.0402098657641
 20
104.602867694972
 30
0.0
 40
2.799999999999998
 41
4.0944
 71
     1
 72
     5
  1
品　　名
 73
     1
 44
1.0
  0
MTEXT
  5
11B36
330
20
100
AcDbEntity
  8
3
100
AcDbMText
 10
299.0643791417558
 20
98.01884810225452
 30
0.0
 40
3.0
 41
6.3272
 71
     1
 72
     5
  1
/
 73
     1
 44
1.0
  0
LINE
  5
11B37
330
20
100
AcDbEntity
  8
3
100
AcDbLine
 10
295.369454205419
 20
106.5323846171015
 30
0.0
 11
295.369454205419
 21
90.53238461710149
 31
0.0
  0
MTEXT
  5
11B38
330
20
100
AcDbEntity
  8
3
100
AcDbMText
 10
296.5301338289356
 20
105.8909404919122
 30
0.0
 40
2.799999999999998
 41
9.237
 71
     1
 72
     5
  1
部番
 73
     1
 44
1.0
  0
LINE
  5
11B39
330
20
100
AcDbEntity
  8
3
100
AcDbLine
 10
295.369454205419
 20
102.5323846171015
 30
0.0
 11
305.369454205419
 21
102.5323846171015
 31
0.0
  0
MTEXT
  5
11B3B
330
20
100
AcDbEntity
  8
3
100
AcDbMText
 10
305.8947872151433
 20
120.5897440723571
 30
0.0
 40
2.799999999999998
 41
4.0944
 71
     1
 72
     5
  1
図　　番
 73
     1
 44
1.0
  0
LINE
  5
11B3C
330
20
100
AcDbEntity
  8
3
100
AcDbLine
 10
355.369454205419
 20
122.5323846171012
 30
0.0
 11
355.369454205419
 21
90.53238461710149
 31
0.0
  0
DIMENSION
  5
11D79
330
20
100
AcDbEntity
  8
dim
100
AcDbDimension
  2
*D4
 10
119.6507386201083
 20
241.8772599750999
 30
0.0
 11
117.6507386201079
 21
191.8772599750999
 31
0.0
 70
    32
 71
     5
 42
100.0
  3
STD01$0
100
AcDbAlignedDimension
 13
132.3412181342
 23
141.8772599750999
 33
0.0
 14
132.3412181342
 24
241.8772599750999
 34
0.0
 50
90.0
100
AcDbRotatedDimension
  0
LEADER
  5
11D7C
330
20
100
AcDbEntity
  8
dim
100
AcDbLeader
  3
STD01
 76
     2
 10
143.2073817464988
 20
200.6746284392803
 30
0.0
 10
113.1373335820349
 20
213.5914622905227
 30
0.0
1001
ACAD
1000
DSTYLE
1002
{
1070
   147
1040
0.5
1070
    77
1070
     1
1002
}
  0
CIRCLE
  5
11D7F
330
20
100
AcDbEntity
  8
3
 62
     7
100
AcDbCircle
 10
111.2017024084906
 20
214.4292826948039
 30
0.0
 40
2.0
  0
MTEXT
  5
11D81
330
20
100
AcDbEntity
  8
dim
100
AcDbMText
 10
110.7114259673481
 20
216.0681860996213
 30
0.0
 40
3.0
 41
2.205759530167142
 71
     1
 72
     5
  1
1
 73
     1
 44
1.0
  0
LEADER
  5
11D82
330
20
100
AcDbEntity
  8
dim
100
AcDbLeader
  3
STD01
 76
     2
 10
142.2133308542789
 20
155.9625137861428
 30
0.0
 10
113.1373335820349
 20
162.9177310837516
 30
0.0
1001
ACAD
1000
DSTYLE
1002
{
1070
   147
1040
0.5
1070
    77
1070
     1
1002
}
  0
CIRCLE
  5
11D83
330
20
100
AcDbEntity
  8
3
 62
     7
100
AcDbCircle
 10
111.2017024084906
 20
163.7555514880329
 30
0.0
 40
2.0
  0
MTEXT
  5
11D84
330
20
100
AcDbEntity
  8
dim
100
AcDbMText
 10
110.178039706459
 20
165.4240748671923
 30
0.0
 40
3.0
 41
2.205759530167142
 71
     1
 72
     5
  1
2
 73
     1
 44
1.0
  0
DIMENSION
  5
11D85
330
20
100
AcDbEntity
  8
dim
100
AcDbDimension
  2
*D5
 10
229.3526340399
 20
250.4491006792469
 30
0.0
 11
179.3526340399
 21
252.4491006792469
 31
0.0
 70
    32
 71
     5
 42
100.0
  3
STD01$0
100
AcDbAlignedDimension
 13
129.3526340399
 23
238.8886758808999
 33
0.0
 14
229.3526340399
 24
238.8886758808999
 34
0.0
100
AcDbRotatedDimension
  0
DIMENSION
  5
11DB2
330
20
100
AcDbEntity
  8
dim
100
AcDbDimension
  2
*D7
 10
294.3576415645078
 20
241.8772599750999
 30
0.0
 11
292.3576415645078
 21
191.8772599750999
 31
0.0
 70
    32
 71
     5
 42
100.0
  3
STD01$0
100
AcDbAlignedDimension
 13
285.1170776755072
 23
141.8772599750999
 33
0.0
 14
285.1170776755072
 24
241.8772599750999
 34
0.0
 50
90.0
100
AcDbRotatedDimension
  0
DIMENSION
  5
11DB5
330
20
100
AcDbEntity
  8
dim
100
AcDbDimension
  2
*D6
 10
268.117077675507
 20
249.7671037924642
 30
0.0
 11
276.617077675507
 21
251.7671037924642
 31
0.0
 70
    32
 71
     5
 42
17.0
  3
STD01$0
100
AcDbAlignedDimension
 13
285.1170776755072
 23
244.8772599750999
 33
0.0
 14
268.117077675507
 24
216.5622351012
 34
0.0
100
AcDbRotatedDimension
  0
INSERT
  5
187F3
330
20
100
AcDbEntity
  8
dim
100
AcDbBlockReference
  2
lt1_1
 10
101.5693468294176
 20
157.8057519116056
 30
0.0
  0
MTEXT
  5
1887E
330
20
100
AcDbEntity
  8
3
100
AcDbMText
 10
316.067799290592
 20
99.60196881314088
 30
0.0
 40
2.5
 41
27.10399999999999
 71
     1
 72
     5
  1

 73
     1
 44
1.0
  0
MTEXT
  5
1887F
330
20
100
AcDbEntity
  8
3
100
AcDbMText
 10
287.0560849821917
 20
88.38689568599106
 30
0.0
 40
4.0
 41
74.69590670254252
 71
     1
 72
     5
  1
製造元  大塚刷毛製造株式会社
 73
     1
 44
1.0
  0
LWPOLYLINE
  5
18AA4
330
20
100
AcDbEntity
  8
waku1
 62
     7
100
AcDbPolyline
 90
        3
 70
     0
 43
0.0
 10
374.3253512992166
 20
273.4967905482554
 10
379.3253512992166
 20
273.4967905482554
 10
379.3253512992166
 20
268.4967905482555
  0
LWPOLYLINE
  5
18AA5
330
20
100
AcDbEntity
  8
waku1
 62
     7
100
AcDbPolyline
 90
        3
 70
     0
 43
0.0
 10
379.3253512992166
 20
68.49679054825545
 10
379.3253512992166
 20
63.49679054825547
 10
374.3253512992166
 20
63.49679054825547
  0
LWPOLYLINE
  5
18AA6
330
20
100
AcDbEntity
  8
waku1
 62
     7
100
AcDbPolyline
 90
        3
 70
     0
 43
0.0
 10
82.32535129921663
 20
268.4967905482555
 10
82.32535129921663
 20
273.4967905482554
 10
87.32535129921663
 20
273.4967905482554
  0
LWPOLYLINE
  5
18ABE
330
20
100
AcDbEntity
  8
waku1
 62
     7
100
AcDbPolyline
 90
        3
 70
     0
 43
0.0
 10
87.32535129921663
 20
63.49679054825547
 10
82.32535129921663
 20
63.49679054825547
 10
82.32535129921663
 20
68.49679054825546
  0
MTEXT
  5
18D3A
330
20
100
AcDbEntity
  8
dim
100
AcDbMText
 10
103.2175091082512
 20
160.4256179132596
 30
0.0
 40
3.0
 41
16.06154744878699
 71
     1
 72
     5
  1
片面反射
 73
     1
 44
1.0
  0
MTEXT
  5
18D78
330
20
100
AcDbEntity
  8
3
100
AcDbMText
 10
326.5847856976272
 20
100.9171504233177
 30
0.0
 40
4.0
 41
6.8608
 71
     1
 72
     5
  1
L
 73
     1
 44
1.0
  0
LINE
  5
18F92
330
20
100
AcDbEntity
  8
0
100
AcDbLine
 10
285.1170776755072
 20
141.8772599751
 30
0.0
 11
285.1170776755072
 21
241.8772599750999
 31
0.0
  0
LINE
  5
18F93
330
20
100
AcDbEntity
  8
0
100
AcDbLine
 10
282.6337472751071
 20
237.7820527668998
 30
0.0
 11
282.6337472751071
 21
145.9724671831999
 31
0.0
  0
LINE
  5
18F94
330
20
100
AcDbEntity
  8
0
100
AcDbLine
 10
281.6874860478074
 20
237.7783786254
 30
0.0
 11
281.6874860478074
 21
145.9760869323
 31
0.0
  0
LINE
  5
18F95
330
20
100
AcDbEntity
  8
0
100
AcDbLine
 10
269.4362186064072
 20
193.6380904277093
 30
0.0
 11
269.4362186064072
 21
216.5622351012
 31
0.0
  0
LINE
  5
18F96
330
20
100
AcDbEntity
  8
0
100
AcDbLine
 10
268.117077675507
 20
167.1922848488998
 30
0.0
 11
268.117077675507
 21
216.5622351012
 31
0.0
  0
LINE
  5
18F97
330
20
100
AcDbEntity
  8
0
100
AcDbLine
 10
229.3526340399
 20
144.8658440692998
 30
0.0
 11
229.3526340399
 21
238.8886758808
 31
0.0
  0
LINE
  5
18F98
330
20
100
AcDbEntity
  8
0
100
AcDbLine
 10
229.1353707820999
 20
237.7820527668998
 30
0.0
 11
229.1353707820999
 21
145.9724671831999
 31
0.0
  0
LINE
  5
18F99
330
20
100
AcDbEntity
  8
0
100
AcDbLine
 10
228.7995793441998
 20
237.7783786254
 30
0.0
 11
228.7995793441998
 21
145.9760869323
 31
0.0
  0
LINE
  5
18F9A
330
20
100
AcDbEntity
  8
0
100
AcDbLine
 10
220.5124533559998
 20
193.6380904272352
 30
0.0
 11
220.5124533559998
 21
216.5622351012
 31
0.0
  0
LINE
  5
18F9B
330
20
100
AcDbEntity
  8
0
100
AcDbLine
 10
218.0275564185999
 20
165.6922848488999
 30
0.0
 11
218.0275564185999
 21
218.0622351011999
 31
0.0
  0
LINE
  5
18F9C
330
20
100
AcDbEntity
  8
0
100
AcDbLine
 10
140.6777116611999
 20
165.6922848488999
 30
0.0
 11
140.6777116611999
 21
218.0622351011999
 31
0.0
  0
LINE
  5
18F9D
330
20
100
AcDbEntity
  8
0
100
AcDbLine
 10
138.1928147237999
 20
216.5622351012
 30
0.0
 11
138.1928147237999
 21
193.6380904139994
 31
0.0
  0
LINE
  5
18F9E
330
20
100
AcDbEntity
  8
0
100
AcDbLine
 10
129.9056887356
 20
145.9761413247
 30
0.0
 11
129.9056887356
 21
237.7784330178001
 31
0.0
  0
LINE
  5
18F9F
330
20
100
AcDbEntity
  8
0
100
AcDbLine
 10
129.5698972976994
 20
145.9724671831999
 30
0.0
 11
129.5698972976994
 21
237.7820527668998
 31
0.0
  0
LINE
  5
18FA0
330
20
100
AcDbEntity
  8
0
100
AcDbLine
 10
129.3526340399
 20
238.8886758808
 30
0.0
 11
129.3526340399
 21
144.8658440692998
 31
0.0
  0
LINE
  5
18FA4
330
20
100
AcDbEntity
  8
0
  6
CENTER
 62
     7
100
AcDbLine
 10
179.3526340399
 20
244.8772599750999
 30
0.0
 11
179.3526340399
 21
138.8772599750999
 31
0.0
  0
LINE
  5
18FA5
330
20
100
AcDbEntity
  8
0
100
AcDbLine
 10
285.1170776755072
 20
141.8772599750999
 30
0.0
 11
285.1170776755072
 21
241.8772599750999
 31
0.0
  0
LINE
  5
18FA6
330
20
100
AcDbEntity
  8
0
 62
     7
100
AcDbLine
 10
285.1170776755072
 20
138.8772599751
 30
0.0
 11
285.1170776755072
 21
244.8772599750999
 31
0.0
  0
LINE
  5
18FAB
330
20
100
AcDbEntity
  8
0
100
AcDbLine
 10
140.6777116611999
 20
114.4756552345947
 30
0.0
 11
218.0275564185999
 21
114.4756552345947
 31
0.0
  0
LINE
  5
18FAC
330
20
100
AcDbEntity
  8
0
100
AcDbLine
 10
142.0556008142998
 20
114.0737314459947
 30
0.0
 11
216.6496672655
 21
114.0737314459947
 31
0.0
  0
LINE
  5
18FAD
330
20
100
AcDbEntity
  8
0
100
AcDbLine
 10
223.6147847867998
 20
101.6899898360948
 30
0.0
 11
135.0904832929998
 21
101.6899898360948
 31
0.0
  0
LINE
  5
18FAE
330
20
100
AcDbEntity
  8
0
100
AcDbLine
 10
134.9489370345999
 20
101.6399822196948
 30
0.0
 11
223.7563310451997
 21
101.6399822196948
 31
0.0
  0
LINE
  5
18FAF
330
20
100
AcDbEntity
  8
0
100
AcDbLine
 10
226.1923247708998
 20
100.9962222851948
 30
0.0
 11
132.5129433088999
 21
100.9962222851948
 31
0.0
  0
LINE
  5
18FB0
330
20
100
AcDbEntity
  8
0
100
AcDbLine
 10
226.1923247708998
 20
99.43848296309477
 30
0.0
 11
132.5129433088999
 21
99.43848296309477
 31
0.0
  0
LINE
  5
18FB1
330
20
100
AcDbEntity
  8
0
100
AcDbLine
 10
129.3526340399
 20
97.4756552345948
 30
0.0
 11
229.3526340399
 21
97.4756552345948
 31
0.0
  0
LINE
  5
18FB2
330
20
100
AcDbEntity
  8
0
100
AcDbLine
 10
144.3369792518999
 20
169.9884525044
 30
0.0
 11
214.3682888278998
 21
169.9884525044
 31
0.0
  0
LINE
  5
18FB3
330
20
100
AcDbEntity
  8
0
100
AcDbLine
 10
144.3559631126997
 20
169.9538397071
 30
0.0
 11
214.3493049671
 21
169.9538397071
 31
0.0
  0
LINE
  5
18FB4
330
20
100
AcDbEntity
  8
0
100
AcDbLine
 10
144.4046831202999
 20
169.8884372715999
 30
0.0
 11
214.3005849594998
 21
169.8884372715999
 31
0.0
  0
LINE
  5
18FB5
330
20
100
AcDbEntity
  8
0
100
AcDbLine
 10
142.6490906721998
 20
167.1922848488998
 30
0.0
 11
216.0561774075998
 21
167.1922848488998
 31
0.0
  0
LINE
  5
18FB6
330
20
100
AcDbEntity
  8
0
100
AcDbLine
 10
142.0556008142998
 20
165.6922848488999
 30
0.0
 11
216.6496672655
 21
165.6922848488999
 31
0.0
  0
LINE
  5
18FB7
330
20
100
AcDbEntity
  8
0
100
AcDbLine
 10
223.6147847867998
 20
144.2430151926999
 30
0.0
 11
135.0904832929998
 21
144.2430151926999
 31
0.0
  0
LINE
  5
18FB8
330
20
100
AcDbEntity
  8
0
100
AcDbLine
 10
134.9489370345999
 20
144.1563994602999
 30
0.0
 11
223.7563310451997
 21
144.1563994602999
 31
0.0
  0
LINE
  5
18FB9
330
20
100
AcDbEntity
  8
0
100
AcDbLine
 10
226.1923247708998
 20
143.0413745458999
 30
0.0
 11
132.5129433088999
 21
143.0413745458999
 31
0.0
  0
LINE
  5
18FBA
330
20
100
AcDbEntity
  8
0
100
AcDbLine
 10
226.1923247708998
 20
142.0489851498
 30
0.0
 11
132.5129433088999
 21
142.0489851498
 31
0.0
  0
LINE
  5
18FBB
330
20
100
AcDbEntity
  8
0
100
AcDbLine
 10
132.3412181342
 20
141.8772599751
 30
0.0
 11
226.3640499455998
 21
141.8772599751
 31
0.0
  0
LINE
  5
18FBD
330
20
100
AcDbEntity
  8
0
  6
CENTER
 62
     7
100
AcDbLine
 10
126.3526340398999
 20
191.8772599750999
 30
0.0
 11
232.3526340399
 21
191.8772599750999
 31
0.0
  0
LINE
  5
18FBE
330
20
100
AcDbEntity
  8
0
 62
     7
100
AcDbLine
 10
126.3526340398999
 20
97.4756552345948
 30
0.0
 11
232.3526340399
 21
97.4756552345948
 31
0.0
  0
LINE
  5
18FBF
330
20
100
AcDbEntity
  8
0
100
AcDbLine
 10
140.6777116611999
 20
165.6922848488999
 30
0.0
 11
131.9163848656999
 21
143.2582398765999
 31
0.0
  0
LWPOLYLINE
  5
18FC0
330
20
100
AcDbEntity
  8
0
100
AcDbPolyline
 90
        7
 70
     0
 43
0.0
 10
134.1221487629999
 20
145.3780762522999
 10
134.0703820104997
 20
145.1126245421999
 10
134.1176742853
 20
144.8458014158999
 10
134.2599105020999
 20
144.6044747717
 10
134.484555297
 20
144.4114053430998
 10
134.7695563184995
 20
144.2867094979999
 10
135.0904832929998
 20
144.2430151926999
  0
LWPOLYLINE
  5
18FC1
330
20
100
AcDbEntity
  8
0
100
AcDbPolyline
 90
        9
 70
     0
 43
0.0
 10
132.3412181342
 20
141.8772599751
 10
131.7579449507997
 20
141.9343744101999
 10
131.1969392116999
 20
142.1038503143999
 10
130.6797721846996
 20
142.3796098227
 10
130.2265819031998
 20
142.7512394897999
 10
129.8549627237
 20
143.2044298461
 10
129.5792158393999
 20
143.7215858332999
 10
129.4097471044999
 20
144.2825778119999
 10
129.3526340399
 20
144.8658440692998
  0
LWPOLYLINE
  5
18FC2
330
20
100
AcDbEntity
  8
0
100
AcDbPolyline
 90
        7
 70
     0
 43
0.0
 10
134.7127811118998
 20
144.1797701198999
 10
134.4891812942996
 20
144.2487893546001
 10
134.2898234059998
 20
144.3603395157999
 10
134.1259841412999
 20
144.5089428270998
 10
134.0072638312999
 20
144.6870461529
 10
133.9412726529997
 20
144.8845943513999
 10
133.9322320762998
 20
145.0901194586
  0
LWPOLYLINE
  5
18FC3
330
20
100
AcDbEntity
  8
0
100
AcDbPolyline
 90
        6
 70
     0
 43
0.0
 10
130.7074147819
 20
142.6837279440998
 10
130.2841536867998
 20
143.0917493285
 10
129.9537016095998
 20
143.5607133099999
 10
129.7266653390997
 20
144.0561741160999
 10
129.5961627621998
 20
144.5617593685001
 10
129.5552197760998
 20
145.0684298056
  0
LWPOLYLINE
  5
18FC4
330
20
100
AcDbEntity
  8
0
100
AcDbPolyline
 90
        6
 70
     0
 43
0.0
 10
131.9163848656999
 20
143.2582398765999
 10
131.4394829018
 20
143.5133350677
 10
131.0420483224999
 20
143.7981183980996
 10
130.7385820490997
 20
144.0862346979
 10
130.5235114463998
 20
144.3621371158
 10
130.3908147299998
 20
144.615305869
  0
LINE
  5
18FC5
330
20
100
AcDbEntity
  8
0
100
AcDbLine
 10
134.1221487629999
 20
102.3453176443948
 30
0.0
 11
142.0556008142998
 21
114.0737314459947
 31
0.0
  0
LINE
  5
18FC6
330
20
100
AcDbEntity
  8
0
100
AcDbLine
 10
141.9478812125997
 20
114.0737314459947
 30
0.0
 11
133.9806025045999
 21
102.2953100279948
 31
0.0
  0
LINE
  5
18FC7
330
20
100
AcDbEntity
  8
0
100
AcDbLine
 10
140.6777116611999
 20
114.0737314459947
 30
0.0
 11
131.9163848656999
 21
101.1214295421948
 31
0.0
  0
LINE
  5
18FC8
330
20
100
AcDbEntity
  8
0
100
AcDbLine
 10
138.1928147237999
 20
113.1565143037948
 30
0.0
 11
129.9050925536
 21
100.9043641836947
 31
0.0
  0
LWPOLYLINE
  5
18FCA
330
20
100
AcDbEntity
  8
0
100
AcDbPolyline
 90
        4
 70
     0
 43
0.0
 10
134.9489370345999
 20
101.6399822196948
 10
134.7127811118998
 20
101.6534752762948
 10
134.4891812942996
 20
101.6933235499946
 10
134.2898234059998
 20
101.7577270655948
  0
LWPOLYLINE
  5
18FCB
330
20
100
AcDbEntity
  8
0
100
AcDbPolyline
 90
        5
 70
     0
 43
0.0
 10
134.0785287401998
 20
102.1261202540947
 10
134.1176742853
 20
102.0380086242947
 10
134.2599105020999
 20
101.8986786212948
 10
134.484555297
 20
101.7872099346948
 10
134.7695563184995
 20
101.7152167549947
  0
ARC
  5
18FCC
330
20
100
AcDbEntity
  8
0
100
AcDbCircle
 10
131.5622866938997
 20
99.78467414959482
 30
0.0
 40
2.0
100
AcDbArc
 50
145.924396492298
 51
174.9999999999991
  0
LWPOLYLINE
  5
18FCD
330
20
100
AcDbEntity
  8
0
100
AcDbPolyline
 90
        5
 70
     0
 43
0.0
 10
130.5235114463998
 20
101.1969565016948
 10
130.2806491469
 20
101.1739949725948
 10
130.1631616076999
 20
101.1359843728947
 10
130.0370443799998
 20
101.0541843648947
 10
129.9050925536
 20
100.9043641836947
  0
LWPOLYLINE
  5
18FCE
330
20
100
AcDbEntity
  8
0
100
AcDbPolyline
 90
        3
 70
     0
 43
0.0
 10
132.5129433088999
 20
99.43848296309477
 10
131.8709234243993
 20
99.48580126239484
 10
131.2597965042
 20
99.55195474259486
  0
LWPOLYLINE
  5
18FCF
330
20
100
AcDbEntity
  8
0
100
AcDbPolyline
 90
        4
 70
     0
 43
0.0
 10
132.5129433088999
 20
100.9962222851948
 10
132.3002736902999
 20
101.0102632528947
 10
132.0971667754997
 20
101.0526208605947
 10
131.9163848656999
 20
101.1214295421948
  0
LWPOLYLINE
  5
18FD0
330
20
100
AcDbEntity
  8
0
100
AcDbPolyline
 90
        5
 70
     0
 43
0.0
 10
131.9163848656999
 20
101.1214295421948
 10
131.4394829018
 20
101.2127251978949
 10
131.0420483224999
 20
101.2364516780947
 10
130.7385820490997
 20
101.2221341321948
 10
130.5235114463998
 20
101.1969565016948
  0
LWPOLYLINE
  5
18FD1
330
20
100
AcDbEntity
  8
0
100
AcDbPolyline
 90
        6
 70
     0
 43
0.0
 10
131.2597965042
 20
99.55195474259486
 10
130.2841536867998
 20
99.69630014139477
 10
129.9537016095998
 20
99.73383702089485
 10
129.7266653390997
 20
99.75530500319486
 10
129.5961627621998
 20
99.77126222669484
 10
129.5552197760998
 20
99.79122079559477
  0
LWPOLYLINE
  5
18FD2
330
20
100
AcDbEntity
  8
0
100
AcDbPolyline
 90
        5
 70
     0
 43
0.0
 10
134.2898234059998
 20
101.7577270655948
 10
134.1259841412999
 20
101.8435232273948
 10
134.0072638312999
 20
101.9463512303947
 10
133.9412726529997
 20
102.0604057360948
 10
133.9368123318998
 20
102.0758616239946
  0
LWPOLYLINE
  5
18FD3
330
20
100
AcDbEntity
  8
0
100
AcDbPolyline
 90
        4
 70
     0
 43
0.0
 10
130.7075060952998
 20
99.63288346309479
 10
131.0189122886998
 20
100.2544198935948
 10
131.4387871170998
 20
100.7714059455947
 10
131.9163848692999
 20
101.1213590419949
  0
LINE
  5
18FD4
330
20
100
AcDbEntity
  8
0
100
AcDbLine
 10
133.9322320762998
 20
102.1790657119947
 30
0.0
 11
133.9806025045999
 21
102.2953100279948
 31
0.0
  0
LWPOLYLINE
  5
18FD5
330
20
100
AcDbEntity
  8
0
100
AcDbPolyline
 90
        3
 70
     0
 43
0.0
 10
134.1221487629999
 20
102.3453176443948
 10
134.0703820104997
 20
102.1920590280947
 10
134.0785287401998
 20
102.1261202540947
  0
LINE
  5
18FD6
330
20
100
AcDbEntity
  8
0
100
AcDbLine
 10
134.1547611475998
 20
101.8284538439947
 30
0.0
 11
134.0788784762999
 21
102.1237638775948
 31
0.0
  0
LINE
  5
18FD7
330
20
100
AcDbEntity
  8
0
100
AcDbLine
 10
134.0883080897
 20
101.8761558337947
 30
0.0
 11
133.9806025045999
 21
102.2953100279948
 31
0.0
  0
LWPOLYLINE
  5
18FD8
330
20
100
AcDbEntity
  8
0
100
AcDbPolyline
 90
        4
 70
     0
 43
0.0
 10
129.5552197760998
 20
99.79122079559477
 10
129.6861252379997
 20
100.3283401489946
 10
129.9726400893
 20
100.8059879071949
 10
130.3908133319998
 20
101.1842354579947
  0
LINE
  5
18FD9
330
20
100
AcDbEntity
  8
0
100
AcDbLine
 10
132.5129433088999
 20
99.43848296309477
 30
0.0
 11
132.3412181342
 21
97.4756552345948
 31
0.0
  0
LINE
  5
18FDA
330
20
100
AcDbEntity
  8
0
100
AcDbLine
 10
129.5698972982999
 20
99.95898564139487
 30
0.0
 11
129.3526340399
 21
97.4756552345948
 31
0.0
  0
LINE
  5
18FDB
330
20
100
AcDbEntity
  8
0
100
AcDbLine
 10
132.5129642878998
 20
100.9962222836948
 30
0.0
 11
132.5128809637999
 21
99.43847825499485
 31
0.0
  0
LINE
  5
18FDC
330
20
100
AcDbEntity
  8
0
100
AcDbLine
 10
133.9368123318998
 20
102.0758616239946
 30
0.0
 11
133.9322320762998
 21
102.1790657119947
 31
0.0
  0
LINE
  5
18FDD
330
20
100
AcDbEntity
  8
0
100
AcDbLine
 10
134.7695563184995
 20
101.7152167549947
 30
0.0
 11
135.0904832929998
 21
101.6899898360948
 31
0.0
  0
LINE
  5
18FDE
330
20
100
AcDbEntity
  8
0
100
AcDbLine
 10
135.1033332170999
 20
101.6399822196948
 30
0.0
 11
135.0904832929998
 21
101.6899898360948
 31
0.0
  0
LINE
  5
18FDF
330
20
100
AcDbEntity
  8
0
100
AcDbLine
 10
132.5129433088999
 20
142.0489851498
 30
0.0
 11
132.3412181342
 21
141.8772599751
 31
0.0
  0
LWPOLYLINE
  5
18FE0
330
20
100
AcDbEntity
  8
0
100
AcDbPolyline
 90
        4
 70
     0
 43
0.0
 10
130.7075060952998
 20
142.6838468273999
 10
131.0189122886998
 20
142.6943489800999
 10
131.4387871170998
 20
142.8938646844
 10
131.9163848692999
 20
143.2582805766999
  0
LINE
  5
18FE1
330
20
100
AcDbEntity
  8
0
100
AcDbLine
 10
132.5129642878998
 20
143.0413745456
 30
0.0
 11
132.5128809637999
 21
142.0490395996999
 31
0.0
  0
LWPOLYLINE
  5
18FE2
330
20
100
AcDbEntity
  8
0
100
AcDbPolyline
 90
        4
 70
     0
 43
0.0
 10
132.5129433088999
 20
142.0489851498
 10
131.8709234243993
 20
142.1233854186
 10
131.2597965042
 20
142.3375920153
 10
130.7074147819
 20
142.6837279440998
  0
LWPOLYLINE
  5
18FE3
330
20
100
AcDbEntity
  8
0
100
AcDbPolyline
 90
        4
 70
     0
 43
0.0
 10
132.5129433088999
 20
143.0413745458999
 10
132.3002736902999
 20
143.0656942154
 10
132.0971667754997
 20
143.1390597438999
 10
131.9163848656999
 20
143.2582398765999
  0
ARC
  5
18FE4
330
20
100
AcDbEntity
  8
0
100
AcDbCircle
 10
140.6777116611999
 20
111.4756552345947
 30
0.0
 40
3.0
100
AcDbArc
 50
90.0
 51
145.924396492298
  0
LWPOLYLINE
  5
18FE5
330
20
100
AcDbEntity
  8
0
100
AcDbPolyline
 90
        5
 70
     0
 43
0.0
 10
140.6777116611999
 20
114.0737314459947
 10
139.9304639767999
 20
114.1086738221948
 10
139.2357609447999
 20
113.9582949072947
 10
138.6425680826
 20
113.6331827268947
 10
138.1928147237999
 20
113.1565143037948
  0
LINE
  5
18FE6
330
20
100
AcDbEntity
  8
0
100
AcDbLine
 10
138.3992035562
 20
113.4271676776948
 30
0.0
 11
138.3787716589998
 21
113.4030562998947
 31
0.0
  0
LINE
  5
18FE7
330
20
100
AcDbEntity
  8
0
100
AcDbLine
 10
138.3799987728998
 20
113.4047887753949
 30
0.0
 11
138.3640216544998
 21
113.3855087836947
 31
0.0
  0
LINE
  5
18FE8
330
20
100
AcDbEntity
  8
0
100
AcDbLine
 10
138.3640216544998
 20
113.3855087836947
 30
0.0
 11
138.3329396374996
 21
113.3456561653948
 31
0.0
  0
LINE
  5
18FE9
330
20
100
AcDbEntity
  8
0
100
AcDbLine
 10
142.5413710704999
 20
114.4756552345947
 30
0.0
 11
142.3321265434998
 21
114.4293782407945
 31
0.0
  0
LINE
  5
18FEA
330
20
100
AcDbEntity
  8
0
100
AcDbLine
 10
142.4398461452
 20
114.4293782407945
 30
0.0
 11
142.6490906721998
 21
114.4756552345947
 31
0.0
  0
LINE
  5
18FEB
330
20
100
AcDbEntity
  8
0
100
AcDbLine
 10
140.6777116611999
 20
114.0737314459947
 30
0.0
 11
141.9478812125997
 21
114.0737314459947
 31
0.0
  0
LINE
  5
18FEC
330
20
100
AcDbEntity
  8
0
100
AcDbLine
 10
142.2398035752999
 20
114.2931038435947
 30
0.0
 11
142.4398461452
 21
114.4293782407945
 31
0.0
  0
LINE
  5
18FED
330
20
100
AcDbEntity
  8
0
100
AcDbLine
 10
142.3321265434998
 20
114.4293782407945
 30
0.0
 11
142.1320839735999
 21
114.2931038435947
 31
0.0
  0
LINE
  5
18FEE
330
20
100
AcDbEntity
  8
0
100
AcDbLine
 10
142.0556008142998
 20
114.0737314459947
 30
0.0
 11
142.2398035752999
 21
114.2931038435947
 31
0.0
  0
LINE
  5
18FEF
330
20
100
AcDbEntity
  8
0
100
AcDbLine
 10
142.1320839735999
 20
114.2931038435947
 30
0.0
 11
141.9478812125997
 21
114.0737314459947
 31
0.0
  0
LINE
  5
18FF0
330
20
100
AcDbEntity
  8
0
100
AcDbLine
 10
140.6777116611999
 20
114.4756552345947
 30
0.0
 11
140.6777116611999
 21
114.0737314459947
 31
0.0
  0
LINE
  5
18FF1
330
20
100
AcDbEntity
  8
0
100
AcDbLine
 10
134.9917284380999
 20
144.2564606962999
 30
0.0
 11
134.9489370345999
 21
144.1563994602999
 31
0.0
  0
LINE
  5
18FF2
330
20
100
AcDbEntity
  8
0
100
AcDbLine
 10
134.9489370345999
 20
144.1563994602999
 30
0.0
 11
134.7127811118998
 21
144.1797701198999
 31
0.0
  0
LINE
  5
18FF3
330
20
100
AcDbEntity
  8
0
  6
CENTER
 62
     7
100
AcDbLine
 10
179.3526340399
 20
117.4756552345948
 30
0.0
 11
179.3526340399
 21
94.47565523459479
 31
0.0
  0
POINT
  5
18FF4
330
20
100
AcDbEntity
  8
pnt
100
AcDbPoint
 10
179.3526340399
 20
97.4756552345948
 30
0.0
  0
LINE
  5
18FF5
330
20
100
AcDbEntity
  8
0
100
AcDbLine
 10
138.1928147237999
 20
190.1164295351218
 30
0.0
 11
138.1928147237999
 21
167.1922848488998
 31
0.0
  0
LINE
  5
18FF6
330
20
100
AcDbEntity
  8
0
100
AcDbLine
 10
134.4481797992
 20
146.3848194254
 30
0.0
 11
135.5504079536
 21
149.1397259656
 31
0.0
  0
LINE
  5
18FF7
330
20
100
AcDbEntity
  8
0
100
AcDbLine
 10
142.3321265434998
 20
166.6673844748999
 30
0.0
 11
133.9806025045999
 21
145.2914605199
 31
0.0
  0
LINE
  5
18FF8
330
20
100
AcDbEntity
  8
0
100
AcDbLine
 10
134.1221487629999
 20
145.3780762522999
 30
0.0
 11
142.2398035752999
 21
166.1617590918
 31
0.0
  0
LINE
  5
18FF9
330
20
100
AcDbEntity
  8
0
100
AcDbLine
 10
138.1928147237999
 20
167.1922848488998
 30
0.0
 11
129.9056887356
 21
145.9761413247
 31
0.0
  0
LINE
  5
18FFB
330
20
100
AcDbEntity
  8
0
100
AcDbLine
 10
129.5552197760998
 20
145.0684298056
 30
0.0
 11
129.3526340399
 21
144.8658440692998
 31
0.0
  0
LINE
  5
18FFC
330
20
100
AcDbEntity
  8
0
100
AcDbLine
 10
134.4481797992
 20
146.3848194254
 30
0.0
 11
133.9806025045999
 21
145.2914605199
 31
0.0
  0
LINE
  5
18FFD
330
20
100
AcDbEntity
  8
0
100
AcDbLine
 10
133.9322320762998
 20
145.0901194586
 30
0.0
 11
133.9806025045999
 21
145.2914605199
 31
0.0
  0
LINE
  5
18FFE
330
20
100
AcDbEntity
  8
0
100
AcDbLine
 10
134.4481797992
 20
146.3848194254
 30
0.0
 11
134.3723238633999
 21
146.0186686630999
 31
0.0
  0
LINE
  5
18FFF
330
20
100
AcDbEntity
  8
0
100
AcDbLine
 10
129.9056887356
 20
145.9724671388
 30
0.0
 11
129.5698972976994
 21
145.9724671388
 31
0.0
  0
LINE
  5
19000
330
20
100
AcDbEntity
  8
0
100
AcDbLine
 10
129.5552197760998
 20
145.0684298056
 30
0.0
 11
129.5648937595999
 21
145.4902939282
 31
0.0
  0
LWPOLYLINE
  5
19001
330
20
100
AcDbEntity
  8
0
100
AcDbPolyline
 90
        3
 70
     0
 43
0.0
 10
129.5648937595999
 20
145.4902939282
 10
129.5683930368999
 20
145.7245914485999
 10
129.5698972976994
 20
145.9724671831999
  0
LWPOLYLINE
  5
19002
330
20
100
AcDbEntity
  8
0
100
AcDbPolyline
 90
        5
 70
     0
 43
0.0
 10
130.3908147299998
 20
144.615305869
 10
130.2806491469
 20
144.9027605755999
 10
130.1631616076999
 20
145.2209341545001
 10
130.0370443799998
 20
145.5744019248998
 10
129.9050925536
 20
145.9746134599999
  0
LWPOLYLINE
  5
19003
330
20
100
AcDbEntity
  8
0
100
AcDbPolyline
 90
        4
 70
     0
 43
0.0
 10
129.5552197760998
 20
145.0684298056
 10
129.6861252379997
 20
144.8988861968
 10
129.9726400893
 20
144.7435153367
 10
130.3908133319998
 20
144.6153053215
  0
LINE
  5
19004
330
20
100
AcDbEntity
  8
0
100
AcDbLine
 10
143.4311559110999
 20
169.3189817132999
 30
0.0
 11
135.5504079536
 21
149.1397259656
 31
0.0
  0
LINE
  5
19005
330
20
100
AcDbEntity
  8
0
100
AcDbLine
 10
135.5912125216
 20
149.1397259656
 30
0.0
 11
135.5504079536
 21
149.1397259656
 31
0.0
  0
LINE
  5
19006
330
20
100
AcDbEntity
  8
0
100
AcDbLine
 10
142.2398035752999
 20
166.1617590918
 30
0.0
 11
143.4763669032999
 21
169.2599771774998
 31
0.0
  0
LINE
  5
19007
330
20
100
AcDbEntity
  8
0
100
AcDbLine
 10
142.3321265434998
 20
166.6673844748999
 30
0.0
 11
143.4086630348999
 21
169.3599924103
 31
0.0
  0
LINE
  5
19008
330
20
100
AcDbEntity
  8
0
100
AcDbLine
 10
138.1928147237999
 20
167.1922848488998
 30
0.0
 11
142.5413710704999
 21
167.1922848488998
 31
0.0
  0
LWPOLYLINE
  5
19009
330
20
100
AcDbEntity
  8
0
100
AcDbPolyline
 90
        5
 70
     0
 43
0.0
 10
140.6777116611999
 20
165.6922848488999
 10
139.9304639767999
 20
165.9639387998999
 10
139.2357609447999
 20
166.3220674121998
 10
138.6425680826
 20
166.7414348353998
 10
138.1928147237999
 20
167.1922848488998
  0
LINE
  5
1900A
330
20
100
AcDbEntity
  8
0
100
AcDbLine
 10
140.6777116611999
 20
165.6922848488999
 30
0.0
 11
141.9478812125997
 21
165.6922848488999
 31
0.0
  0
LWPOLYLINE
  5
1900B
330
20
100
AcDbEntity
  8
0
100
AcDbPolyline
 90
        3
 70
     0
 43
0.0
 10
144.0794996304998
 20
169.9143997539999
 10
143.8184510393
 20
169.7949085147999
 10
143.5929540507999
 20
169.5941655318
  0
LWPOLYLINE
  5
1900C
330
20
100
AcDbEntity
  8
0
100
AcDbPolyline
 90
        9
 70
     0
 43
0.0
 10
144.4046831202999
 20
169.8884372715999
 10
144.2564744866
 20
169.8773924470999
 10
144.1115401751998
 20
169.8445010708
 10
143.9730826010999
 20
169.7904888336999
 10
143.8441614425999
 20
169.7165487887
 10
143.7276253816999
 20
169.6243148875
 10
143.6260488203998
 20
169.5158255313999
 10
143.5416751651998
 20
169.3934785004
 10
143.4763669032999
 20
169.2599771774998
  0
LINE
  5
1900D
330
20
100
AcDbEntity
  8
0
100
AcDbLine
 10
144.3559631126997
 20
169.9538397071
 30
0.0
 11
144.0794996304998
 21
169.9143997539999
 31
0.0
  0
LWPOLYLINE
  5
1900E
330
20
100
AcDbEntity
  8
0
100
AcDbPolyline
 90
        4
 70
     0
 43
0.0
 10
143.4086630348999
 20
169.3599924103
 10
143.6242935738998
 20
169.6898730407999
 10
143.9506242907
 20
169.9107928301
 10
144.3369792518999
 20
169.9884525044
  0
LINE
  5
1900F
330
20
100
AcDbEntity
  8
0
100
AcDbLine
 10
143.5929540507999
 20
169.5941655318
 30
0.0
 11
143.4311559110999
 21
169.3189817132999
 31
0.0
  0
LINE
  5
19010
330
20
100
AcDbEntity
  8
0
100
AcDbLine
 10
144.3559631126997
 20
169.9538397071
 30
0.0
 11
144.3369792518999
 21
169.9884525044
 31
0.0
  0
LINE
  5
19011
330
20
100
AcDbEntity
  8
0
100
AcDbLine
 10
143.4311559110999
 20
169.3189817132999
 30
0.0
 11
143.4086630348999
 21
169.3599924103
 31
0.0
  0
SPLINE
  5
19012
330
20
100
AcDbEntity
  8
0
  6
Continuous
 62
     7
100
AcDbSpline
210
0.0
220
0.0
230
1.0
 70
     8
 71
     3
 72
    28
 73
    24
 74
    22
 42
0.0000000001
 43
0.0000000001
 44
0.0000000001
 12
-0.2314995090387271
 22
-0.9728350206046389
 32
0.0
 13
-0.9802273055963315
 23
-0.1978747820298393
 33
0.0
 40
0.0
 40
0.0
 40
0.0
 40
0.0
 40
0.2607009544982228
 40
0.5271549303608896
 40
0.801015832450256
 40
1.083602070220808
 40
1.375946029413499
 40
1.678748901969497
 40
1.992525496917158
 40
2.31808060255689
 40
2.656086078715425
 40
3.007083546634036
 40
3.371698145971328
 40
3.750368791186179
 40
4.143342671112581
 40
4.550786864622983
 40
4.972748644424377
 40
5.409210227796467
 40
5.859314789809477
 40
6.321269894271064
 40
6.794352461361289
 40
7.278986415133338
 40
7.775748485518334
 40
7.775748485518334
 40
7.775748485518334
 40
7.775748485518334
 10
138.0448565266999
 20
190.3147370661999
 30
0.0
 10
138.0247391457092
 20
190.2301973933862
 30
0.0
 10
137.9807573702405
 20
190.0600192833231
 30
0.0
 10
137.9038978080727
 20
189.8042466770393
 30
0.0
 10
137.8145038628499
 20
189.5448415612074
 30
0.0
 10
137.7113745971399
 20
189.2812883059973
 30
0.0
 10
137.5932549983172
 20
189.0135147721913
 30
0.0
 10
137.4588799301732
 20
188.7418570375793
 30
0.0
 10
137.3069399669917
 20
188.4668866170174
 30
0.0
 10
137.1360665129373
 20
188.1893698632502
 30
0.0
 10
136.9448325498501
 20
187.9102756455266
 30
0.0
 10
136.7318148027631
 20
187.6308506825697
 30
0.0
 10
136.4956365465545
 20
187.352646997312
 30
0.0
 10
136.2350217412918
 20
187.0775451444941
 30
0.0
 10
135.9488876209414
 20
186.8077863767929
 30
0.0
 10
135.6363899272715
 20
186.5459372030727
 30
0.0
 10
135.296947740584
 20
186.2948380957871
 30
0.0
 10
134.9305084538393
 20
186.0577132522301
 30
0.0
 10
134.5378820071801
 20
185.8381900669117
 30
0.0
 10
134.1205299530439
 20
185.6399070249354
 30
0.0
 10
133.679954681024
 20
185.4661509454829
 30
0.0
 10
133.2173233259653
 20
185.3198793852302
 30
0.0
 10
132.8988671257919
 20
185.2435874691326
 30
0.0
 10
132.7365538772
 20
185.2108219069999
 30
0.0
 11
138.0448565266999
 21
190.3147370661999
 31
0.0
 11
137.9796231471
 21
190.0623294714999
 31
0.0
 11
137.9029423544
 21
189.8071476200999
 31
0.0
 11
137.8137172357001
 21
189.5482293474999
 31
0.0
 11
137.7107445182
 21
189.2850723577999
 31
0.0
 11
137.5927574039001
 21
189.0175951973999
 31
0.0
 11
137.4585048193
 21
188.7461807114999
 31
0.0
 11
137.3067507318999
 21
188.4715419514999
 31
0.0
 11
137.136062389
 21
188.1943207105999
 31
0.0
 11
136.9450117915
 21
187.9154885547999
 31
0.0
 11
136.732217597
 21
187.6363508588999
 31
0.0
 11
136.4962497731
 21
187.3583886453999
 31
0.0
 11
136.2358286802
 21
187.0834844585999
 31
0.0
 11
135.9498962451
 21
186.8139086568999
 31
0.0
 11
135.6375987742001
 21
186.5522197948999
 31
0.0
 11
135.2983697764
 21
186.3012707349999
 31
0.0
 11
134.9319409326001
 21
186.0641449957999
 31
0.0
 11
134.5390770751
 21
185.8444813751999
 31
0.0
 11
134.121821876
 21
185.6462375420999
 31
0.0
 11
133.6817312977
 21
185.4726650840999
 31
0.0
 11
133.2196446583
 21
185.3265623570999
 31
0.0
 11
132.7365538772
 21
185.2108219069999
 31
0.0
  0
SPLINE
  5
19013
330
20
100
AcDbEntity
  8
0
  6
Continuous
 62
     7
100
AcDbSpline
210
0.0
220
0.0
230
1.0
 70
     8
 71
     3
 72
    28
 73
    24
 74
    22
 42
0.0000000001
 43
0.0000000001
 44
0.0000000001
 12
-0.2278624599046232
 22
-0.9736933292193256
 32
0.0
 13
-0.9765953113478994
 23
-0.2150850944470569
 33
0.0
 40
0.0
 40
0.0
 40
0.0
 40
0.0
 40
0.2937575949923601
 40
0.5940377656070093
 40
0.9027023202573229
 40
1.221245883573508
 40
1.55084272468633
 40
1.892295782191098
 40
2.246199957622806
 40
2.613480176967108
 40
2.994914599903567
 40
3.391138004558331
 40
3.802883730872395
 40
4.230679539163206
 40
4.674841646721372
 40
5.135601136348199
 40
5.61305933694728
 40
6.107250032468441
 40
6.617262206746653
 40
7.141126847846122
 40
7.678088545256599
 40
8.22869803317892
 40
8.793686763160378
 40
8.793686763160378
 40
8.793686763160378
 40
8.793686763160378
 10
138.1928139226999
 20
190.1164265710999
 30
0.0
 10
138.1705018132964
 20
190.0210833008827
 30
0.0
 10
138.1217162987303
 20
189.8291167052666
 30
0.0
 10
138.0364430108496
 20
189.5404766847287
 30
0.0
 10
137.9372332082584
 20
189.2475769732959
 30
0.0
 10
137.8227400129121
 20
188.9498053121096
 30
0.0
 10
137.6915523031045
 20
188.6470414637008
 30
0.0
 10
137.542242071517
 20
188.3396208609061
 30
0.0
 10
137.3733260674207
 20
188.0281394129572
 30
0.0
 10
137.1832477488001
 20
187.7134076536295
 30
0.0
 10
136.9703767114442
 20
187.396459365145
 30
0.0
 10
136.7330762089278
 20
187.0786375573514
 30
0.0
 10
136.4697491805915
 20
186.7616267382957
 30
0.0
 10
136.1788969604207
 20
186.447481116427
 30
0.0
 10
135.8592212077474
 20
186.1386641778914
 30
0.0
 10
135.5096734863798
 20
185.8380120879573
 30
0.0
 10
135.1294824833488
 20
185.5486794327002
 30
0.0
 10
134.7184513925236
 20
185.2742718897746
 30
0.0
 10
134.2773365372572
 20
185.0188800307449
 30
0.0
 10
133.8076166357893
 20
184.7866384481441
 30
0.0
 10
133.3108104530737
 20
184.5813079461016
 30
0.0
 10
132.7880525184703
 20
184.406295031117
 30
0.0
 10
132.4276121596547
 20
184.313306125083
 30
0.0
 10
132.2436903780999
 20
184.2727992402999
 30
0.0
 11
138.1928139226999
 21
190.1164265710999
 31
0.0
 11
138.1204595020999
 21
189.8317190677999
 31
0.0
 11
138.0353838841999
 21
189.5437428185999
 31
0.0
 11
137.9363614015001
 21
189.2513931046999
 31
0.0
 11
137.8220422772001
 21
188.9540698133999
 31
0.0
 11
137.6910020754001
 21
188.6516420646999
 31
0.0
 11
137.5418285405999
 21
188.3444980479999
 31
0.0
 11
137.3731201221001
 21
188.0333941506999
 31
0.0
 11
137.1832490818001
 21
187.7189998956999
 31
0.0
 11
136.9705840459
 21
187.4023521394999
 31
0.0
 11
136.7335351885999
 21
187.0848606818999
 31
0.0
 11
136.4704462582999
 21
186.7681293163999
 31
0.0
 11
136.1798147411
 21
186.4542143998999
 31
0.0
 11
135.8603700736
 21
186.1456125816999
 31
0.0
 11
135.5110535221999
 21
185.8451508466999
 31
0.0
 11
135.1311102042
 21
185.5559979313999
 31
0.0
 11
134.7201013711001
 21
185.2815964323999
 31
0.0
 11
134.2787314559
 21
185.0260479714999
 31
0.0
 11
133.8091334569001
 21
184.7938586488999
 31
0.0
 11
133.3128887227001
 21
184.5887512909999
 31
0.0
 11
132.7907642432999
 21
184.4139461531999
 31
0.0
 11
132.2436903780999
 21
184.2727992402999
 31
0.0
  0
ARC
  5
19014
330
20
100
AcDbEntity
  8
0
  6
Continuous
 62
     7
100
AcDbCircle
 10
130.3526340399
 20
191.8772599750999
 30
0.0
 40
7.0798635241
100
AcDbArc
 50
289.6770621850024
 51
70.32293771740221
  0
ARC
  5
19015
330
20
100
AcDbEntity
  8
0
  6
Continuous
 62
     7
100
AcDbCircle
 10
130.3526340399
 20
191.8772599750999
 30
0.0
 40
6.083668826
100
AcDbArc
 50
284.1226549005034
 51
75.87734509400239
  0
SPLINE
  5
19016
330
20
100
AcDbEntity
  8
0
  6
Continuous
 62
     7
100
AcDbSpline
210
0.0
220
0.0
230
1.0
 70
     8
 71
     3
 72
    28
 73
    24
 74
    22
 42
0.0000000001
 43
0.0000000001
 44
0.0000000001
 12
0.9802273032848509
 22
-0.1978747934803951
 32
0.0
 13
0.231499514171793
 23
-0.9728350193831552
 33
0.0
 40
0.0
 40
0.0
 40
0.0
 40
0.0
 40
0.4967023799724652
 40
0.9813095823207184
 40
1.454391080647655
 40
1.916359204567367
 40
2.366465435038165
 40
2.802916903165309
 40
3.224875695861415
 40
3.632320465200554
 40
4.025295749603192
 40
4.403966473154843
 40
4.768578935588889
 40
5.119575468363584
 40
5.457580911272417
 40
5.783134451855434
 40
6.096911769333173
 40
6.399712175809368
 40
6.692048581122564
 40
6.974631439204964
 40
7.248502147048201
 40
7.514987279934565
 40
7.775748512241015
 40
7.775748512241015
 40
7.775748512241015
 40
7.775748512241015
 10
132.7365538890999
 20
198.5436980406999
 30
0.0
 10
132.8988476339185
 20
198.5109364137471
 30
0.0
 10
133.2172760318583
 20
198.4346526146947
 30
0.0
 10
133.6798810655187
 20
198.288394766687
 30
0.0
 10
134.1204539349965
 20
198.114646061156
 30
0.0
 10
134.5378124464818
 20
197.916365972717
 30
0.0
 10
134.9304425786495
 20
197.6968462492718
 30
0.0
 10
135.2968813412319
 20
197.4597276444236
 30
0.0
 10
135.6363232598462
 20
197.2086352057948
 30
0.0
 10
135.9488239734953
 20
196.9467901582552
 30
0.0
 10
136.2349619363115
 20
196.6770344631776
 30
0.0
 10
136.4955799744097
 20
196.401935973409
 30
0.0
 10
136.731761050593
 20
196.123735994923
 30
0.0
 10
136.9447817197052
 20
195.8443145628867
 30
0.0
 10
137.136018775669
 20
195.5652234884356
 30
0.0
 10
137.3068956625842
 20
195.287709193204
 30
0.0
 10
137.458838667168
 20
195.0127417128864
 30
0.0
 10
137.5932159296108
 20
194.7410885242165
 30
0.0
 10
137.7113374430684
 20
194.4733207238521
 30
0.0
 10
137.8144704475911
 20
194.209769337992
 30
0.0
 10
137.9038721727213
 20
193.950353642948
 30
0.0
 10
137.9807443247059
 20
193.6945495587735
 30
0.0
 10
138.0247344938354
 20
193.524342103395
 30
0.0
 10
138.0448565266999
 20
193.4397828838999
 30
0.0
 11
132.7365538890999
 21
198.5436980406999
 31
0.0
 11
133.2195871226999
 21
198.4279735855999
 31
0.0
 11
133.6816498027999
 21
198.2818838178999
 31
0.0
 11
134.1217415778001
 21
198.1083173071999
 31
0.0
 11
134.5390108699
 21
197.9100727980999
 31
0.0
 11
134.9318785377999
 21
197.6904125735999
 31
0.0
 11
135.2983015802999
 21
197.4532964881999
 31
0.0
 11
135.6375312683999
 21
197.2023533841999
 31
0.0
 11
135.9498324556
 21
196.9406680606999
 31
0.0
 11
136.2357692520999
 21
196.6710948376999
 31
0.0
 11
136.4961937793
 21
196.3961937963999
 31
0.0
 11
136.7321636849001
 21
196.1182361531999
 31
0.0
 11
136.9449608591999
 21
195.8391019047999
 31
0.0
 11
137.1360150048999
 21
195.5602722204999
 31
0.0
 11
137.3067061101999
 21
195.2830545183999
 31
0.0
 11
137.4584641173
 21
195.0084170987999
 31
0.0
 11
137.5927191749999
 21
194.7370065874999
 31
0.0
 11
137.7107069563
 21
194.4695379774999
 31
0.0
 11
137.8136823131001
 21
194.2063856497999
 31
0.0
 11
137.9029143147999
 21
193.9474593774999
 31
0.0
 11
137.9796069379999
 21
193.6922485477999
 31
0.0
 11
138.0448565266999
 21
193.4397828838999
 31
0.0
  0
SPLINE
  5
19017
330
20
100
AcDbEntity
  8
0
  6
Continuous
 62
     7
100
AcDbSpline
210
0.0
220
0.0
230
1.0
 70
     8
 71
     3
 72
    28
 73
    24
 74
    22
 42
0.0000000001
 43
0.0000000001
 44
0.0000000001
 12
0.9765953065866934
 22
-0.2150851160653439
 32
0.0
 13
0.2278624620463567
 23
-0.97369332871812
 33
0.0
 40
0.0
 40
0.0
 40
0.0
 40
0.0
 40
0.5649208923944639
 40
1.115500070624333
 40
1.652460646208454
 40
2.176340130265645
 40
2.686354259218418
 40
3.180533561775075
 40
3.657988442152515
 40
4.118748636952557
 40
4.562912379495941
 40
4.990708317906527
 40
5.402451667871613
 40
5.798674050492022
 40
6.180108466099516
 40
6.547386945102147
 40
6.90129196032631
 40
7.242742257044297
 40
7.572330597379108
 40
7.890870366730765
 40
8.199545987162773
 40
8.499861280550307
 40
8.793686824911203
 40
8.793686824911203
 40
8.793686824911203
 40
8.793686824911203
 10
132.2436903780999
 20
199.4817207097999
 30
0.0
 10
132.4275900754684
 20
199.4412186845638
 30
0.0
 10
132.7879990317926
 20
199.348239534472
 30
0.0
 10
133.3107273634946
 20
199.1732426382275
 30
0.0
 10
133.8075309987725
 20
198.9679204686222
 30
0.0
 10
134.2772583175458
 20
198.7356820341674
 30
0.0
 10
134.7183774440249
 20
198.4802939495622
 30
0.0
 10
135.1294080609023
 20
198.2058933920846
 30
0.0
 10
135.5095988667493
 20
197.9165681986522
 30
0.0
 10
135.8591500578038
 20
197.6159206430094
 30
0.0
 10
136.1788301816633
 20
197.3071070411055
 30
0.0
 10
136.4696860757089
 20
196.9929650984188
 30
0.0
 10
136.7330163041625
 20
196.6759583578537
 30
0.0
 10
136.9703201089139
 20
196.3581404342792
 30
0.0
 10
137.1831946283673
 20
196.0411955969301
 30
0.0
 10
137.3732767983563
 20
195.7264665192955
 30
0.0
 10
137.542196210645
 20
195.4149883075134
 30
0.0
 10
137.6915089020218
 20
195.1075727646123
 30
0.0
 10
137.8226987560617
 20
194.8048153223362
 30
0.0
 10
137.9371961158969
 20
194.5070457041762
 30
0.0
 10
138.036414564223
 20
194.2141339905782
 30
0.0
 10
138.1217018267304
 20
193.925458401373
 30
0.0
 10
138.1704966565499
 20
193.733458685517
 30
0.0
 10
138.1928139271999
 20
193.6380933613999
 30
0.0
 11
132.2436903780999
 21
199.4817207097999
 31
0.0
 11
132.7906991623999
 21
199.3405930917999
 31
0.0
 11
133.3127967371999
 21
199.1658030637999
 31
0.0
 11
133.8090430013
 21
198.9607023443999
 31
0.0
 11
134.2786570128
 21
198.7285119181999
 31
0.0
 11
134.7200313303999
 21
198.4729671598999
 31
0.0
 11
135.1310337679999
 21
198.1985765999999
 31
0.0
 11
135.5109779653
 21
197.9094303225999
 31
0.0
 11
135.8602987659999
 21
197.6089724464999
 31
0.0
 11
136.1797483841
 21
197.3003733996999
 31
0.0
 11
136.4703837992999
 21
196.9864619147999
 31
0.0
 11
136.7334751058999
 21
196.6697356123999
 31
0.0
 11
136.9705273299
 21
196.3522479439999
 31
0.0
 11
137.1831963549
 21
196.0356028757999
 31
0.0
 11
137.3730705
 21
195.7212125289999
 31
0.0
 11
137.5417833035999
 21
195.4101100543999
 31
0.0
 11
137.6909596077
 21
195.1029704518999
 31
0.0
 11
137.8220005672001
 21
194.8005522959999
 31
0.0
 11
137.9363226361999
 21
194.5032342016999
 31
0.0
 11
138.0353527693
 21
194.2108753957999
 31
0.0
 11
138.1204415193999
 21
193.9228664027999
 31
0.0
 11
138.1928139271999
 21
193.6380933613999
 31
0.0
  0
LINE
  5
19018
330
20
100
AcDbEntity
  8
0
  6
Continuous
 62
     7
100
AcDbLine
 10
131.8370387035999
 20
185.9774714696999
 30
0.0
 11
131.8370387035999
 21
197.7770484779999
 31
0.0
  0
LINE
  5
19019
330
20
100
AcDbEntity
  8
0
  6
Continuous
 62
     7
100
AcDbLine
 10
131.0087397243999
 20
185.9774659803999
 30
0.0
 11
131.0087397243999
 21
197.7770539696999
 31
0.0
  0
SPLINE
  5
1901A
330
20
100
AcDbEntity
  8
0
  6
Continuous
 62
     7
100
AcDbSpline
210
0.0
220
0.0
230
1.0
 70
     8
 71
     3
 72
    29
 73
    25
 74
    23
 42
0.0000000001
 43
0.0000000001
 44
0.0000000001
 12
-0.9635213226901948
 22
-0.2676315764653669
 32
0.0
 13
0.2179579461588562
 23
0.975958161862594
 33
0.0
 40
0.0
 40
0.0
 40
0.0
 40
0.0
 40
0.0875276521649385
 40
0.1711582862407867
 40
0.2510225764622402
 40
0.3273480817712655
 40
0.4004220313415973
 40
0.4705779704193627
 40
0.538184635453951
 40
0.6035747604081049
 40
0.6670904358562702
 40
0.7292152466109025
 40
0.7904321302850179
 40
0.8509077373165649
 40
0.9106002244846072
 40
0.9695142541034126
 40
1.027911966500143
 40
1.086160454874251
 40
1.1446845265429
 40
1.204034657806973
 40
1.264798786715729
 40
1.327585700360514
 40
1.393038404326125
 40
1.461885816611793
 40
1.461885816611793
 40
1.461885816611793
 40
1.461885816611793
 10
132.7365550869001
 20
185.2108223395999
 30
0.0
 10
132.7084435005047
 20
185.2030139517555
 30
0.0
 10
132.652864432287
 20
185.1898193588341
 30
0.0
 10
132.5700498040127
 20
185.177210515998
 30
0.0
 10
132.490172742765
 20
185.1720263449084
 30
0.0
 10
132.4136684929894
 20
185.1739743138663
 30
0.0
 10
132.3408928397794
 20
185.182693839877
 30
0.0
 10
132.2721378321075
 20
185.1977844720429
 30
0.0
 10
132.2076513453093
 20
185.218821508912
 30
0.0
 10
132.1476432807457
 20
185.2453673202613
 30
0.0
 10
132.0922508121897
 20
185.2770013502265
 30
0.0
 10
132.0415424392969
 20
185.3133609603286
 30
0.0
 10
131.9956280848055
 20
185.3541002228496
 30
0.0
 10
131.9547274031436
 20
185.3987748442123
 30
0.0
 10
131.9190920964895
 20
185.4467948852649
 30
0.0
 10
131.8888451290072
 20
185.497567928641
 30
0.0
 10
131.8639601433199
 20
185.5506357278614
 30
0.0
 10
131.8443331711539
 20
185.6057212264798
 30
0.0
 10
131.8298610644167
 20
185.6627027993576
 30
0.0
 10
131.8204944467131
 20
185.7215884110733
 30
0.0
 10
131.8162715996388
 20
185.7824863671476
 30
0.0
 10
131.8173375436474
 20
185.845554976925
 30
0.0
 10
131.8239395347476
 20
185.9109894223551
 30
0.0
 10
131.8320377790399
 20
185.9550743313188
 30
0.0
 10
131.8370397259
 20
185.9774717292999
 30
0.0
 11
132.7365550869001
 21
185.2108223395999
 31
0.0
 11
132.651366859
 21
185.1907212022999
 31
0.0
 11
132.5686720208
 21
185.1782453579999
 31
0.0
 11
132.4889685525999
 21
185.1731795895999
 31
0.0
 11
132.4126703046999
 21
185.1752192287999
 31
0.0
 11
132.3401255357
 21
185.1839975313999
 31
0.0
 11
132.2716165076001
 21
185.1991094093999
 31
0.0
 11
132.2073623321
 21
185.2201346819999
 31
0.0
 11
132.1475816725001
 21
185.2466326286999
 31
0.0
 11
132.0924444764
 21
185.2781624658999
 31
0.0
 11
132.0419716936999
 21
185.3143838727999
 31
0.0
 11
131.9961909822
 21
185.3550241643999
 31
0.0
 11
131.9553574127999
 21
185.3996326686999
 31
0.0
 11
131.9197815533
 21
185.4475654470999
 31
0.0
 11
131.8896189539
 21
185.4981725659999
 31
0.0
 11
131.8648073371
 21
185.5510372657999
 31
0.0
 11
131.8452320680999
 21
185.6058979551999
 31
0.0
 11
131.8307930145999
 21
185.6626128623999
 31
0.0
 11
131.8214291591
 21
185.7212196562999
 31
0.0
 11
131.8171768263
 21
185.7818348113999
 31
0.0
 11
131.8181788894
 21
185.8446137281999
 31
0.0
 11
131.8246807721
 21
185.9097426923999
 31
0.0
 11
131.8370397259
 21
185.9774717292999
 31
0.0
  0
SPLINE
  5
1901B
330
20
100
AcDbEntity
  8
0
  6
Continuous
 62
     7
100
AcDbSpline
210
0.0
220
0.0
230
1.0
 70
     8
 71
     3
 72
    29
 73
    25
 74
    23
 42
0.0000000001
 43
0.0000000001
 44
0.0000000001
 12
-0.9765962286100974
 22
-0.2150809295696261
 32
0.0
 13
-0.0000155291625864
 23
0.9999999998794226
 33
0.0
 40
0.0
 40
0.0
 40
0.0
 40
0.0
 40
0.1009271418135915
 40
0.1991389707113524
 40
0.2955820007831971
 40
0.3912413685761526
 40
0.4870276108707677
 40
0.5837290537001805
 40
0.6819932212639456
 40
0.7822380118063364
 40
0.8847384298806558
 40
0.9898928970049267
 40
1.098053046880196
 40
1.208954304332047
 40
1.321844036626041
 40
1.435968465551354
 40
1.551052217747862
 40
1.667057461921549
 40
1.784096268442812
 40
1.902552418438167
 40
2.022876101460998
 40
2.145516852509559
 40
2.270917999381647
 40
2.3995563053059
 40
2.3995563053059
 40
2.3995563053059
 40
2.3995563053059
 10
132.2436903780999
 20
184.2727992402999
 30
0.0
 10
132.2108353560801
 20
184.2655634058065
 30
0.0
 10
132.1450405836327
 20
184.2552748402891
 30
0.0
 10
132.0462656570952
 20
184.2528916387716
 30
0.0
 10
131.9497817313595
 20
184.2634488525169
 30
0.0
 10
131.8563278066281
 20
184.2864077025075
 30
0.0
 10
131.7664914909437
 20
184.321084477397
 30
0.0
 10
131.6807415632449
 20
184.3667194583211
 30
0.0
 10
131.5994519788383
 20
184.4225132699052
 30
0.0
 10
131.5229190341618
 20
184.4876526470643
 30
0.0
 10
131.4513196565205
 20
184.56138169929
 30
0.0
 10
131.3847268447666
 20
184.6430700256006
 30
0.0
 10
131.3232606581706
 20
184.7320877386369
 30
0.0
 10
131.2671736470207
 20
184.8275754930541
 30
0.0
 10
131.2167577041997
 20
184.9283887895843
 30
0.0
 10
131.1721420403711
 20
185.0334041366957
 30
0.0
 10
131.1332594684468
 20
185.1417688817941
 30
0.0
 10
131.0999216242274
 20
185.2529730347958
 30
0.0
 10
131.071909306151
 20
185.3667891649315
 30
0.0
 10
131.0490334198224
 20
185.4832113758483
 30
0.0
 10
131.031173003631
 20
185.6023935564753
 30
0.0
 10
131.0182993615339
 20
185.7245440507158
 30
0.0
 10
131.0104716312039
 20
185.8498954946894
 30
0.0
 10
131.0087403902816
 20
185.934586545097
 30
0.0
 10
131.0087397243999
 20
185.9774659803999
 30
0.0
 11
132.2436903780999
 21
184.2727992402999
 31
0.0
 11
132.1439503716001
 21
184.2573648935999
 31
0.0
 11
132.0457651519
 21
184.2550788559999
 31
0.0
 11
131.9498953064
 21
184.2655779403999
 31
0.0
 11
131.8569829983
 21
184.2883379414999
 31
0.0
 11
131.7675798765999
 21
184.3227194196999
 31
0.0
 11
131.6821407658001
 21
184.3680110015999
 31
0.0
 11
131.6010240580999
 21
184.4234720361999
 31
0.0
 11
131.5245687418
 21
184.4883072321999
 31
0.0
 11
131.4530337909
 21
184.5617176299999
 31
0.0
 11
131.3864634965
 21
184.6431170025999
 31
0.0
 11
131.3248816391999
 21
184.7320343398999
 31
0.0
 11
131.2685958509
 21
184.8275906004999
 31
0.0
 11
131.2179961363999
 21
184.9285052205999
 31
0.0
 11
131.1732777224999
 21
185.0335035478999
 31
0.0
 11
131.134330131
 21
185.1417964614999
 31
0.0
 11
131.1009485483
 21
185.2528950060999
 31
0.0
 11
131.0729181939
 21
185.3665276662999
 31
0.0
 11
131.0500275296999
 21
185.4827510587999
 31
0.0
 11
131.0321497023999
 21
185.6017391757999
 31
0.0
 11
131.0192548999
 21
185.7237001444999
 31
0.0
 11
131.011403419
 21
185.8488552557999
 31
0.0
 11
131.0087397243999
 21
185.9774659803999
 31
0.0
  0
SPLINE
  5
1901C
330
20
100
AcDbEntity
  8
0
  6
Continuous
 62
     7
100
AcDbSpline
210
0.0
220
0.0
230
1.0
 70
     8
 71
     3
 72
    20
 73
    16
 74
    14
 42
0.0000000001
 43
0.0000000001
 44
0.0000000001
 12
-0.0689734728754952
 22
0.997618494234892
 32
0.0
 13
0.9198826840793216
 23
0.3921936352505266
 33
0.0
 40
0.0
 40
0.0
 40
0.0
 40
0.0
 40
0.0944128587974737
 40
0.1880508573545221
 40
0.280678447508799
 40
0.3720895065235968
 40
0.4621145355924717
 40
0.5506274614512272
 40
0.6375518085391381
 40
0.722865920374338
 40
0.8066068026572018
 40
0.888872070348861
 40
0.9698194224988895
 40
1.04966310436429
 40
1.128666975205299
 40
1.128666975205299
 40
1.128666975205299
 40
1.128666975205299
 10
132.2436904014
 20
184.2727992402999
 30
0.0
 10
132.2415197404815
 20
184.3041952449765
 30
0.0
 10
132.2396596578676
 20
184.3669293805776
 30
0.0
 10
132.2443846683325
 20
184.4604667576322
 30
0.0
 10
132.2565915002691
 20
184.552324661586
 30
0.0
 10
132.2761738224014
 20
184.6416676248047
 30
0.0
 10
132.3029590906485
 20
184.727691882375
 30
0.0
 10
132.3367109150865
 20
184.8096200863399
 30
0.0
 10
132.377130858645
 20
184.8867110755675
 30
0.0
 10
132.423860716767
 20
184.9582651714959
 30
0.0
 10
132.4764855355002
 20
185.0236304347427
 30
0.0
 10
132.5345348716709
 20
185.0822075736937
 30
0.0
 10
132.597491527338
 20
185.1334578873073
 30
0.0
 10
132.6647743183597
 20
185.1769001224263
 30
0.0
 10
132.712327724346
 20
185.2004934771319
 30
0.0
 10
132.7365524885999
 20
185.2108217488999
 30
0.0
 11
132.2436904014
 21
184.2727992402999
 31
0.0
 11
132.2409188133999
 21
184.3671714088999
 31
0.0
 11
132.2456785957999
 21
184.4606883551999
 31
0.0
 11
132.2579266141999
 21
184.5525026051999
 31
0.0
 11
132.2775518739999
 21
184.6417821150999
 31
0.0
 11
132.3043765260999
 21
184.7277178113999
 31
0.0
 11
132.3381574787999
 21
184.8095309232999
 31
0.0
 11
132.3785886005
 21
184.8864800396999
 31
0.0
 11
132.4253034943001
 21
184.9578678283999
 31
0.0
 11
132.4778788179
 21
185.0230473551999
 31
0.0
 11
132.5358381205999
 21
185.0814279469999
 31
0.0
 11
132.5986561606
 21
185.1324805440999
 31
0.0
 11
132.6657636649999
 21
185.1757424948999
 31
0.0
 11
132.7365524885999
 21
185.2108217488999
 31
0.0
  0
LINE
  5
1901D
330
20
100
AcDbEntity
  8
0
  6
Continuous
 62
     7
100
AcDbLine
 10
131.0087397243999
 20
185.9774659803999
 30
0.0
 11
131.8370387035999
 21
185.9774659803999
 31
0.0
  0
SPLINE
  5
1901E
330
20
100
AcDbEntity
  8
0
  6
Continuous
 62
     7
100
AcDbSpline
210
0.0
220
0.0
230
1.0
 70
     8
 71
     3
 72
    20
 73
    16
 74
    14
 42
0.0000000001
 43
0.0000000001
 44
0.0000000001
 12
-0.0689733131946438
 22
-0.9976185052749141
 32
0.0
 13
0.9198827190375761
 23
-0.3921935532565978
 33
0.0
 40
0.0
 40
0.0
 40
0.0
 40
0.0
 40
0.094412855769979
 40
0.1880508505986144
 40
0.2806784362138879
 40
0.3720894898883977
 40
0.4621145129705291
 40
0.5506274322679225
 40
0.6375517723774625
 40
0.722865876679818
 40
0.8066067514204464
 40
0.8888720113058983
 40
0.9698193555579813
 40
1.049663029657223
 40
1.128666892965592
 40
1.128666892965592
 40
1.128666892965592
 40
1.128666892965592
 10
132.2436903771999
 20
199.4817207097999
 30
0.0
 10
132.2415197213764
 20
199.4503247057826
 30
0.0
 10
132.239659648451
 20
199.3875905721735
 30
0.0
 10
132.2443846720187
 20
199.2940531995821
 30
0.0
 10
132.2565915153122
 20
199.2021953017487
 30
0.0
 10
132.276173847088
 20
199.1128523460816
 30
0.0
 10
132.3029591234858
 20
199.0268280973205
 30
0.0
 10
132.3367109542051
 20
198.9448999030153
 30
0.0
 10
132.3771309023132
 20
198.8678089241275
 30
0.0
 10
132.423860763439
 20
198.7962548389655
 30
0.0
 10
132.476485583606
 20
198.7308895866888
 30
0.0
 10
132.5345349198292
 20
198.6723124587226
 30
0.0
 10
132.5974915741648
 20
198.6210621559006
 30
0.0
 10
132.664774362607
 20
198.5776199310768
 30
0.0
 10
132.7123277661351
 20
198.5540265829238
 30
0.0
 10
132.7365525289999
 20
198.5436983142999
 30
0.0
 11
132.2436903771999
 21
199.4817207097999
 31
0.0
 11
132.2409188038
 21
199.3873485437999
 31
0.0
 11
132.2456785992999
 21
199.2938316018999
 31
0.0
 11
132.2579266290999
 21
199.2020173579999
 31
0.0
 11
132.2775518985999
 21
199.1127378556999
 31
0.0
 11
132.3043765587999
 21
199.0268021681999
 31
0.0
 11
132.3381575178
 21
198.9449890659999
 31
0.0
 11
132.3785886441001
 21
198.8680399598999
 31
0.0
 11
132.4253035408
 21
198.7966521820999
 31
0.0
 11
132.4778788659
 21
198.7314726661999
 31
0.0
 11
132.5358381686001
 21
198.6730920853999
 31
0.0
 11
132.5986562072
 21
198.6220394990999
 31
0.0
 11
132.6657637089999
 21
198.5787775585999
 31
0.0
 11
132.7365525289999
 21
198.5436983142999
 31
0.0
  0
SPLINE
  5
1901F
330
20
100
AcDbEntity
  8
0
  6
Continuous
 62
     7
100
AcDbSpline
210
0.0
220
0.0
230
1.0
 70
     8
 71
     3
 72
    29
 73
    25
 74
    23
 42
0.0000000001
 43
0.0000000001
 44
0.0000000001
 12
-0.2179584929094289
 22
0.975958039758191
 32
0.0
 13
0.9635213267383607
 23
-0.2676315618912484
 33
0.0
 40
0.0
 40
0.0
 40
0.0
 40
0.0
 40
0.068848176973536
 40
0.1343008727798747
 40
0.1970873190414316
 40
0.257850799086355
 40
0.317200361364401
 40
0.3757241860731501
 40
0.4339728772001874
 40
0.4923710002060947
 40
0.5512852953645048
 40
0.610977534326369
 40
0.6714520974959201
 40
0.7326670586187042
 40
0.7947889181928387
 40
0.8582999580932016
 40
0.9236819550633208
 40
0.991276938198602
 40
1.061424709214764
 40
1.134488829947745
 40
1.210805246747934
 40
1.290668495006162
 40
1.37431494273672
 40
1.461885848807261
 40
1.461885848807261
 40
1.461885848807261
 40
1.461885848807261
 10
131.8370397264
 20
197.7770482182999
 30
0.0
 10
131.8320377114358
 20
197.7994458622466
 30
0.0
 10
131.8239394616414
 20
197.8435310289542
 30
0.0
 10
131.8173375097296
 20
197.908965574502
 30
0.0
 10
131.8162716230086
 20
197.9720338093873
 30
0.0
 10
131.8204944264408
 20
198.0329312027412
 30
0.0
 10
131.8298609108343
 20
198.0918163390287
 30
0.0
 10
131.8443328720808
 20
198.1487977367308
 30
0.0
 10
131.8639597885505
 20
198.203883385643
 30
0.0
 10
131.8888448308519
 20
198.2569514838354
 30
0.0
 10
131.919091834375
 20
198.3077246731439
 30
0.0
 10
131.9547269014863
 20
198.3557444641016
 30
0.0
 10
131.9956267739978
 20
198.4004183658271
 30
0.0
 10
132.0415394685363
 20
198.4411565114907
 30
0.0
 10
132.0922449494014
 20
198.4775146881818
 30
0.0
 10
132.1476323963894
 20
198.5091468990792
 30
0.0
 10
132.2076323418448
 20
198.5356908233238
 30
0.0
 10
132.2721091252642
 20
198.5567273654918
 30
0.0
 10
132.3408536964105
 20
198.5718192466168
 30
0.0
 10
132.4136198482962
 20
198.5805418890844
 30
0.0
 10
132.4901172977092
 20
198.5824946382152
 30
0.0
 10
132.5699965995504
 20
198.5773155121897
 30
0.0
 10
132.6528310600194
 20
198.5647079801746
 30
0.0
 10
132.7084296309664
 20
198.5515098504225
 30
0.0
 10
132.7365551094999
 20
198.5436976042999
 30
0.0
 11
131.8370397264
 21
197.7770482182999
 31
0.0
 11
131.8246806673
 21
197.8447780132999
 31
0.0
 11
131.8181788447
 21
197.9099069752999
 31
0.0
 11
131.8171768344
 21
197.9726854254999
 31
0.0
 11
131.8214291178999
 21
198.0332999335999
 31
0.0
 11
131.8307928263
 21
198.0919061747999
 31
0.0
 11
131.8452317245
 21
198.1486208666999
 31
0.0
 11
131.8648069654
 21
198.2034817813999
 31
0.0
 11
131.8896186887
 21
198.2563468847999
 31
0.0
 11
131.9197813867999
 21
198.3069542539999
 31
0.0
 11
131.9553570636001
 21
198.3548868588999
 31
0.0
 11
131.9961898466999
 21
198.3994946677999
 31
0.0
 11
132.0419689448999
 21
198.4401338807999
 31
0.0
 11
132.0924390297
 21
198.4763539853999
 31
0.0
 11
132.1475717547
 21
198.5078823031999
 31
0.0
 11
132.2073443594999
 21
198.5343783640999
 31
0.0
 11
132.2715866527
 21
198.5554023862999
 31
0.0
 11
132.3400869663
 21
198.5705158509999
 31
0.0
 11
132.4126214744001
 21
198.5792971306999
 31
0.0
 11
132.4889105054999
 21
198.5813414415999
 31
0.0
 11
132.5686132615999
 21
198.5762808988999
 31
0.0
 11
132.6513243808999
 21
198.5638069675999
 31
0.0
 11
132.7365551094999
 21
198.5436976042999
 31
0.0
  0
SPLINE
  5
19020
330
20
100
AcDbEntity
  8
0
  6
Continuous
 62
     7
100
AcDbSpline
210
0.0
220
0.0
230
1.0
 70
     8
 71
     3
 72
    29
 73
    25
 74
    23
 42
0.0000000001
 43
0.0000000001
 44
0.0000000001
 12
0.0000155229533173
 22
0.9999999998795191
 32
0.0
 13
0.976596236102701
 23
-0.2150808955487155
 33
0.0
 40
0.0
 40
0.0
 40
0.0
 40
0.0
 40
0.1286397474660594
 40
0.2540409121738103
 40
0.3766807675752168
 40
0.4970031647473665
 40
0.6154581722039279
 40
0.7324964859937
 40
0.8485021484888456
 40
0.9635867290386036
 40
1.077711687755882
 40
1.190600972642538
 40
1.301500382917426
 40
1.409657316808427
 40
1.514807170814843
 40
1.617300808973121
 40
1.717534361779165
 40
1.815783511040202
 40
1.912476193567848
 40
2.008252328253906
 40
2.103903088134498
 40
2.200347187303353
 40
2.298578991797036
 40
2.399556272493124
 40
2.399556272493124
 40
2.399556272493124
 40
2.399556272493124
 10
131.0087397243999
 20
197.7770539696999
 30
0.0
 10
131.0087403900229
 20
197.8199338855167
 30
0.0
 10
131.0104716614398
 20
197.9046254227471
 30
0.0
 10
131.0182994630799
 20
198.0299770505813
 30
0.0
 10
131.0311730744779
 20
198.1521268221095
 30
0.0
 10
131.0490333230342
 20
198.2713079062167
 30
0.0
 10
131.0719089636136
 20
198.3877291718522
 30
0.0
 10
131.0999210854362
 20
198.501544931823
 30
0.0
 10
131.1332588954787
 20
198.6127493577953
 30
0.0
 10
131.1721415876747
 20
198.7211146899668
 30
0.0
 10
131.2167573236613
 20
198.8261303370992
 30
0.0
 10
131.2671729568401
 20
198.926943129602
 30
0.0
 10
131.3232589202391
 20
199.0224293636283
 30
0.0
 10
131.3847229922677
 20
199.1114446047554
 30
0.0
 10
131.4513121828704
 20
199.1931295769367
 30
0.0
 10
131.5229053756569
 20
199.2668540745935
 30
0.0
 10
131.5994284192329
 20
199.331987999679
 30
0.0
 10
131.6807060982171
 20
199.3877783553744
 30
0.0
 10
131.7664433424532
 20
199.4334129523407
 30
0.0
 10
131.8562684399198
 20
199.4680930913671
 30
0.0
 10
131.949714484403
 20
199.4910590228671
 30
0.0
 10
132.0462015218569
 20
199.5016261030195
 30
0.0
 10
132.145000547001
 20
199.4992503370181
 30
0.0
 10
132.2108190340134
 20
199.4889601377873
 30
0.0
 10
132.2436903780999
 20
199.4817207097999
 30
0.0
 11
131.0087397243999
 21
197.7770539696999
 31
0.0
 11
131.0114034794
 21
197.9056661348999
 31
0.0
 11
131.0192550219999
 21
198.0308212601999
 31
0.0
 11
131.0321497740001
 21
198.1527813335999
 31
0.0
 11
131.0500274063999
 21
198.2717681795999
 31
0.0
 11
131.0729177908999
 21
198.3879904626999
 31
0.0
 11
131.1009479275999
 21
198.5016226690999
 31
0.0
 11
131.1343295245999
 21
198.6127216461999
 31
0.0
 11
131.1732773174001
 21
198.7210153676999
 31
0.0
 11
131.2179958926999
 21
198.8260142020999
 31
0.0
 11
131.2685953596999
 21
198.9269284457999
 31
0.0
 11
131.324880091
 21
199.0224831851999
 31
0.0
 11
131.3864598331999
 21
199.1113980753999
 31
0.0
 11
131.4530266633
 21
199.1927943217999
 31
0.0
 11
131.524555961
 21
199.2662007617999
 31
0.0
 11
131.6010012159999
 21
199.3310304470999
 31
0.0
 11
131.6821033092
 21
199.3864862475999
 31
0.0
 11
131.7675320512
 21
199.4317786850999
 31
0.0
 11
131.856923176
 21
199.4661631987999
 31
0.0
 11
131.9498250607
 21
199.4889295705999
 31
0.0
 11
132.0456949504
 21
199.4994380677999
 31
0.0
 11
132.1439003248999
 21
199.4971595082999
 31
0.0
 11
132.2436903780999
 21
199.4817207097999
 31
0.0
  0
LINE
  5
19021
330
20
100
AcDbEntity
  8
0
  6
Continuous
 62
     7
100
AcDbLine
 10
131.0087397243999
 20
197.7770539696999
 30
0.0
 11
131.8370387035999
 21
197.7770539696999
 31
0.0
  0
SPLINE
  5
19022
330
20
100
AcDbEntity
  8
0
  6
Continuous
 62
     7
100
AcDbSpline
210
0.0
220
0.0
230
1.0
 70
     8
 71
     3
 72
    13
 73
     9
 74
     7
 42
0.0000000001
 43
0.0000000001
 44
0.0000000001
 12
-0.8017432304689428
 22
-0.5976686309295678
 32
0.0
 13
-0.0517258721552377
 23
-0.9986613210442168
 33
0.0
 40
0.0
 40
0.0
 40
0.0
 40
0.0
 40
0.0553526790333573
 40
0.1051985813415071
 40
0.1495775690333986
 40
0.188759641179917
 40
0.2233413024450481
 40
0.2543646544583373
 40
0.2543646544583373
 40
0.2543646544583373
 40
0.2543646544583373
 10
138.1928145708
 20
193.6380902268999
 30
0.0
 10
138.1780216922322
 20
193.6270627069345
 30
0.0
 10
138.1505742351822
 20
193.6051777399147
 30
0.0
 10
138.1142555936187
 20
193.5709178702263
 30
0.0
 10
138.0851669850764
 20
193.5371525958916
 30
0.0
 10
138.0635307976814
 20
193.5040690064267
 30
0.0
 10
138.049554322783
 20
193.4718413884228
 30
0.0
 10
138.0453913713133
 20
193.4501101459015
 30
0.0
 10
138.044856468
 20
193.4397828719999
 30
0.0
 11
138.1928145708
 21
193.6380902268999
 31
0.0
 11
138.1496647038
 21
193.6034202390999
 31
0.0
 11
138.1135811818001
 21
193.5690313830999
 31
0.0
 11
138.0848565962999
 21
193.5352025087999
 31
0.0
 11
138.0637238674
 21
193.5022079251999
 31
0.0
 11
138.0503543546999
 21
193.4703151763999
 31
0.0
 11
138.044856468
 21
193.4397828719999
 31
0.0
  0
SPLINE
  5
19023
330
20
100
AcDbEntity
  8
0
  6
Continuous
 62
     7
100
AcDbSpline
210
0.0
220
0.0
230
1.0
 70
     8
 71
     3
 72
    24
 73
    20
 74
    18
 42
0.0000000001
 43
0.0000000001
 44
0.0000000001
 12
0.3311928308954234
 22
-0.9435630920947872
 32
0.0
 13
-0.3311926692315085
 23
-0.9435631488391802
 33
0.0
 40
0.0
 40
0.0
 40
0.0
 40
0.0
 40
0.1754314379403405
 40
0.3610942436487925
 40
0.5572489776818786
 40
0.7639796792827851
 40
0.9812699217906127
 40
1.208629962407632
 40
1.441597548509118
 40
1.676367060874216
 40
1.911763619892211
 40
2.146572816880547
 40
2.379581931136515
 40
2.606915204246766
 40
2.824211175243818
 40
3.030983787610833
 40
3.22720729660657
 40
3.412953980578654
 40
3.588470124822186
 40
3.588470124822186
 40
3.588470124822186
 40
3.588470124822186
 10
138.1928139271999
 20
193.6380926834999
 30
0.0
 10
138.2121811387198
 20
193.582915806822
 30
0.0
 10
138.2500929453137
 20
193.4686488235285
 30
0.0
 10
138.3024460582549
 20
193.2903909862442
 30
0.0
 10
138.3508943064559
 20
193.1002378901345
 30
0.0
 10
138.3943257727568
 20
192.8980736934015
 30
0.0
 10
138.431487533282
 20
192.6840899275652
 30
0.0
 10
138.4608773263337
 20
192.4600690462806
 30
0.0
 10
138.4811340930735
 20
192.2291838673582
 30
0.0
 10
138.4914201740635
 20
191.9949567888669
 30
0.0
 10
138.4914276173401
 20
191.7598894456256
 30
0.0
 10
138.4811543144931
 20
191.5256346747971
 30
0.0
 10
138.4609079740438
 20
191.2947303274849
 30
0.0
 10
138.431528649739
 20
191.070701204038
 30
0.0
 10
138.3943769771084
 20
190.8567086193197
 30
0.0
 10
138.350947145853
 20
190.6545043508182
 30
0.0
 10
138.302490157607
 20
190.4642865074842
 30
0.0
 10
138.2501190552783
 20
190.2859514410365
 30
0.0
 10
138.2121904761351
 20
190.1716307747114
 30
0.0
 10
138.1928139226999
 20
190.1164272527999
 30
0.0
 11
138.1928139271999
 21
193.6380926834999
 31
0.0
 11
138.2480776074
 21
193.4715930886999
 31
0.0
 11
138.3004102969
 21
193.2934584007999
 31
0.0
 11
138.3488502384
 21
193.1033788075999
 31
0.0
 11
138.3922779905999
 21
192.9012609871999
 31
0.0
 11
138.4294605960001
 21
192.6871757159999
 31
0.0
 11
138.4590361685
 21
192.4617475154999
 31
0.0
 11
138.4793975129
 21
192.2296714248999
 31
0.0
 11
138.4896973176
 21
191.9951279577999
 31
0.0
 11
138.4897047710999
 21
191.7597313988999
 31
0.0
 11
138.4794172117999
 21
191.5251476715999
 31
0.0
 11
138.4590643182
 21
191.2930291521999
 31
0.0
 11
138.4295036537
 21
191.0676259929999
 31
0.0
 11
138.3923313565999
 21
190.8535331174999
 31
0.0
 11
138.3489045922999
 21
190.6513722177999
 31
0.0
 11
138.3004549493
 21
190.4612241239999
 31
0.0
 11
138.2481029206999
 21
190.2830076945999
 31
0.0
 11
138.1928139226999
 21
190.1164272527999
 31
0.0
  0
SPLINE
  5
19024
330
20
100
AcDbEntity
  8
0
  6
Continuous
 62
     7
100
AcDbSpline
210
0.0
220
0.0
230
1.0
 70
     8
 71
     3
 72
    13
 73
     9
 74
     7
 42
0.0000000001
 43
0.0000000001
 44
0.0000000001
 12
-0.8017434883961195
 22
0.5976682849327219
 32
0.0
 13
-0.0517263936172874
 23
0.9986612940348441
 33
0.0
 40
0.0
 40
0.0
 40
0.0
 40
0.0
 40
0.0553527019551138
 40
0.1051986247622993
 40
0.1495776299142857
 40
0.1887597161708485
 40
0.2233413878840536
 40
0.2543647464609942
 40
0.2543647464609942
 40
0.2543647464609942
 40
0.2543647464609942
 10
138.1928147302001
 20
190.1164297231999
 30
0.0
 10
138.1780218407475
 20
190.1274572413479
 30
0.0
 10
138.150574362813
 20
190.1493422053892
 30
0.0
 10
138.114255690736
 20
190.1836020722846
 30
0.0
 10
138.0851670543887
 20
190.2173673455704
 30
0.0
 10
138.0635308423359
 20
190.250450935628
 30
0.0
 10
138.0495543456012
 20
190.2826785554722
 30
0.0
 10
138.045391381119
 20
190.3044098013926
 30
0.0
 10
138.0448564723001
 20
190.3147370771999
 30
0.0
 11
138.1928147302001
 21
190.1164297231999
 31
0.0
 11
138.1496648300999
 21
190.1510997063999
 31
0.0
 11
138.1135812774
 21
190.1854885598999
 31
0.0
 11
138.0848566641
 21
190.2193174334999
 31
0.0
 11
138.0637239105999
 21
190.2523120180999
 31
0.0
 11
138.0503543766001
 21
190.2842047692999
 31
0.0
 11
138.0448564723001
 21
190.3147370771999
 31
0.0
  0
SPLINE
  5
19025
330
20
100
AcDbEntity
  8
0
  6
Continuous
 62
     7
100
AcDbSpline
210
0.0
220
0.0
230
1.0
 70
     8
 71
     3
 72
    24
 73
    20
 74
    18
 42
0.0000000001
 43
0.0000000001
 44
0.0000000001
 12
0.2314961915196647
 22
-0.9728358100480731
 32
0.0
 13
-0.2314961885704716
 23
-0.9728358107498639
 33
0.0
 40
0.0
 40
0.0
 40
0.0
 40
0.0
 40
0.1513411214063769
 40
0.3124443896388737
 40
0.4835678578701116
 40
0.6647948307714449
 40
0.8560873411365429
 40
1.056946203582511
 40
1.263297932817508
 40
1.471579281167606
 40
1.680529369215257
 40
1.888846228424553
 40
2.095235260896165
 40
2.296071231333398
 40
2.487369750781314
 40
2.668634496199556
 40
2.8398188679718
 40
3.000995528712503
 40
3.152409931252871
 40
3.152409931252871
 40
3.152409931252871
 40
3.152409931252871
 10
138.0448565266999
 20
193.4397828838999
 30
0.0
 10
138.056534824442
 20
193.3907061964209
 30
0.0
 10
138.079369069517
 20
193.2890793554735
 30
0.0
 10
138.1107819208912
 20
193.1309639960097
 30
0.0
 10
138.1398288410275
 20
192.9622758024041
 30
0.0
 10
138.1658499632061
 20
192.782917401548
 30
0.0
 10
138.1881014133963
 20
192.5930659940667
 30
0.0
 10
138.2056899721967
 20
192.3943138194697
 30
0.0
 10
138.2178081911807
 20
192.1894782938902
 30
0.0
 10
138.2239604098136
 20
191.981678006631
 30
0.0
 10
138.2239648612759
 20
191.7731314218221
 30
0.0
 10
138.2178202887133
 20
191.5653066125955
 30
0.0
 10
138.2057083112149
 20
191.3604540337866
 30
0.0
 10
138.1881260166414
 20
191.1616944797905
 30
0.0
 10
138.1658806344497
 20
190.9718353484971
 30
0.0
 10
138.1398605361066
 20
190.7924415266196
 30
0.0
 10
138.1108084295806
 20
190.62369600605
 30
0.0
 10
138.0793848273827
 20
190.4655122163155
 30
0.0
 10
138.0565404790609
 20
190.3638375172181
 30
0.0
 10
138.0448565266999
 20
190.3147370661999
 30
0.0
 11
138.0448565266999
 21
193.4397828838999
 31
0.0
 11
138.0780602326999
 21
193.2921290693999
 31
0.0
 11
138.1094756407001
 21
193.1341185153999
 31
0.0
 11
138.1385336217999
 21
192.9654802186999
 31
0.0
 11
138.1645696944999
 21
192.7861332403999
 31
0.0
 11
138.1868511536999
 21
192.5961428166999
 31
0.0
 11
138.2045676331999
 21
192.3960668086999
 31
0.0
 11
138.2167614446
 21
192.1900756750999
 31
0.0
 11
138.2229287556999
 21
191.9818856552999
 31
0.0
 11
138.2229332183999
 21
191.7729355672999
 31
0.0
 11
138.2167732404
 21
191.5647098039999
 31
0.0
 11
138.2045844934
 21
191.3586810021999
 31
0.0
 11
138.1868769490999
 21
191.1586271846999
 31
0.0
 11
138.1646016791999
 21
190.9686299849999
 31
0.0
 11
138.1385662156999
 21
190.7892447498999
 31
0.0
 11
138.1095024346
 21
190.6205456515999
 31
0.0
 11
138.0780754346999
 21
190.4624625732999
 31
0.0
 11
138.0448565266999
 21
190.3147370661999
 31
0.0
  0
POINT
  5
19026
330
20
100
AcDbEntity
  8
pnt
  6
CENTER
100
AcDbPoint
 10
179.3526340399
 20
191.8772599750999
 30
0.0
  0
LWPOLYLINE
  5
19027
330
20
100
AcDbEntity
  8
0
100
AcDbPolyline
 90
        5
 70
     0
 43
0.0
 10
281.408499346307
 20
144.615305869
 10
281.3902881604071
 20
144.2955212298999
 10
281.3606421352074
 20
143.9444718704999
 10
281.3685403857073
 20
143.5846491501
 10
281.4713033680072
 20
143.2582398765999
  0
LWPOLYLINE
  5
19028
330
20
100
AcDbEntity
  8
0
100
AcDbPolyline
 90
        4
 70
     0
 43
0.0
 10
282.8015121146071
 20
145.0684298056
 10
282.8468181335073
 20
143.8091278261
 10
282.8847417527073
 20
143.2073004200001
 10
282.959831054007
 20
142.6837279440998
  0
LINE
  5
19029
330
20
100
AcDbEntity
  8
0
100
AcDbLine
 10
281.5965106250073
 20
143.0413745458999
 30
0.0
 11
268.519001464207
 21
165.6922848488999
 31
0.0
  0
LWPOLYLINE
  5
1902A
330
20
100
AcDbEntity
  8
0
100
AcDbPolyline
 90
        5
 70
     0
 43
0.0
 10
228.3144533498
 20
144.615305869
 10
228.1370562819997
 20
144.2955212298999
 10
227.8282408498998
 20
143.9444718704999
 10
227.3759356500999
 20
143.5846491501
 10
226.7888832140998
 20
143.2582398765999
  0
LWPOLYLINE
  5
1902B
330
20
100
AcDbEntity
  8
0
100
AcDbPolyline
 90
        5
 70
     0
 43
0.0
 10
229.1500483036999
 20
145.0684298056
 10
229.0855771493998
 20
144.4372399999999
 10
228.8789136852999
 20
143.8091278261
 10
228.5152225532999
 20
143.2073004200001
 10
227.9978532978998
 20
142.6837279440998
  0
LWPOLYLINE
  5
1902C
330
20
100
AcDbEntity
  8
0
100
AcDbPolyline
 90
        9
 70
     0
 43
0.0
 10
229.3526340399
 20
144.8658440692998
 10
229.2955196046998
 20
144.282570886
 10
229.1260437006
 20
143.7215651469
 10
228.8502841921998
 20
143.2043981199001
 10
228.4786545251999
 20
142.7512078383998
 10
228.0254641688999
 20
142.3795886588995
 10
227.5083081816998
 20
142.1038417745999
 10
226.9473162028998
 20
141.9343730397
 10
226.3640499455998
 20
141.8772599751
  0
LWPOLYLINE
  5
1902D
330
20
100
AcDbEntity
  8
0
100
AcDbPolyline
 90
        7
 70
     0
 43
0.0
 10
224.7730425917998
 20
145.0900514599998
 10
224.7639558777
 20
144.8843822334
 10
224.6978375976998
 20
144.6867078198999
 10
224.5789862558999
 20
144.5085993236
 10
224.4151174190999
 20
144.3601054958
 10
224.2158639638998
 20
144.2486943882999
 10
223.9924100339
 20
144.1797546772999
  0
LINE
  5
1902E
330
20
100
AcDbEntity
  8
0
100
AcDbLine
 10
226.7888832140998
 20
143.2582398765999
 30
0.0
 11
218.0275564185999
 21
165.6922848488999
 31
0.0
  0
LWPOLYLINE
  5
1902F
330
20
100
AcDbEntity
  8
0
100
AcDbPolyline
 90
        7
 70
     0
 43
0.0
 10
223.6147847867998
 20
144.2430151926999
 10
223.9357117613
 20
144.2867094979999
 10
224.2207127827998
 20
144.4114053430998
 10
224.4453575776998
 20
144.6044747717
 10
224.5875937944997
 20
144.8458014158999
 10
224.6348860693
 20
145.1126245421999
 10
224.5831193167996
 20
145.3780762522999
  0
LINE
  5
19030
330
20
100
AcDbEntity
  8
0
100
AcDbLine
 10
228.7995793441998
 20
100.9052468623946
 30
0.0
 11
220.5124533559998
 21
113.1565143037948
 31
0.0
  0
LINE
  5
19031
330
20
100
AcDbEntity
  8
0
100
AcDbLine
 10
226.7888832140998
 20
101.1214295421948
 30
0.0
 11
218.0275564185999
 21
114.0737314459947
 31
0.0
  0
LINE
  5
19032
330
20
100
AcDbEntity
  8
0
100
AcDbLine
 10
216.7573868672
 20
114.0737314459947
 30
0.0
 11
224.7246655751999
 21
102.2953100279948
 31
0.0
  0
LINE
  5
19033
330
20
100
AcDbEntity
  8
0
100
AcDbLine
 10
224.5831193167996
 20
102.3453176443948
 30
0.0
 11
216.6496672655
 21
114.0737314459947
 31
0.0
  0
LWPOLYLINE
  5
19034
330
20
100
AcDbEntity
  8
0
100
AcDbPolyline
 90
        4
 70
     0
 43
0.0
 10
227.997821847
 20
99.63289551989477
 10
227.6863628661
 20
100.2544315359944
 10
227.2664664595998
 20
100.7714370062948
 10
226.7888832140998
 20
101.1214295419949
  0
LWPOLYLINE
  5
19035
330
20
100
AcDbEntity
  8
0
100
AcDbPolyline
 90
        5
 70
     0
 43
0.0
 10
228.3144533498
 20
101.1842335638944
 10
228.1370562819997
 20
101.2024447497947
 10
227.8282408498998
 20
101.2320907749947
 10
227.3759356500999
 20
101.2241925244947
 10
226.7888832140998
 20
101.1214295421948
  0
LWPOLYLINE
  5
19036
330
20
100
AcDbEntity
  8
0
100
AcDbPolyline
 90
        3
 70
     0
 43
0.0
 10
227.4454467046998
 20
99.55197958389488
 10
226.8343219447999
 20
99.48578439499478
 10
226.1923247708998
 20
99.43848296309477
  0
LINE
  5
19037
330
20
100
AcDbEntity
  8
0
100
AcDbLine
 10
226.1923247462
 20
100.9962222851948
 30
0.0
 11
226.1923247462
 21
99.43848296309477
 31
0.0
  0
LWPOLYLINE
  5
19038
330
20
100
AcDbEntity
  8
0
100
AcDbPolyline
 90
        3
 70
     0
 43
0.0
 10
224.7246655751999
 20
102.2953100279948
 10
224.7730425917998
 20
102.1790264529949
 10
224.7684552281
 20
102.0758615776947
  0
LWPOLYLINE
  5
19039
330
20
100
AcDbEntity
  8
0
100
AcDbPolyline
 90
        5
 70
     0
 43
0.0
 10
224.7684552281
 20
102.0758615776947
 10
224.7639558777
 20
102.0602832696948
 10
224.6978375976998
 20
101.9461558937947
 10
224.5789862558999
 20
101.8433249055947
 10
224.4151174190999
 20
101.7575919540946
  0
LINE
  5
1903A
330
20
100
AcDbEntity
  8
0
100
AcDbLine
 10
224.7246655751999
 20
102.2953100279948
 30
0.0
 11
224.6169679877998
 21
101.8761869579948
 31
0.0
  0
LINE
  5
1903B
330
20
100
AcDbEntity
  8
0
100
AcDbLine
 10
224.6263896034998
 20
102.1237638775948
 30
0.0
 11
224.5504983941998
 21
101.8284206167948
 31
0.0
  0
LINE
  5
1903C
330
20
100
AcDbEntity
  8
0
100
AcDbLine
 10
223.6147847867998
 20
101.6899898360948
 30
0.0
 11
223.6019348626998
 21
101.6399822196948
 31
0.0
  0
LWPOLYLINE
  5
1903D
330
20
100
AcDbEntity
  8
0
100
AcDbPolyline
 90
        3
 70
     0
 43
0.0
 10
224.6267393395999
 20
102.1261202540947
 10
224.6348860693
 20
102.1920590280947
 10
224.5831193167996
 20
102.3453176443948
  0
LINE
  5
1903E
330
20
100
AcDbEntity
  8
0
100
AcDbLine
 10
226.1923247708998
 20
99.43848296309477
 30
0.0
 11
226.3640499455998
 21
97.4756552345948
 31
0.0
  0
LWPOLYLINE
  5
1903F
330
20
100
AcDbEntity
  8
0
100
AcDbPolyline
 90
        4
 70
     0
 43
0.0
 10
226.7888832140998
 20
101.1214295421948
 10
226.6081702200998
 20
101.0526420443948
 10
226.4050711293
 20
101.0102730914947
 10
226.1923247708998
 20
100.9962222851948
  0
LWPOLYLINE
  5
19040
330
20
100
AcDbEntity
  8
0
100
AcDbPolyline
 90
        4
 70
     0
 43
0.0
 10
224.4151174190999
 20
101.7575919540946
 10
224.2158639638998
 20
101.6932687211947
 10
223.9924100339
 20
101.6534663604948
 10
223.7563310451997
 20
101.6399822196948
  0
LINE
  5
19041
330
20
100
AcDbEntity
  8
0
100
AcDbLine
 10
223.6147847867998
 20
101.6899898360948
 30
0.0
 11
223.9357117613
 21
101.7152167549947
 31
0.0
  0
LWPOLYLINE
  5
19042
330
20
100
AcDbEntity
  8
0
100
AcDbPolyline
 90
        5
 70
     0
 43
0.0
 10
223.9357117613
 20
101.7152167549947
 10
224.2207127827998
 20
101.7872099346948
 10
224.4453575776998
 20
101.8986786212948
 10
224.5875937944997
 20
102.0380086242947
 10
224.6267393395999
 20
102.1261202540947
  0
ARC
  5
19043
330
20
100
AcDbEntity
  8
0
100
AcDbCircle
 10
227.1429824942998
 20
99.78466148069479
 30
0.0
 40
2.0
100
AcDbArc
 50
5.000364322101657
 51
34.07590786879848
  0
LWPOLYLINE
  5
19044
330
20
100
AcDbEntity
  8
0
100
AcDbPolyline
 90
        4
 70
     0
 43
0.0
 10
229.1498899793998
 20
99.79120696449481
 10
229.0190519464997
 20
100.3283431259947
 10
228.7325916536
 20
100.8059990119948
 10
228.3144583386
 20
101.1842403229948
  0
LINE
  5
19045
330
20
100
AcDbEntity
  8
0
100
AcDbLine
 10
229.3526340399
 20
97.4756552345948
 30
0.0
 11
229.1353707820999
 21
99.95898563509479
 31
0.0
  0
LWPOLYLINE
  5
19046
330
20
100
AcDbEntity
  8
0
100
AcDbPolyline
 90
        4
 70
     0
 43
0.0
 10
228.7994828091
 20
100.9053895597947
 10
228.6261247205
 20
101.0866090725947
 10
228.4626106356999
 20
101.1654829472949
 10
228.3144533498
 20
101.1842335638944
  0
LINE
  5
19047
330
20
100
AcDbEntity
  8
0
100
AcDbLine
 10
229.1500483036999
 20
99.79122079559477
 30
0.0
 11
229.0855771493998
 21
99.76738994939481
 31
0.0
  0
LINE
  5
19048
330
20
100
AcDbEntity
  8
0
100
AcDbLine
 10
229.0855771493998
 20
99.76738994939481
 30
0.0
 11
228.5152225532999
 21
99.70799115739477
 31
0.0
  0
LINE
  5
19049
330
20
100
AcDbEntity
  8
0
100
AcDbLine
 10
228.5152225532999
 20
99.70799115739477
 30
0.0
 11
227.4454467046998
 21
99.55197958389488
 31
0.0
  0
LWPOLYLINE
  5
1904A
330
20
100
AcDbEntity
  8
0
100
AcDbPolyline
 90
        4
 70
     0
 43
0.0
 10
227.9978532978998
 20
142.6837279440998
 10
227.4454467046998
 20
142.3375836428
 10
226.8343219447999
 20
142.1233786159
 10
226.1923247708998
 20
142.0489851498
  0
LWPOLYLINE
  5
1904B
330
20
100
AcDbEntity
  8
0
100
AcDbPolyline
 90
        4
 70
     0
 43
0.0
 10
227.997821847
 20
142.6837688866
 10
227.6863628661
 20
142.6942463662999
 10
227.2664664595998
 20
142.8937739596999
 10
226.7888832140998
 20
143.2582398767999
  0
ARC
  5
1904C
330
20
100
AcDbEntity
  8
0
100
AcDbCircle
 10
218.0275564185999
 20
111.4756552345947
 30
0.0
 40
3.0
100
AcDbArc
 50
34.07560350770191
 51
90.0
  0
LINE
  5
1904D
330
20
100
AcDbEntity
  8
0
100
AcDbLine
 10
220.3773473945
 20
113.3391842994948
 30
0.0
 11
220.3440223409999
 21
113.3821564716949
 31
0.0
  0
LINE
  5
1904E
330
20
100
AcDbEntity
  8
0
100
AcDbLine
 10
220.3440223409999
 20
113.3821564716949
 30
0.0
 11
220.3263209334
 21
113.4035334332947
 31
0.0
  0
LWPOLYLINE
  5
1904F
330
20
100
AcDbEntity
  8
0
100
AcDbPolyline
 90
        3
 70
     0
 43
0.0
 10
216.7573868672
 20
114.0737314459947
 10
216.5731841061999
 20
114.2931038435947
 10
216.3731415362998
 20
114.4293782407945
  0
LINE
  5
19050
330
20
100
AcDbEntity
  8
0
100
AcDbLine
 10
218.0275564185999
 20
114.4756552345947
 30
0.0
 11
218.0275564185999
 21
114.0737314459947
 31
0.0
  0
LINE
  5
19051
330
20
100
AcDbEntity
  8
0
100
AcDbLine
 10
216.4654645045
 20
114.2931038435947
 30
0.0
 11
216.6496672655
 21
114.0737314459947
 31
0.0
  0
LINE
  5
19052
330
20
100
AcDbEntity
  8
0
100
AcDbLine
 10
216.2654219345997
 20
114.4293782407945
 30
0.0
 11
216.4654645045
 21
114.2931038435947
 31
0.0
  0
LINE
  5
19053
330
20
100
AcDbEntity
  8
0
100
AcDbLine
 10
216.3731415362998
 20
114.4293782407945
 30
0.0
 11
216.1638970092999
 21
114.4756552345947
 31
0.0
  0
LINE
  5
19054
330
20
100
AcDbEntity
  8
0
100
AcDbLine
 10
216.0561774075998
 20
114.4756552345947
 30
0.0
 11
216.2654219345997
 21
114.4293782407945
 31
0.0
  0
LINE
  5
19055
330
20
100
AcDbEntity
  8
0
100
AcDbLine
 10
216.7573868672
 20
114.0737314459947
 30
0.0
 11
218.0275564185999
 21
114.0737314459947
 31
0.0
  0
LWPOLYLINE
  5
19056
330
20
100
AcDbEntity
  8
0
100
AcDbPolyline
 90
        5
 70
     0
 43
0.0
 10
218.0275564185999
 20
114.0737314459947
 10
218.7748041029999
 20
114.1086738221948
 10
219.4695071349999
 20
113.9582949072947
 10
220.0626999972
 20
113.6331827268947
 10
220.5124533559998
 20
113.1565143037948
  0
LWPOLYLINE
  5
19057
330
20
100
AcDbEntity
  8
0
100
AcDbPolyline
 90
        4
 70
     0
 43
0.0
 10
226.7888832140998
 20
143.2582398765999
 10
226.6081702200998
 20
143.1390964353999
 10
226.4050711293
 20
143.0657112563999
 10
226.1923247708998
 20
143.0413745458999
  0
LINE
  5
19058
330
20
100
AcDbEntity
  8
0
100
AcDbLine
 10
226.1923247462
 20
143.0413745458999
 30
0.0
 11
226.1923247462
 21
142.0489851498
 31
0.0
  0
LINE
  5
19059
330
20
100
AcDbEntity
  8
0
100
AcDbLine
 10
223.7563310451997
 20
144.1563994602999
 30
0.0
 11
223.7135396416998
 21
144.2564606962999
 31
0.0
  0
LINE
  5
1905A
330
20
100
AcDbEntity
  8
0
100
AcDbLine
 10
226.1923247708998
 20
142.0489851498
 30
0.0
 11
226.3640499455998
 21
141.8772599751
 31
0.0
  0
LINE
  5
1905B
330
20
100
AcDbEntity
  8
0
100
AcDbLine
 10
223.9924100339
 20
144.1797546772999
 30
0.0
 11
223.7563310451997
 21
144.1563994602999
 31
0.0
  0
ARC
  5
1906A
330
20
100
AcDbEntity
  8
0
100
AcDbCircle
 10
283.3285614326073
 20
144.0413745458999
 30
0.0
 40
2.0
100
AcDbArc
 50
210.0000000000012
 51
265.0000000000002
  0
LWPOLYLINE
  5
1906B
330
20
100
AcDbEntity
  8
0
100
AcDbPolyline
 90
        4
 70
     0
 43
0.0
 10
282.959831054007
 20
142.6837279440998
 10
283.0407533263071
 20
142.3375836428
 10
283.1069485152072
 20
142.1233786159
 10
283.1542499471072
 20
142.0489851498
  0
LINE
  5
1906C
330
20
100
AcDbEntity
  8
0
100
AcDbLine
 10
283.1542499471072
 20
142.0489851498
 30
0.0
 11
285.1170776755072
 21
141.8772599751
 31
0.0
  0
LWPOLYLINE
  5
1906D
330
20
100
AcDbEntity
  8
0
100
AcDbPolyline
 90
        4
 70
     0
 43
0.0
 10
282.9598373903072
 20
142.6837688866
 10
282.3383013742073
 20
142.6942463662999
 10
281.8212959039072
 20
142.8937739596999
 10
281.4713033682073
 20
143.2582398767999
  0
LINE
  5
1906E
330
20
100
AcDbEntity
  8
0
100
AcDbLine
 10
220.5124533559998
 20
167.1922848488998
 30
0.0
 11
220.5124533559998
 21
190.1164295241581
 31
0.0
  0
LINE
  5
1906F
330
20
100
AcDbEntity
  8
0
100
AcDbLine
 10
228.7995793441998
 20
145.9760869323
 30
0.0
 11
220.5124533559998
 21
167.1922848488998
 31
0.0
  0
LINE
  5
19070
330
20
100
AcDbEntity
  8
0
100
AcDbLine
 10
216.5731841061999
 20
166.1617590918
 30
0.0
 11
224.7246655751999
 21
145.2914605199
 31
0.0
  0
LINE
  5
19071
330
20
100
AcDbEntity
  8
0
100
AcDbLine
 10
215.2741121686997
 20
169.3189817132999
 30
0.0
 11
223.1548601261997
 21
149.1397259656
 31
0.0
  0
LINE
  5
19072
330
20
100
AcDbEntity
  8
0
100
AcDbLine
 10
224.5831193167996
 20
145.3780762522999
 30
0.0
 11
216.4654645045
 21
166.1617590918
 31
0.0
  0
LINE
  5
19073
330
20
100
AcDbEntity
  8
0
100
AcDbLine
 10
224.2570882805998
 20
146.3848194254
 30
0.0
 11
224.3329442163999
 21
146.0186686630999
 31
0.0
  0
LINE
  5
19074
330
20
100
AcDbEntity
  8
0
100
AcDbLine
 10
224.7246655751999
 20
145.2914605199
 30
0.0
 11
224.7730425917998
 21
145.0900514599998
 31
0.0
  0
LINE
  5
19075
330
20
100
AcDbEntity
  8
0
100
AcDbLine
 10
224.2570882805998
 20
146.3848194254
 30
0.0
 11
223.1548601261997
 21
149.1397259656
 31
0.0
  0
LINE
  5
19076
330
20
100
AcDbEntity
  8
0
100
AcDbLine
 10
224.7246655751999
 20
145.2914605199
 30
0.0
 11
224.2570882805998
 21
146.3848194254
 31
0.0
  0
LINE
  5
19077
330
20
100
AcDbEntity
  8
0
100
AcDbLine
 10
223.1548601261997
 20
149.1397259656
 30
0.0
 11
223.1140555581997
 21
149.1397259656
 31
0.0
  0
LINE
  5
19078
330
20
100
AcDbEntity
  8
0
100
AcDbLine
 10
216.5731841061999
 20
166.1617590918
 30
0.0
 11
215.2966050448998
 21
169.3599924103
 31
0.0
  0
LINE
  5
19079
330
20
100
AcDbEntity
  8
0
100
AcDbLine
 10
215.2289011765
 20
169.2599771774998
 30
0.0
 11
216.4654645045
 21
166.1617590918
 31
0.0
  0
LINE
  5
1907A
330
20
100
AcDbEntity
  8
0
100
AcDbLine
 10
215.2966050448998
 20
169.3599924103
 30
0.0
 11
215.2741121686997
 21
169.3189817132999
 31
0.0
  0
LINE
  5
1907B
330
20
100
AcDbEntity
  8
0
100
AcDbLine
 10
214.3682888278998
 20
169.9884525044
 30
0.0
 11
214.3493049671
 21
169.9538397071
 31
0.0
  0
LWPOLYLINE
  5
1907C
330
20
100
AcDbEntity
  8
0
100
AcDbPolyline
 90
        9
 70
     0
 43
0.0
 10
215.2289011765
 20
169.2599771774998
 10
215.1635928962998
 20
169.3934785316999
 10
215.0792191869999
 20
169.5158256213
 10
214.9776425539998
 20
169.6243150201
 10
214.8611064460999
 20
169.7165489180999
 10
214.7321853019998
 20
169.7904889181999
 10
214.5937277942
 20
169.8445011047
 10
214.4487935572999
 20
169.8773924524999
 10
214.3005849594998
 20
169.8884372715999
  0
LINE
  5
1907D
330
20
100
AcDbEntity
  8
0
100
AcDbLine
 10
215.112314029
 20
169.5941655318
 30
0.0
 11
215.2741121686997
 21
169.3189817132999
 31
0.0
  0
LWPOLYLINE
  5
1907E
330
20
100
AcDbEntity
  8
0
100
AcDbPolyline
 90
        3
 70
     0
 43
0.0
 10
214.6257684493
 20
169.9143997539999
 10
214.8868170404998
 20
169.7949085147999
 10
215.112314029
 20
169.5941655318
  0
LWPOLYLINE
  5
1907F
330
20
100
AcDbEntity
  8
0
100
AcDbPolyline
 90
        4
 70
     0
 43
0.0
 10
214.3682888278998
 20
169.9884525044
 10
214.7546437890998
 20
169.9107928301
 10
215.0809745059
 20
169.6898730407999
 10
215.2966050448998
 20
169.3599924103
  0
LINE
  5
19080
330
20
100
AcDbEntity
  8
0
100
AcDbLine
 10
214.3493049671
 20
169.9538397071
 30
0.0
 11
214.6257684493
 21
169.9143997539999
 31
0.0
  0
LWPOLYLINE
  5
19081
330
20
100
AcDbEntity
  8
0
100
AcDbPolyline
 90
        5
 70
     0
 43
0.0
 10
218.0275564185999
 20
165.6922848488999
 10
218.7748041029999
 20
165.9639387998999
 10
219.4695071349999
 20
166.3220674121998
 10
220.0626999972
 20
166.7414348353998
 10
220.5124533559998
 20
167.1922848488998
  0
LINE
  5
19082
330
20
100
AcDbEntity
  8
0
100
AcDbLine
 10
216.1638970092999
 20
167.1922848488998
 30
0.0
 11
220.5124533559998
 21
167.1922848488998
 31
0.0
  0
LINE
  5
19083
330
20
100
AcDbEntity
  8
0
100
AcDbLine
 10
216.7573868672
 20
165.6922848488999
 30
0.0
 11
218.0275564185999
 21
165.6922848488999
 31
0.0
  0
LWPOLYLINE
  5
19084
330
20
100
AcDbEntity
  8
0
100
AcDbPolyline
 90
        4
 70
     0
 43
0.0
 10
229.1498899793998
 20
145.0684298029
 10
229.0190519464997
 20
144.8988977848
 10
228.7325916536
 20
144.7435263682
 10
228.3144583386
 20
144.6153039153
  0
LWPOLYLINE
  5
19085
330
20
100
AcDbEntity
  8
0
100
AcDbPolyline
 90
        4
 70
     0
 43
0.0
 10
228.8001537455
 20
145.9746148712999
 10
228.6261247205
 20
145.4520121818999
 10
228.4626106356999
 20
145.0060584218999
 10
228.3144533498
 20
144.615305869
  0
LWPOLYLINE
  5
19086
330
20
100
AcDbEntity
  8
0
100
AcDbPolyline
 90
        4
 70
     0
 43
0.0
 10
229.1353707820999
 20
145.9724671831999
 10
229.1378657184999
 20
145.6456926284
 10
229.1433136231999
 20
145.3435320812999
 10
229.1500483036999
 20
145.0684298056
  0
LINE
  5
19087
330
20
100
AcDbEntity
  8
0
100
AcDbLine
 10
229.1500483036999
 20
145.0684298056
 30
0.0
 11
229.3526340399
 21
144.8658440692998
 31
0.0
  0
LINE
  5
19088
330
20
100
AcDbEntity
  8
0
100
AcDbLine
 10
228.7995745059999
 20
145.9723380443999
 30
0.0
 11
229.1353707806
 21
145.9725440976999
 31
0.0
  0
SPLINE
  5
19089
330
20
100
AcDbEntity
  8
0
  6
Continuous
 62
     7
100
AcDbSpline
210
0.0
220
0.0
230
1.0
 70
     8
 71
     3
 72
    29
 73
    25
 74
    23
 42
0.0000000001
 43
0.0000000001
 44
0.0000000001
 12
-0.0000155229533173
 22
-0.9999999998795191
 32
0.0
 13
-0.976596236102701
 23
0.2150808955487155
 33
0.0
 40
0.0
 40
0.0
 40
0.0
 40
0.0
 40
0.1286397474660571
 40
0.2540409121800718
 40
0.3766807675709311
 40
0.4970031647579737
 40
0.6154581721952023
 40
0.7324964858878963
 40
0.8485021484788275
 40
0.9635867290285471
 40
1.0777116877458
 40
1.190600972677323
 40
1.301500382901435
 40
1.409657316849374
 40
1.514807170792455
 40
1.617300808950833
 40
1.71753436175679
 40
1.815783511017827
 40
1.91247619354546
 40
2.008252328231518
 40
2.103903088112109
 40
2.200347187281081
 40
2.298578991774651
 40
2.399556272470847
 40
2.399556272470847
 40
2.399556272470847
 40
2.399556272470847
 10
227.6965283555
 20
185.9774659803999
 30
0.0
 10
227.696527689877
 20
185.934586064583
 30
0.0
 10
227.6947964185153
 20
185.8498945273462
 30
0.0
 10
227.6869686166337
 20
185.7245428995324
 30
0.0
 10
227.6740950055134
 20
185.6023931279698
 30
0.0
 10
227.6562347566816
 20
185.4832120439087
 30
0.0
 10
227.6333591163505
 20
185.3667907782613
 30
0.0
 10
227.6053469944149
 20
185.2529750183226
 30
0.0
 10
227.5720091844497
 20
185.1417705923291
 30
0.0
 10
227.5331264922108
 20
185.0334052601398
 30
0.0
 10
227.488510756273
 20
184.9283896129656
 30
0.0
 10
227.4380951229097
 20
184.8275768205629
 30
0.0
 10
227.3820091597074
 20
184.7320905863991
 30
0.0
 10
227.3205450875009
 20
184.6430753454166
 30
0.0
 10
227.253955897045
 20
184.5613903731245
 30
0.0
 10
227.1823627042351
 20
184.4876658755124
 30
0.0
 10
227.1058396606691
 20
184.4225319504191
 30
0.0
 10
227.0245619816823
 20
184.3667415947257
 30
0.0
 10
226.9388247374469
 20
184.321106997759
 30
0.0
 10
226.8489996399801
 20
184.2864268587327
 30
0.0
 10
226.755553595497
 20
184.2634609272327
 30
0.0
 10
226.659066558043
 20
184.2528938470803
 30
0.0
 10
226.5602675328989
 20
184.2552696130817
 30
0.0
 10
226.4944490458865
 20
184.2655598123125
 30
0.0
 10
226.4615777018
 20
184.2727992402999
 30
0.0
 11
227.6965283555
 21
185.9774659803999
 31
0.0
 11
227.6938646005
 21
185.8488538151999
 31
0.0
 11
227.6860130578
 21
185.7236986898999
 31
0.0
 11
227.6731183059
 21
185.6017386164999
 31
0.0
 11
227.6552406733999
 21
185.4827517704999
 31
0.0
 11
227.6323502889999
 21
185.3665294873999
 31
0.0
 11
227.6043201523
 21
185.2528972810999
 31
0.0
 11
227.5709385553
 21
185.1417983038999
 31
0.0
 11
227.5319907625
 21
185.0335045823999
 31
0.0
 11
227.4872721872
 21
184.9285057479999
 31
0.0
 11
227.4366727200999
 21
184.8275915042999
 31
0.0
 11
227.3803879889001
 21
184.7320367648999
 31
0.0
 11
227.3188082465999
 21
184.6431218746999
 31
0.0
 11
227.2522414166
 21
184.5617256282999
 31
0.0
 11
227.1807121188999
 21
184.4883191882999
 31
0.0
 11
227.1042668638999
 21
184.4234895029999
 31
0.0
 11
227.0231647707
 21
184.3680337024999
 31
0.0
 11
226.9377360287001
 21
184.3227412649999
 31
0.0
 11
226.8483449038999
 21
184.2883567512999
 31
0.0
 11
226.7554430192001
 21
184.2655903794999
 31
0.0
 11
226.6595731294998
 21
184.2550818822999
 31
0.0
 11
226.5613677549999
 21
184.2573604417999
 31
0.0
 11
226.4615777018
 21
184.2727992402999
 31
0.0
  0
LINE
  5
1908A
330
20
100
AcDbEntity
  8
0
  6
Continuous
 62
     7
100
AcDbLine
 10
227.6965283555
 20
185.9774659803999
 30
0.0
 11
226.8682293762999
 21
185.9774659803999
 31
0.0
  0
SPLINE
  5
1908B
330
20
100
AcDbEntity
  8
0
  6
Continuous
 62
     7
100
AcDbSpline
210
0.0
220
0.0
230
1.0
 70
     8
 71
     3
 72
    29
 73
    25
 74
    23
 42
0.0000000001
 43
0.0000000001
 44
0.0000000001
 12
0.9765962286100974
 22
0.2150809295696261
 32
0.0
 13
0.0000155291625864
 23
-0.9999999998794226
 33
0.0
 40
0.0
 40
0.0
 40
0.0
 40
0.0
 40
0.1009271418137082
 40
0.1991389706115647
 40
0.2955820007827432
 40
0.3912413684785339
 40
0.4870276108665266
 40
0.5837290536959261
 40
0.6819932212596913
 40
0.7822380118021004
 40
0.8847384298066781
 40
0.9898928969941405
 40
1.098053046869386
 40
1.20895430432132
 40
1.321844036570472
 40
1.435968465534985
 40
1.551052217697636
 40
1.667057461871323
 40
1.784096268416519
 40
1.902552418392563
 40
2.022876101415366
 40
2.145516852474462
 40
2.270917999346557
 40
2.399556305270808
 40
2.399556305270808
 40
2.399556305270808
 40
2.399556305270808
 10
226.4615777018
 20
199.4817207097999
 30
0.0
 10
226.4944327238198
 20
199.4889565442933
 30
0.0
 10
226.5602274962345
 20
199.4992451098088
 30
0.0
 10
226.6590024227697
 20
199.5016283113183
 30
0.0
 10
226.7554863484799
 20
199.4910710976097
 30
0.0
 10
226.8489402732256
 20
199.4681122475521
 30
0.0
 10
226.9387765889331
 20
199.4334354727303
 30
0.0
 10
227.0245265166555
 20
199.3878004917767
 30
0.0
 10
227.1058161010555
 20
199.3320066801896
 30
0.0
 10
227.1823490457449
 20
199.2668673030733
 30
0.0
 10
227.2539484232677
 20
199.1931382507402
 30
0.0
 10
227.3205412351513
 20
199.1114499245411
 30
0.0
 10
227.3820074217114
 20
199.0224322114515
 30
0.0
 10
227.4380944329129
 20
198.9269444570792
 30
0.0
 10
227.4885103755434
 20
198.8261311604587
 30
0.0
 10
227.5331260395886
 20
198.7211158134551
 30
0.0
 10
227.5720086113245
 20
198.612751068281
 30
0.0
 10
227.6053464555437
 20
198.5015469152906
 30
0.0
 10
227.6333587738097
 20
198.3877307851963
 30
0.0
 10
227.6562346599435
 20
198.2713085742371
 30
0.0
 10
227.6740950761463
 20
198.1521263936197
 30
0.0
 10
227.6869687183995
 20
198.0299758993907
 30
0.0
 10
227.6947964486861
 20
197.9046244554093
 30
0.0
 10
227.6965276896182
 20
197.8199334050028
 30
0.0
 10
227.6965283555
 20
197.7770539696999
 30
0.0
 11
226.4615777018
 21
199.4817207097999
 31
0.0
 11
226.5613177083
 21
199.4971550564999
 31
0.0
 11
226.6595029279001
 21
199.4994410940999
 31
0.0
 11
226.7553727735001
 21
199.4889420096999
 31
0.0
 11
226.8482850815
 21
199.4661820085999
 31
0.0
 11
226.9376882033
 21
199.4318005303999
 31
0.0
 11
227.0231273141
 21
199.3865089484999
 31
0.0
 11
227.1042440218
 21
199.3310479138999
 31
0.0
 11
227.1806993381001
 21
199.2662127178999
 31
0.0
 11
227.2522342889001
 21
199.1928023200999
 31
0.0
 11
227.3188045833999
 21
199.1114029474999
 31
0.0
 11
227.3803864407
 21
199.0224856101999
 31
0.0
 11
227.4366722290001
 21
198.9269293495999
 31
0.0
 11
227.4872719433999
 21
198.8260147294999
 31
0.0
 11
227.5319903574
 21
198.7210164021999
 31
0.0
 11
227.5709379488
 21
198.6127234885999
 31
0.0
 11
227.6043195315001
 21
198.5016249439999
 31
0.0
 11
227.6323498859999
 21
198.3879922837999
 31
0.0
 11
227.6552405500999
 21
198.2717688912999
 31
0.0
 11
227.6731183773999
 21
198.1527807742999
 31
0.0
 11
227.6860131799999
 21
198.0308198055999
 31
0.0
 11
227.6938646609
 21
197.9056646942999
 31
0.0
 11
227.6965283555
 21
197.7770539696999
 31
0.0
  0
LINE
  5
1908C
330
20
100
AcDbEntity
  8
0
  6
Continuous
 62
     7
100
AcDbLine
 10
227.6965283555
 20
197.7770539696999
 30
0.0
 11
226.8682293762999
 21
197.7770539696999
 31
0.0
  0
SPLINE
  5
1908D
330
20
100
AcDbEntity
  8
0
  6
Continuous
 62
     7
100
AcDbSpline
210
0.0
220
0.0
230
1.0
 70
     8
 71
     3
 72
    28
 73
    24
 74
    22
 42
0.0000000001
 43
0.0000000001
 44
0.0000000001
 12
0.2314995822276114
 22
0.9728350031883319
 32
0.0
 13
0.9802273057134309
 23
0.1978747814497543
 33
0.0
 40
0.0
 40
0.0
 40
0.0
 40
0.0
 40
0.2606997622592028
 40
0.5271487278483205
 40
0.8010062736658758
 40
1.083590499979176
 40
1.375933374732797
 40
1.678736201244167
 40
1.992513763579919
 40
2.318069396430012
 40
2.656075607325574
 40
3.007073556483922
 40
3.371688412674423
 40
3.750359532562628
 40
4.143334056813345
 40
4.550778911030208
 40
4.972741545580709
 40
5.409203198935418
 40
5.859308871201927
 40
6.321265799990351
 40
6.794349680641119
 40
7.278984979504308
 40
7.775748481647077
 40
7.775748481647077
 40
7.775748481647077
 40
7.775748481647077
 10
220.6604115531999
 20
193.4397828838999
 30
0.0
 10
220.68052884855
 20
193.5243221685828
 30
0.0
 10
220.7245100808461
 20
193.6944982824887
 30
0.0
 10
220.8013685908539
 20
193.9502678744311
 30
0.0
 10
220.8907611033851
 20
194.2096698219804
 30
0.0
 10
220.9938891738884
 20
194.473221233507
 30
0.0
 10
221.112007870561
 20
194.7409940194729
 30
0.0
 10
221.2463824066153
 20
195.0126519565692
 30
0.0
 10
221.3983221085206
 20
195.2876230742575
 30
0.0
 10
221.5691954841243
 20
195.5651407497561
 30
0.0
 10
221.7604293312813
 20
195.844235752378
 30
0.0
 10
221.9734469566733
 20
196.1236614262608
 30
0.0
 10
222.2096250723823
 20
196.4018657616331
 30
0.0
 10
222.4702398109823
 20
196.6769683103574
 30
0.0
 10
222.75637401107
 20
196.9467278598424
 30
0.0
 10
223.0688719406838
 20
197.2085778747342
 30
0.0
 10
223.4083142778822
 20
197.459677669822
 30
0.0
 10
223.7747538904871
 20
197.6968032590607
 30
0.0
 10
224.1673810066479
 20
197.9163273040343
 30
0.0
 10
224.5847341991498
 20
198.1146112589
 30
0.0
 10
225.0253107776448
 20
198.2883681074391
 30
0.0
 10
225.4879433911444
 20
198.4346402208031
 30
0.0
 10
225.8064004862726
 20
198.510932386627
 30
0.0
 10
225.9687142027
 20
198.5436980430999
 30
0.0
 11
220.6604115531999
 21
193.4397828838999
 31
0.0
 11
220.7256446116
 21
193.6921893301999
 31
0.0
 11
220.8023238236
 21
193.9473664249999
 31
0.0
 11
220.8915475466001
 21
194.2062816285999
 31
0.0
 11
220.9945191203
 21
194.4694369058999
 31
0.0
 11
221.1125053185999
 21
194.7369132850999
 31
0.0
 11
221.2467573752001
 21
195.0083279807999
 31
0.0
 11
221.3985114359
 21
195.2829678607999
 31
0.0
 11
221.5691995872
 21
195.5601898387999
 31
0.0
 11
221.7602501556
 21
195.8390229051999
 31
0.0
 11
221.9730442224999
 21
196.1181613034999
 31
0.0
 11
222.2090118106
 21
196.3961240540999
 31
0.0
 11
222.4694328476
 21
196.6710289476999
 31
0.0
 11
222.7553653991001
 21
196.9406055651999
 31
0.0
 11
223.0676630597999
 21
197.2022952293999
 31
0.0
 11
223.4068924692999
 21
197.4532451699999
 31
0.0
 11
223.7733211279
 21
197.6903713241999
 31
0.0
 11
224.1661857475999
 21
197.9100358565999
 31
0.0
 11
224.5834424503
 21
198.1082807760999
 31
0.0
 11
225.023534164
 21
198.2818539354999
 31
0.0
 11
225.4856220413
 21
198.4279572090999
 31
0.0
 11
225.9687142027
 21
198.5436980430999
 31
0.0
  0
SPLINE
  5
1908E
330
20
100
AcDbEntity
  8
0
  6
Continuous
 62
     7
100
AcDbSpline
210
0.0
220
0.0
230
1.0
 70
     8
 71
     3
 72
    13
 73
     9
 74
     7
 42
0.0000000001
 43
0.0000000001
 44
0.0000000001
 12
0.801743495075183
 22
-0.597668275973077
 32
0.0
 13
0.0517264364340863
 23
-0.9986612918171157
 33
0.0
 40
0.0
 40
0.0
 40
0.0
 40
0.0
 40
0.0553527033122282
 40
0.1051986273432184
 40
0.1495776337710156
 40
0.1887597210050479
 40
0.2233413934053247
 40
0.2543647524094604
 40
0.2543647524094604
 40
0.2543647524094604
 40
0.2543647524094604
 10
220.5124533485
 20
193.6380902268999
 30
0.0
 10
220.5272462384384
 20
193.6270627086468
 30
0.0
 10
220.5546937172878
 20
193.6051777443862
 30
0.0
 10
220.5910123909763
 20
193.5709178773185
 30
0.0
 10
220.6201010286347
 20
193.5371526036512
 30
0.0
 10
220.641737242292
 20
193.5040690134806
 30
0.0
 10
220.6557137402801
 20
193.4718413934245
 30
0.0
 10
220.6598767057307
 20
193.4501101473264
 30
0.0
 10
220.6604116149999
 20
193.4397828713999
 30
0.0
 11
220.5124533485
 21
193.6380902268999
 31
0.0
 11
220.5556032500999
 21
193.6034202433999
 31
0.0
 11
220.5916868043
 21
193.5690313896999
 31
0.0
 11
220.6204114191
 21
193.5352025156999
 31
0.0
 11
220.6415441741
 21
193.5022079308999
 31
0.0
 11
220.6549137094
 21
193.4703151794999
 31
0.0
 11
220.6604116149999
 21
193.4397828713999
 31
0.0
  0
SPLINE
  5
1908F
330
20
100
AcDbEntity
  8
0
  6
Continuous
 62
     7
100
AcDbSpline
210
0.0
220
0.0
230
1.0
 70
     8
 71
     3
 72
    24
 73
    20
 74
    18
 42
0.0000000001
 43
0.0000000001
 44
0.0000000001
 12
-0.3311928218349713
 22
0.9435630952750265
 32
0.0
 13
0.3311926601549695
 23
0.9435631520250645
 33
0.0
 40
0.0
 40
0.0
 40
0.0
 40
0.0
 40
0.1754316080723897
 40
0.3610944137808143
 40
0.5572491478861412
 40
0.7639798494869959
 40
0.9812700918963107
 40
1.20863013251333
 40
1.441597718614816
 40
1.676367230979914
 40
1.911763789997909
 40
2.146572986986278
 40
2.379582101242208
 40
2.606915374352473
 40
2.824211345349505
 40
3.030983957716545
 40
3.227207466809173
 40
3.412954150685295
 40
3.588470465630358
 40
3.588470465630358
 40
3.588470465630358
 40
3.588470465630358
 10
220.5124542052001
 20
190.1164271047999
 30
0.0
 10
220.4930869754278
 20
190.1716040351738
 30
0.0
 10
220.455175151157
 20
190.2858710723611
 30
0.0
 10
220.4028220213012
 20
190.4641289638072
 30
0.0
 10
220.354373773551
 20
190.654282060071
 30
0.0
 10
220.3109423071257
 20
190.8564462567585
 30
0.0
 10
220.2737805466154
 20
191.0704300225684
 30
0.0
 10
220.2443907535657
 20
191.2944509038187
 30
0.0
 10
220.2241339868265
 20
191.5253360827416
 30
0.0
 10
220.2138479058364
 20
191.7595631612328
 30
0.0
 10
220.2138404625595
 20
191.9946305044742
 30
0.0
 10
220.2241137654075
 20
192.2288852753025
 30
0.0
 10
220.2443601058541
 20
192.4597896226154
 30
0.0
 10
220.2737394301675
 20
192.6838187460598
 30
0.0
 10
220.310891102769
 20
192.8978113307869
 30
0.0
 10
220.3543209341313
 20
193.1000155992894
 30
0.0
 10
220.4027779220341
 20
193.2902334427287
 30
0.0
 10
220.4551490414443
 20
193.4685685634564
 30
0.0
 10
220.4930776380509
 20
193.5828892839128
 30
0.0
 10
220.5124542098001
 20
193.6380928596999
 30
0.0
 11
220.5124542052001
 21
190.1164271047999
 31
0.0
 11
220.4571904724
 21
190.2829268613999
 31
0.0
 11
220.4048577829
 21
190.4610615492999
 31
0.0
 11
220.3564178414999
 21
190.6511411425999
 31
0.0
 11
220.3129900892999
 21
190.8532589629999
 31
0.0
 11
220.2758074839
 21
191.0673442340999
 31
0.0
 11
220.2462319113999
 21
191.2927724345999
 31
0.0
 11
220.2258705670001
 21
191.5248485251999
 31
0.0
 11
220.2155707623
 21
191.7593919922999
 31
0.0
 11
220.2155633088
 21
191.9947885511999
 31
0.0
 11
220.2258508681
 21
192.2293722784999
 31
0.0
 11
220.2462037616999
 21
192.4614907978999
 31
0.0
 11
220.2757644262001
 21
192.6868939570999
 31
0.0
 11
220.3129367233
 21
192.9009868325999
 31
0.0
 11
220.3563634876
 21
193.1031477322999
 31
0.0
 11
220.4048131305999
 21
193.2932958261999
 31
0.0
 11
220.4571651592
 21
193.4715122554999
 31
0.0
 11
220.5124542098001
 21
193.6380928596999
 31
0.0
  0
ARC
  5
19090
330
20
100
AcDbEntity
  8
0
  6
Continuous
 62
     7
100
AcDbCircle
 10
228.3526340399
 20
191.8772599750999
 30
0.0
 40
7.0798635241
100
AcDbArc
 50
109.6770621850992
 51
250.3229377172984
  0
ARC
  5
19091
330
20
100
AcDbEntity
  8
0
  6
Continuous
 62
     7
100
AcDbCircle
 10
228.3526340399
 20
191.8772599750999
 30
0.0
 40
6.083668826
100
AcDbArc
 50
104.1226549005033
 51
255.8773450940023
  0
LINE
  5
19092
330
20
100
AcDbEntity
  8
0
  6
Continuous
 62
     7
100
AcDbLine
 10
226.8682293762999
 20
197.7770484803999
 30
0.0
 11
226.8682293762999
 21
185.9774714720999
 31
0.0
  0
SPLINE
  5
19093
330
20
100
AcDbEntity
  8
0
  6
Continuous
 62
     7
100
AcDbSpline
210
0.0
220
0.0
230
1.0
 70
     8
 71
     3
 72
    28
 73
    24
 74
    22
 42
0.0000000001
 43
0.0000000001
 44
0.0000000001
 12
-0.980227303396458
 22
0.1978747929275185
 32
0.0
 13
-0.2314995865684053
 23
0.9728350021553795
 33
0.0
 40
0.0
 40
0.0
 40
0.0
 40
0.0
 40
0.4967038494814784
 40
0.9813124333224347
 40
1.45439528324331
 40
1.916365260971926
 40
2.366472620901208
 40
2.80292419488056
 40
3.224883869555499
 40
3.632329320362138
 40
4.025305272277447
 40
4.403976480098009
 40
4.768589213887764
 40
5.119586252712347
 40
5.457592440826272
 40
5.783146537067046
 40
6.096924860602728
 40
6.399725170606495
 40
6.692060468759736
 40
6.974641260260895
 40
7.248508535296682
 40
7.51498856265899
 40
7.775748508143718
 40
7.775748508143718
 40
7.775748508143718
 40
7.775748508143718
 10
225.9687141906999
 20
185.2108219093999
 30
0.0
 10
225.806419965712
 20
185.2435836331874
 30
0.0
 10
225.487990648902
 20
185.3198676885649
 30
0.0
 10
225.0253843222769
 20
185.4661261048387
 30
0.0
 10
224.5848101164149
 20
185.6398755982793
 30
0.0
 10
224.1674504440309
 20
185.8381566196886
 30
0.0
 10
223.7748196224218
 20
186.0576772249942
 30
0.0
 10
223.4083805171683
 20
186.2947966001845
 30
0.0
 10
223.0689384331673
 20
186.5458897536051
 30
0.0
 10
222.7564374744325
 20
186.80773566842
 30
0.0
 10
222.4702994289261
 20
187.077492168225
 30
0.0
 10
222.2096814575266
 20
187.3525913756794
 30
0.0
 10
221.9735005228579
 20
187.6307920265685
 30
0.0
 10
221.7604799779558
 20
187.9102141923621
 30
0.0
 10
221.5692430391225
 20
188.1893060783094
 30
0.0
 10
221.3983662310183
 20
188.4668213259109
 30
0.0
 10
221.2464235001328
 20
188.7417895166205
 30
0.0
 10
221.1120467895357
 20
189.0134429046926
 30
0.0
 10
220.9939262090712
 20
189.2812099240683
 30
0.0
 10
220.8907944296332
 20
189.5447594226299
 30
0.0
 10
220.8013941709057
 20
189.8041718809491
 30
0.0
 10
220.7245231019501
 20
190.0599728672696
 30
0.0
 10
220.6805334930578
 20
190.2301782654907
 30
0.0
 10
220.6604115531999
 20
190.3147370661999
 30
0.0
 11
225.9687141906999
 21
185.2108219093999
 31
0.0
 11
225.4856795404
 21
185.3265467584999
 31
0.0
 11
225.0236155888999
 21
185.4726370875999
 31
0.0
 11
224.5835226455001
 21
185.6462043196999
 31
0.0
 11
224.1662518267999
 21
185.8444499354999
 31
0.0
 11
223.7733833847
 21
186.0641110896999
 31
0.0
 11
223.4069605034999
 21
186.3012276191999
 31
0.0
 11
223.0677303894999
 21
186.5521716304999
 31
0.0
 11
222.7554290056
 21
186.8138577802999
 31
0.0
 11
222.4694920859001
 21
187.0834318456999
 31
0.0
 11
222.2090676189
 21
187.3583336110999
 31
0.0
 11
221.9730979512998
 21
187.6362918122999
 31
0.0
 11
221.7603009020999
 21
187.9154267923999
 31
0.0
 11
221.5692467927999
 21
188.1942574049999
 31
0.0
 11
221.3985558781
 21
188.4714758769999
 31
0.0
 11
221.2467978940999
 21
188.7461144587999
 31
0.0
 11
221.1125434015
 21
189.0175251419999
 31
0.0
 11
220.9945565586999
 21
189.2849929558999
 31
0.0
 11
220.8915823771001
 21
189.5481435242999
 31
0.0
 11
220.8023518049001
 21
189.8070666582999
 31
0.0
 11
220.7256607951999
 21
190.0622726417999
 31
0.0
 11
220.6604115531999
 21
190.3147370661999
 31
0.0
  0
SPLINE
  5
19094
330
20
100
AcDbEntity
  8
0
  6
Continuous
 62
     7
100
AcDbSpline
210
0.0
220
0.0
230
1.0
 70
     8
 71
     3
 72
    28
 73
    24
 74
    22
 42
0.0000000001
 43
0.0000000001
 44
0.0000000001
 12
-0.9765953066092068
 22
0.2150851159631216
 32
0.0
 13
-0.2278625804944571
 23
0.97369330099904
 33
0.0
 40
0.0
 40
0.0
 40
0.0
 40
0.0
 40
0.564922645725182
 40
1.115503478472908
 40
1.652465660433065
 40
2.176347310349075
 40
2.686362780240561
 40
3.180542248479445
 40
3.657998158421404
 40
4.118759147781813
 40
4.562923659510659
 40
4.990720151460773
 40
5.402463804105156
 40
5.798686745981478
 40
6.18012198742121
 40
6.547401068211126
 40
6.901307188349403
 40
7.242757349553171
 40
7.572344401227162
 40
7.890881795635349
 40
8.199553500843594
 40
8.499863000439557
 40
8.793686613477577
 40
8.793686613477577
 40
8.793686613477577
 40
8.793686613477577
 10
226.4615777018
 20
184.2727992402999
 30
0.0
 10
226.2776774336624
 20
184.3133013912219
 30
0.0
 10
225.9172673846975
 20
184.406280867215
 30
0.0
 10
225.3945375210558
 20
184.5812784644904
 30
0.0
 10
224.8977323204386
 20
184.7866015926407
 30
0.0
 10
224.4280036488387
 20
185.0188411467473
 30
0.0
 10
223.9868837149206
 20
185.2742302855567
 30
0.0
 10
223.5758526940876
 20
185.5486317615437
 30
0.0
 10
223.1956616974091
 20
185.8379578025063
 30
0.0
 10
222.8461102367679
 20
186.1386063724699
 30
0.0
 10
222.5264300333557
 20
186.44742090963
 30
0.0
 10
222.2355742340548
 20
186.7615636795598
 30
0.0
 10
221.9722441898182
 20
187.0785711871723
 30
0.0
 10
221.7349405538902
 20
187.3963899398339
 30
0.0
 10
221.5220661979961
 20
187.7133356860306
 30
0.0
 10
221.3319841508175
 20
188.0280658248821
 30
0.0
 10
221.1630650779868
 20
188.3395448177201
 30
0.0
 10
221.0137530340924
 20
188.6469605567225
 30
0.0
 10
220.8825642525117
 20
188.9497170821867
 30
0.0
 10
220.7680682820539
 20
189.2474845260353
 30
0.0
 10
220.6688514995682
 20
189.5403925474975
 30
0.0
 10
220.5835654906876
 20
189.8290644573825
 30
0.0
 10
220.534771340759
 20
190.0210616876364
 30
0.0
 10
220.5124542052001
 20
190.1164263821999
 30
0.0
 11
226.4615777018
 21
184.2727992402999
 31
0.0
 11
225.9145672356
 21
184.4139273576999
 31
0.0
 11
225.3924681487999
 21
184.5887180809999
 31
0.0
 11
224.8962205097
 21
184.7938196790999
 31
0.0
 11
224.4266047359999
 21
185.0260114278999
 31
0.0
 11
223.9852295124001
 21
185.2815572975999
 31
0.0
 11
223.5742272366999
 21
185.5559483983999
 31
0.0
 11
223.1942825583
 21
185.8450957436999
 31
0.0
 11
222.8449615418999
 21
186.1455545874999
 31
0.0
 11
222.5255117992001
 21
186.4541546123999
 31
0.0
 11
222.2348764711
 21
186.7680669322999
 31
0.0
 11
221.9717854566999
 21
187.0847938708999
 31
0.0
 11
221.7347334034
 21
187.4022823646999
 31
0.0
 11
221.5220644508999
 21
187.7189284763999
 31
0.0
 11
221.3321905538
 21
188.0333196759999
 31
0.0
 11
221.1634778120999
 21
188.3444234410999
 31
0.0
 11
221.0143021684
 21
188.6515632136999
 31
0.0
 11
220.8832622872
 21
188.9539804323999
 31
0.0
 11
220.7689415559
 21
189.2512964965999
 31
0.0
 11
220.6699130422
 21
189.5436517172999
 31
0.0
 11
220.5848261018
 21
189.8316552035999
 31
0.0
 11
220.5124542052001
 21
190.1164263821999
 31
0.0
  0
SPLINE
  5
19095
330
20
100
AcDbEntity
  8
0
  6
Continuous
 62
     7
100
AcDbSpline
210
0.0
220
0.0
230
1.0
 70
     8
 71
     3
 72
    29
 73
    25
 74
    23
 42
0.0000000001
 43
0.0000000001
 44
0.0000000001
 12
0.2179584929094289
 22
-0.975958039758191
 32
0.0
 13
-0.963521326725621
 23
0.2676315619371142
 33
0.0
 40
0.0
 40
0.0
 40
0.0
 40
0.0
 40
0.068848176973564
 40
0.1343008727699759
 40
0.1970873190331258
 40
0.2578507989782784
 40
0.3172003613550698
 40
0.3757241860638189
 40
0.4339728771908676
 40
0.4923710001967267
 40
0.5512852953551612
 40
0.6109775343170253
 40
0.6714520974865765
 40
0.7326670586093606
 40
0.7947889182647748
 40
0.8582999580783898
 40
0.9236819550484051
 40
0.9912769381836861
 40
1.0614247091783
 40
1.134488829923301
 40
1.210805246723604
 40
1.290668494988169
 40
1.374314942802625
 40
1.461885848873166
 40
1.461885848873166
 40
1.461885848873166
 40
1.461885848873166
 10
226.8682283534999
 20
185.9774717317999
 30
0.0
 10
226.8732303684641
 20
185.9550740878532
 30
0.0
 10
226.8813286183115
 20
185.910988921153
 30
0.0
 10
226.8879305699954
 20
185.8455543755899
 30
0.0
 10
226.8889964569402
 20
185.7824861407472
 30
0.0
 10
226.8847736534319
 20
185.7215887473936
 30
0.0
 10
226.8754071690818
 20
185.6627036111024
 30
0.0
 10
226.8609352078172
 20
185.6057222133691
 30
0.0
 10
226.8413082913498
 20
185.5506365644569
 30
0.0
 10
226.816423249048
 20
185.4975684662642
 30
0.0
 10
226.7861762455247
 20
185.4467952769563
 30
0.0
 10
226.7505411784147
 20
185.3987754859968
 30
0.0
 10
226.7096413058985
 20
185.354101584278
 30
0.0
 10
226.6637286113572
 20
185.3133634385707
 30
0.0
 10
226.6130231304239
 20
185.277005261982
 30
0.0
 10
226.5576356834981
 20
185.2453730509838
 30
0.0
 10
226.4976357380493
 20
185.2188291267928
 30
0.0
 10
226.4331589546523
 20
185.1977925845668
 30
0.0
 10
226.3644143834657
 20
185.1827007036498
 30
0.0
 10
226.2916482316156
 20
185.1739780609783
 30
0.0
 10
226.2151507821829
 20
185.1720253118537
 30
0.0
 10
226.1352714803328
 20
185.1772044380867
 30
0.0
 10
226.0524370198002
 20
185.1898119698628
 30
0.0
 10
225.9968384488332
 20
185.2030100996759
 30
0.0
 10
225.9687129702999
 20
185.2108223457999
 30
0.0
 11
226.8682283534999
 21
185.9774717317999
 31
0.0
 11
226.8805874126001
 21
185.9097419367999
 31
0.0
 11
226.8870892351001
 21
185.8446129747999
 31
0.0
 11
226.8880912454999
 21
185.7818345245999
 31
0.0
 11
226.883838962
 21
185.7212200165999
 31
0.0
 11
226.8744752535999
 21
185.6626137752999
 31
0.0
 11
226.8600363554
 21
185.6058990833999
 31
0.0
 11
226.8404611144999
 21
185.5510381686999
 31
0.0
 11
226.8156493911999
 21
185.4981730652999
 31
0.0
 11
226.7854866930999
 21
185.4475656960999
 31
0.0
 11
226.7499110163
 21
185.3996330911999
 31
0.0
 11
226.7090782332
 21
185.3550252822999
 31
0.0
 11
226.6632991349999
 21
185.3143860692999
 31
0.0
 11
226.6128290501001
 21
185.2781659646999
 31
0.0
 11
226.5576963251999
 21
185.2466376468999
 31
0.0
 11
226.4979237203999
 21
185.2201415859999
 31
0.0
 11
226.4336814272001
 21
185.1991175637999
 31
0.0
 11
226.3651811136
 21
185.1840040991999
 31
0.0
 11
226.2926466055
 21
185.1752228193999
 31
0.0
 11
226.2163575744
 21
185.1731785084999
 31
0.0
 11
226.1366548183
 21
185.1782390512999
 31
0.0
 11
226.0539436988999
 21
185.1907129824999
 31
0.0
 11
225.9687129702999
 21
185.2108223457999
 31
0.0
  0
SPLINE
  5
19096
330
20
100
AcDbEntity
  8
0
  6
Continuous
 62
     7
100
AcDbSpline
210
0.0
220
0.0
230
1.0
 70
     8
 71
     3
 72
    20
 73
    16
 74
    14
 42
0.0000000001
 43
0.0000000001
 44
0.0000000001
 12
0.0689733131946438
 22
0.9976185052749141
 32
0.0
 13
-0.9198827190375761
 23
0.3921935532565978
 33
0.0
 40
0.0
 40
0.0
 40
0.0
 40
0.0
 40
0.094412855769979
 40
0.1880508505986486
 40
0.2806784362138789
 40
0.3720894899098675
 40
0.4621145129622159
 40
0.5506274322596266
 40
0.6375517723691134
 40
0.7228658768099395
 40
0.8066067514099808
 40
0.8888720112953524
 40
0.9698193555474535
 40
1.049663029646695
 40
1.128666892955052
 40
1.128666892955052
 40
1.128666892955052
 40
1.128666892955052
 10
226.4615777026999
 20
184.2727992402999
 30
0.0
 10
226.4637483585236
 20
184.3041952443172
 30
0.0
 10
226.4656084314525
 20
184.3669293779271
 30
0.0
 10
226.460883407869
 20
184.4604667505148
 30
0.0
 10
226.4486765646314
 20
184.5523246483688
 30
0.0
 10
226.4290942326478
 20
184.6416676039834
 30
0.0
 10
226.4023089564532
 20
184.7276918528012
 30
0.0
 10
226.3685571256814
 20
184.8096200470795
 30
0.0
 10
226.3281371775768
 20
184.8867110260199
 30
0.0
 10
226.2814073164018
 20
184.9582651111496
 30
0.0
 10
226.2287824962688
 20
185.0236303634503
 30
0.0
 10
226.1707331600685
 20
185.0822074913756
 30
0.0
 10
226.1077765057357
 20
185.1334577941996
 30
0.0
 10
226.0404937172927
 20
185.1769000190229
 30
0.0
 10
225.9929403137649
 20
185.2004933671759
 30
0.0
 10
225.9687155509
 20
185.2108216357999
 30
0.0
 11
226.4615777026999
 21
184.2727992402999
 31
0.0
 11
226.4643492760999
 21
184.3671714062999
 31
0.0
 11
226.4595894806
 21
184.4606883481999
 31
0.0
 11
226.4473414507999
 21
184.5525025920999
 31
0.0
 11
226.4277161811999
 21
184.6417820943999
 31
0.0
 11
226.4008915210999
 21
184.7277177818999
 31
0.0
 11
226.3671105620999
 21
184.8095308840999
 31
0.0
 11
226.3266794358
 21
184.8864799901999
 31
0.0
 11
226.279964539
 21
184.9578677680999
 31
0.0
 11
226.2273892139999
 21
185.0230472838999
 31
0.0
 11
226.1694299113
 21
185.0814278646999
 31
0.0
 11
226.1066118727001
 21
185.1324804509999
 31
0.0
 11
226.0395043708999
 21
185.1757423914999
 31
0.0
 11
225.9687155509
 21
185.2108216357999
 31
0.0
  0
SPLINE
  5
19097
330
20
100
AcDbEntity
  8
0
  6
Continuous
 62
     7
100
AcDbSpline
210
0.0
220
0.0
230
1.0
 70
     8
 71
     3
 72
    13
 73
     9
 74
     7
 42
0.0000000001
 43
0.0000000001
 44
0.0000000001
 12
0.8017432304689428
 22
0.5976686309295678
 32
0.0
 13
0.0517258721552377
 23
0.9986613210442168
 33
0.0
 40
0.0
 40
0.0
 40
0.0
 40
0.0
 40
0.0553526790332864
 40
0.1051985814138586
 40
0.1495775691056548
 40
0.1887596412522585
 40
0.2233413025173896
 40
0.2543646545306586
 40
0.2543646545306586
 40
0.2543646545306586
 40
0.2543646545306586
 10
220.5124535090001
 20
190.1164297231999
 30
0.0
 10
220.5272463875678
 20
190.1274572431652
 30
0.0
 10
220.554693844615
 20
190.149342210223
 30
0.0
 10
220.5910124862805
 20
190.1836020798393
 30
0.0
 10
220.6201010948202
 20
190.2173673542118
 30
0.0
 10
220.6417372822193
 20
190.2504509436722
 30
0.0
 10
220.6557137571168
 20
190.2826785616772
 30
0.0
 10
220.6598767085865
 20
190.3044098041983
 30
0.0
 10
220.6604116118999
 20
190.3147370780999
 30
0.0
 11
220.5124535090001
 21
190.1164297231999
 31
0.0
 11
220.5556033759999
 21
190.1510997109999
 31
0.0
 11
220.5916868981
 21
190.1854885669999
 31
0.0
 11
220.6204114836
 21
190.2193174412999
 31
0.0
 11
220.6415442125
 21
190.2523120248999
 31
0.0
 11
220.6549137252
 21
190.2842047736999
 31
0.0
 11
220.6604116118999
 21
190.3147370780999
 31
0.0
  0
SPLINE
  5
19098
330
20
100
AcDbEntity
  8
0
  6
Continuous
 62
     7
100
AcDbSpline
210
0.0
220
0.0
230
1.0
 70
     8
 71
     3
 72
    24
 73
    20
 74
    18
 42
0.0000000001
 43
0.0000000001
 44
0.0000000001
 12
-0.2314961915196647
 22
0.9728358100480731
 32
0.0
 13
0.2314961885704716
 23
0.9728358107498639
 33
0.0
 40
0.0
 40
0.0
 40
0.0
 40
0.0
 40
0.1513411214063492
 40
0.3124443896583826
 40
0.4835678578726043
 40
0.6647948307739375
 40
0.8560873411390639
 40
1.056946203585032
 40
1.263297932820035
 40
1.471579281170102
 40
1.680529369217753
 40
1.888846228427077
 40
2.09523526089869
 40
2.296071231335905
 40
2.487369750783807
 40
2.668634496202066
 40
2.839818867974317
 40
3.000995528695508
 40
3.152409931257853
 40
3.152409931257853
 40
3.152409931257853
 40
3.152409931257853
 10
220.6604115531999
 20
190.3147370661999
 30
0.0
 10
220.648733255458
 20
190.3638137536789
 30
0.0
 10
220.6258990104254
 20
190.4654405946411
 30
0.0
 10
220.5944861588391
 20
190.6235559540647
 30
0.0
 10
220.565439238921
 20
190.7922441477101
 30
0.0
 10
220.5394181166794
 20
190.9716025485493
 30
0.0
 10
220.5171666665078
 20
191.1614539560337
 30
0.0
 10
220.4995781077022
 20
191.3602061306299
 30
0.0
 10
220.4874598887193
 20
191.5650416562097
 30
0.0
 10
220.4813076700864
 20
191.7728419434688
 30
0.0
 10
220.4813032186241
 20
191.9813885282777
 30
0.0
 10
220.4874477911864
 20
192.1892133375043
 30
0.0
 10
220.4995597686852
 20
192.3940659163131
 30
0.0
 10
220.5171420632573
 20
192.5928254703095
 30
0.0
 10
220.5393874454543
 20
192.7826846016017
 30
0.0
 10
220.5654075437783
 20
192.9620784234833
 30
0.0
 10
220.5944596503704
 20
193.1308239440326
 30
0.0
 10
220.625883252338
 20
193.2890077338152
 30
0.0
 10
220.6487276008374
 20
193.3906824328746
 30
0.0
 10
220.6604115531999
 20
193.4397828838999
 30
0.0
 11
220.6604115531999
 21
190.3147370661999
 31
0.0
 11
220.6272078472
 21
190.4623908806999
 31
0.0
 11
220.5957924391
 21
190.6204014346999
 31
0.0
 11
220.5667344580999
 21
190.7890397313999
 31
0.0
 11
220.5406983854
 21
190.9683867096999
 31
0.0
 11
220.5184169261999
 21
191.1583771333999
 31
0.0
 11
220.5007004466999
 21
191.3584531413999
 31
0.0
 11
220.4885066352999
 21
191.5644442749999
 31
0.0
 11
220.4823393242
 21
191.7726342947999
 31
0.0
 11
220.4823348615
 21
191.9815843827999
 31
0.0
 11
220.4884948394999
 21
192.1898101460999
 31
0.0
 11
220.5006835864999
 21
192.3958389478999
 31
0.0
 11
220.5183911307999
 21
192.5958927653999
 31
0.0
 11
220.5406664007
 21
192.7858899650999
 31
0.0
 11
220.5667018641999
 21
192.9652752001999
 31
0.0
 11
220.5957656452999
 21
193.1339742984999
 31
0.0
 11
220.6271926450999
 21
193.2920573767999
 31
0.0
 11
220.6604115531999
 21
193.4397828838999
 31
0.0
  0
SPLINE
  5
19099
330
20
100
AcDbEntity
  8
0
  6
Continuous
 62
     7
100
AcDbSpline
210
0.0
220
0.0
230
1.0
 70
     8
 71
     3
 72
    28
 73
    24
 74
    22
 42
0.0000000001
 43
0.0000000001
 44
0.0000000001
 12
0.2278625794558568
 22
0.9736933012420919
 32
0.0
 13
0.976595311380778
 23
0.2150850942977714
 33
0.0
 40
0.0
 40
0.0
 40
0.0
 40
0.0
 40
0.2937557697391854
 40
0.5940302536710365
 40
0.9026909793573352
 40
1.22123222986099
 40
1.550827808358051
 40
1.892280787215924
 40
2.246186023867747
 40
2.61346681317859
 40
2.994902050283513
 40
3.391125986143999
 40
3.80287199907476
 40
4.230668350079342
 40
4.674831200736541
 40
5.135591461562457
 40
5.613050660950042
 40
6.107241482018428
 40
6.617254975545547
 40
7.141121749099204
 40
7.67808500972471
 40
8.228696110893
 40
8.793686551264004
 40
8.793686551264004
 40
8.793686551264004
 40
8.793686551264004
 10
220.5124542098001
 20
193.6380935860999
 30
0.0
 10
220.5347661922743
 20
193.7334362611653
 30
0.0
 10
220.5835510456011
 20
193.9254004398192
 30
0.0
 10
220.6688231144699
 20
194.2140368749708
 30
0.0
 10
220.7680312882437
 20
194.5069329717071
 30
0.0
 10
220.8825231277843
 20
194.804702508024
 30
0.0
 10
221.0137097992693
 20
195.1074654775363
 30
0.0
 10
221.1630194053452
 20
195.4148862803343
 30
0.0
 10
221.3319350839716
 20
195.7263684946371
 30
0.0
 10
221.5220132805294
 20
196.041101280725
 30
0.0
 10
221.7348841554539
 20
196.3580504485436
 30
0.0
 10
221.9721844921937
 20
196.6758730599082
 30
0.0
 10
222.2355113378442
 20
196.992884620878
 30
0.0
 10
222.5263634633755
 20
197.3070310457942
 30
0.0
 10
222.8460392927132
 20
197.6158488935937
 30
0.0
 10
223.195587273393
 20
197.9165019687046
 30
0.0
 10
223.5757784510503
 20
198.2058354407997
 30
0.0
 10
223.9868099271616
 20
198.4802438744497
 30
0.0
 10
224.4279255679132
 20
198.7356367621485
 30
0.0
 10
224.8976467970564
 20
198.9678794411806
 30
0.0
 10
225.3944545113478
 20
199.1732108803653
 30
0.0
 10
225.9172139390348
 20
199.3482244784121
 30
0.0
 10
226.2776553634528
 20
199.4412137024184
 30
0.0
 10
226.4615777018
 20
199.4817207097999
 30
0.0
 11
220.5124542098001
 21
193.6380935860999
 31
0.0
 11
220.5848081472999
 21
193.9227993288999
 31
0.0
 11
220.669881992
 21
194.2107701722999
 31
0.0
 11
220.7689028927
 21
194.5031163793999
 31
0.0
 11
220.8832207143
 21
194.8004376936999
 31
0.0
 11
221.0142598628999
 21
195.1028645226999
 31
0.0
 11
221.1634327785
 21
195.4100087526999
 31
0.0
 11
221.3321411311999
 21
195.7211138928999
 31
0.0
 11
221.5220119226998
 21
196.0355089639999
 31
0.0
 11
221.7346768941999
 21
196.3521577441999
 31
0.0
 11
221.9717255780999
 21
196.6696499941999
 31
0.0
 11
222.2348142190999
 21
196.9863819725999
 31
0.0
 11
222.5254456540999
 21
197.3002977047999
 31
0.0
 11
222.8448904388999
 21
197.6089004710999
 31
0.0
 11
223.1942071983999
 21
197.9093631467999
 31
0.0
 11
223.5741509817998
 21
198.1985170997999
 31
0.0
 11
223.9851596267001
 21
198.4729191067999
 31
0.0
 11
224.4265304347
 21
198.7284686585999
 31
0.0
 11
224.8961301701999
 21
198.9606592803999
 31
0.0
 11
225.3923762422
 21
199.1657674939999
 31
0.0
 11
225.9145021959
 21
199.3405733096999
 31
0.0
 11
226.4615777018
 21
199.4817207097999
 31
0.0
  0
SPLINE
  5
1909A
330
20
100
AcDbEntity
  8
0
  6
Continuous
 62
     7
100
AcDbSpline
210
0.0
220
0.0
230
1.0
 70
     8
 71
     3
 72
    20
 73
    16
 74
    14
 42
0.0000000001
 43
0.0000000001
 44
0.0000000001
 12
0.0689734728754952
 22
-0.997618494234892
 32
0.0
 13
-0.9198826840656936
 23
-0.392193635282491
 33
0.0
 40
0.0
 40
0.0
 40
0.0
 40
0.0
 40
0.0944128587974453
 40
0.1880508573494367
 40
0.2806784475037136
 40
0.3720895065184836
 40
0.4621145355873585
 40
0.5506274614461402
 40
0.6375518085340258
 40
0.7228659203692258
 40
0.8066068027149007
 40
0.88887207040658
 40
0.9698194225565906
 40
1.049663104337905
 40
1.128666975178926
 40
1.128666975178926
 40
1.128666975178926
 40
1.128666975178926
 10
226.4615776784001
 20
199.4817207097999
 30
0.0
 10
226.4637483393185
 20
199.4503247051232
 30
0.0
 10
226.4656084218928
 20
199.387590569526
 30
0.0
 10
226.460883411604
 20
199.2940531924641
 30
0.0
 10
226.4486765796211
 20
199.2021952885142
 30
0.0
 10
226.4290942575012
 20
199.1128523252949
 30
0.0
 10
226.4023089892504
 20
199.0268280677251
 30
0.0
 10
226.3685571648154
 20
198.9448998637585
 30
0.0
 10
226.3281372212487
 20
198.8678088745373
 30
0.0
 10
226.2814073631438
 20
198.796254778568
 30
0.0
 10
226.2287825442914
 20
198.7308895153912
 30
0.0
 10
226.1707332081377
 20
198.6723123763967
 30
0.0
 10
226.1077765524714
 20
198.621062062828
 30
0.0
 10
226.0404937615276
 20
198.5776198276417
 30
0.0
 10
225.9929403555536
 20
198.5540264729687
 30
0.0
 10
225.9687155912999
 20
198.5436982011999
 30
0.0
 11
226.4615776784001
 21
199.4817207097999
 31
0.0
 11
226.4643492663999
 21
199.3873485411999
 31
0.0
 11
226.4595894840999
 21
199.2938315948999
 31
0.0
 11
226.4473414657
 21
199.2020173448999
 31
0.0
 11
226.4277162058999
 21
199.1127378349999
 31
0.0
 11
226.4008915537999
 21
199.0268021386999
 31
0.0
 11
226.3671106010999
 21
198.9449890267999
 31
0.0
 11
226.3266794794001
 21
198.8680399103999
 31
0.0
 11
226.2799645856
 21
198.7966521216999
 31
0.0
 11
226.2273892619
 21
198.7314725948999
 31
0.0
 11
226.1694299591999
 21
198.6730920030999
 31
0.0
 11
226.1066119192
 21
198.6220394059999
 31
0.0
 11
226.0395044148999
 21
198.5787774551999
 31
0.0
 11
225.9687155912999
 21
198.5436982011999
 31
0.0
  0
SPLINE
  5
1909B
330
20
100
AcDbEntity
  8
0
  6
Continuous
 62
     7
100
AcDbSpline
210
0.0
220
0.0
230
1.0
 70
     8
 71
     3
 72
    29
 73
    25
 74
    23
 42
0.0000000001
 43
0.0000000001
 44
0.0000000001
 12
0.9635213226901948
 22
0.2676315764653669
 32
0.0
 13
-0.2179579461588562
 23
-0.975958161862594
 33
0.0
 40
0.0
 40
0.0
 40
0.0
 40
0.0
 40
0.0875276521649385
 40
0.1711582862406785
 40
0.2510225764622437
 40
0.3273480817712682
 40
0.4004220313415999
 40
0.4705779704193654
 40
0.5381846354227501
 40
0.6035747604175372
 40
0.6670904358656039
 40
0.7292152466202197
 40
0.7904321302944198
 40
0.8509077373259112
 40
0.910600224434396
 40
0.9695142540531771
 40
1.027911966492391
 40
1.086160454866472
 40
1.144684526413569
 40
1.204034657677642
 40
1.264798786686141
 40
1.327585700329358
 40
1.393038404294969
 40
1.461885816482246
 40
1.461885816482246
 40
1.461885816482246
 40
1.461885816482246
 10
225.968712993
 20
198.5436976104999
 30
0.0
 10
225.9968245793952
 20
198.5515059983443
 30
0.0
 10
226.0524036476131
 20
198.5647005912658
 30
0.0
 10
226.1352182758871
 20
198.5773094341015
 30
0.0
 10
226.2150953371352
 20
198.5824936051923
 30
0.0
 10
226.2915995869094
 20
198.58054563623
 30
0.0
 10
226.3643752401248
 20
198.571826110235
 30
0.0
 10
226.4331302477673
 20
198.556735478016
 30
0.0
 10
226.4976167346373
 20
198.5356984413428
 30
0.0
 10
226.5576247991266
 20
198.5091526298072
 30
0.0
 10
226.6130172677138
 20
198.4775185998827
 30
0.0
 10
226.6637256406036
 20
198.4411589897698
 30
0.0
 10
226.7096399950887
 20
198.4004197272463
 30
0.0
 10
226.7505406767651
 20
198.3557451059191
 30
0.0
 10
226.7861759833058
 20
198.3077250648048
 30
0.0
 10
226.8164229507773
 20
198.2569520214371
 30
0.0
 10
226.8413079365958
 20
198.2038842222625
 30
0.0
 10
226.8609349087521
 20
198.1487987236616
 30
0.0
 10
226.8754070153641
 20
198.0918171507967
 30
0.0
 10
226.8847736331089
 20
198.0329315390951
 30
0.0
 10
226.8889964801217
 20
197.9720335829858
 30
0.0
 10
226.8879305362905
 20
197.9089649731742
 30
0.0
 10
226.8813285451517
 20
197.843530527776
 30
0.0
 10
226.8732303008529
 20
197.799445618849
 30
0.0
 10
226.8682283539999
 20
197.7770482208999
 30
0.0
 11
225.968712993
 21
198.5436976104999
 31
0.0
 11
226.0539012209
 21
198.5637987477999
 31
0.0
 11
226.1365960590999
 21
198.5762745920999
 31
0.0
 11
226.2162995272999
 21
198.5813403604999
 31
0.0
 11
226.2925977751999
 21
198.5793007212999
 31
0.0
 11
226.3651425442001
 21
198.5705224186999
 31
0.0
 11
226.4336515723
 21
198.5554105406999
 31
0.0
 11
226.4979057477999
 21
198.5343852681999
 31
0.0
 11
226.5576864074
 21
198.5078873213999
 31
0.0
 11
226.6128236034999
 21
198.4763574841999
 31
0.0
 11
226.6632963862
 21
198.4401360772999
 31
0.0
 11
226.7090770976999
 21
198.3994957856999
 31
0.0
 11
226.7499106671
 21
198.3548872813999
 31
0.0
 11
226.7854865265001
 21
198.3069545029999
 31
0.0
 11
226.8156491259001
 21
198.2563473840999
 31
0.0
 11
226.8404607427999
 21
198.2034826842999
 31
0.0
 11
226.8600360118
 21
198.1486219948999
 31
0.0
 11
226.8744750651999
 21
198.0919070877999
 31
0.0
 11
226.8838389207
 21
198.0333002938999
 31
0.0
 11
226.8880912535
 21
197.9726851386999
 31
0.0
 11
226.8870891905001
 21
197.9099062218999
 31
0.0
 11
226.8805873077999
 21
197.8447772576999
 31
0.0
 11
226.8682283539999
 21
197.7770482208999
 31
0.0
  0
LINE
  5
1909C
330
20
100
AcDbEntity
  8
0
  6
Continuous
 62
     7
100
AcDbLine
 10
227.6965283555
 20
197.7770539696999
 30
0.0
 11
227.6965283555
 21
185.9774659803999
 31
0.0
  0
LINE
  5
1909D
330
20
100
AcDbEntity
  8
0
100
AcDbLine
 10
269.4362186064072
 20
167.1922848488998
 30
0.0
 11
269.4362186064072
 21
190.1164295236848
 31
0.0
  0
LINE
  5
1909E
330
20
100
AcDbEntity
  8
0
100
AcDbLine
 10
281.6874860478074
 20
145.9760869323
 30
0.0
 11
269.4362186064072
 21
167.1922848488998
 31
0.0
  0
ARC
  5
1909F
330
20
100
AcDbEntity
  8
0
100
AcDbCircle
 10
271.117077675507
 20
167.1922848488998
 30
0.0
 40
3.0
100
AcDbArc
 50
180.0
 51
210.0000000000012
  0
LWPOLYLINE
  5
190A0
330
20
100
AcDbEntity
  8
0
100
AcDbPolyline
 90
        5
 70
     0
 43
0.0
 10
268.519001464207
 20
165.6922848488999
 10
268.4840590880073
 20
165.9639387998999
 10
268.6344380028073
 20
166.3220674121998
 10
268.9595501833073
 20
166.7414348353998
 10
269.4362186064072
 20
167.1922848488998
  0
LINE
  5
190A1
330
20
100
AcDbEntity
  8
0
100
AcDbLine
 10
268.117077675507
 20
167.1922848488998
 30
0.0
 11
269.4362186064072
 21
167.1922848488998
 31
0.0
  0
LWPOLYLINE
  5
190A2
330
20
100
AcDbEntity
  8
0
100
AcDbPolyline
 90
        4
 70
     0
 43
0.0
 10
282.8015259457073
 20
145.0684298029
 10
282.2643897841073
 20
144.8988977848
 10
281.7867338982073
 20
144.7435263682
 10
281.4084925872073
 20
144.6153039153
  0
LWPOLYLINE
  5
190A3
330
20
100
AcDbEntity
  8
0
100
AcDbPolyline
 90
        4
 70
     0
 43
0.0
 10
281.6883364883072
 20
145.9746148712999
 10
281.5061238376073
 20
145.4520121818999
 10
281.4272499629073
 20
145.0060584218999
 10
281.408499346307
 20
144.615305869
  0
LWPOLYLINE
  5
190A4
330
20
100
AcDbEntity
  8
0
100
AcDbPolyline
 90
        4
 70
     0
 43
0.0
 10
282.6337472751071
 20
145.9724671831999
 10
282.6622645294071
 20
145.6456926284
 10
282.7245343652073
 20
145.3435320812999
 10
282.8015121146071
 20
145.0684298056
  0
LINE
  5
190A5
330
20
100
AcDbEntity
  8
0
100
AcDbLine
 10
282.8015121146071
 20
145.0684298056
 30
0.0
 11
285.1170776755072
 21
144.8658440692998
 31
0.0
  0
LINE
  5
190A6
330
20
100
AcDbEntity
  8
0
100
AcDbLine
 10
281.6874899446072
 20
145.9723380443999
 30
0.0
 11
282.6337472589072
 21
145.9725440976999
 31
0.0
  0
SPLINE
  5
190A7
330
20
100
AcDbEntity
  8
0
  6
Continuous
 62
     7
100
AcDbSpline
210
0.0
220
0.0
230
1.0
 70
     8
 71
     3
 72
    28
 73
    24
 74
    22
 42
0.0000000001
 43
0.0000000001
 44
0.0000000001
 12
-0.9928252985193577
 22
0.1195739378792403
 32
0.0
 13
-0.3634801517266552
 23
0.931601942516635
 33
0.0
 40
0.0
 40
0.0
 40
0.0
 40
0.0
 40
0.8169107382278966
 40
1.602457833630902
 40
2.356336126627032
 40
3.07834101242585
 40
3.766828105316977
 40
4.419060261942569
 40
5.034258439791558
 40
5.613194644507901
 40
6.156975625032772
 40
6.66705307930454
 40
7.145106863311118
 40
7.593134398693268
 40
8.013364580216233
 40
8.407880434863292
 40
8.778872500861046
 40
9.128585363039896
 40
9.458839430589009
 40
9.771587653019935
 40
10.06903340091021
 40
10.35355563422557
 40
10.62775663280654
 40
10.62775663280654
 40
10.62775663280654
 40
10.62775663280654
 10
278.7042311494072
 20
185.2108219093999
 30
0.0
 10
278.4338812668924
 20
185.2433823206885
 30
0.0
 10
277.9048834607221
 20
185.3189244925276
 30
0.0
 10
277.1328403836362
 20
185.4647677833399
 30
0.0
 10
276.39895282534
 20
185.6380738862675
 30
0.0
 10
275.7048857666449
 20
185.8359104391926
 30
0.0
 10
275.0528896781275
 20
186.0550175457173
 30
0.0
 10
274.4451617652562
 20
186.291781696806
 30
0.0
 10
273.8828636164419
 20
186.5425856423083
 30
0.0
 10
273.3657396738567
 20
186.8042122972823
 30
0.0
 10
272.8926840758262
 20
187.0738234513466
 30
0.0
 10
272.4621779927754
 20
187.348851181936
 30
0.0
 10
272.072329116562
 20
187.6270500455692
 30
0.0
 10
271.7209462332973
 20
187.9065319533374
 30
0.0
 10
271.4056857271637
 20
188.1857379397717
 30
0.0
 10
271.1241413048835
 20
188.4634141081043
 30
0.0
 10
270.873916643683
 20
188.7385797180122
 30
0.0
 10
270.652716711071
 20
189.0104609976028
 30
0.0
 10
270.4583522068245
 20
189.2784800457117
 30
0.0
 10
270.2887146119421
 20
189.5422931428365
 30
0.0
 10
270.1417148967592
 20
189.8019724684045
 30
0.0
 10
270.0153599885925
 20
190.0580291839234
 30
0.0
 10
269.9425714268631
 20
190.2295883385605
 30
0.0
 10
269.9093492200071
 20
190.3147370661999
 30
0.0
 11
278.7042311494072
 21
185.2108219093999
 31
0.0
 11
277.8955588341072
 21
185.3265467584999
 31
0.0
 11
277.1237156798073
 21
185.4726370875999
 31
0.0
 11
276.3900898238072
 21
185.6462043196999
 31
0.0
 11
275.695835021207
 21
185.8444499354999
 31
0.0
 11
275.0433295006072
 21
186.0641110896999
 31
0.0
 11
274.4357255691071
 21
186.3012276191999
 31
0.0
 11
273.8740353509073
 21
186.5521716304999
 31
0.0
 11
273.3576174115072
 21
186.8138577802999
 31
0.0
 11
272.8853594544072
 21
187.0834318456999
 31
0.0
 11
272.4556990900072
 21
187.3583336110999
 31
0.0
 11
272.0667586591072
 21
187.6362918122999
 31
0.0
 11
271.7163127498071
 21
187.9154267923999
 31
0.0
 11
271.4019134894073
 21
188.1942574049999
 31
0.0
 11
271.1212131539072
 21
188.4714758769999
 31
0.0
 11
270.871796309207
 21
188.7461144587999
 31
0.0
 11
270.6512621236071
 21
189.0175251419999
 31
0.0
 11
270.4575388218071
 21
189.2849929558999
 31
0.0
 11
270.2885322273071
 21
189.5481435242999
 31
0.0
 11
270.1421328297072
 21
189.8070666582999
 31
0.0
 11
270.0163440892073
 21
190.0622726417999
 31
0.0
 11
269.9093492200071
 21
190.3147370661999
 31
0.0
  0
SPLINE
  5
190A8
330
20
100
AcDbEntity
  8
0
  6
Continuous
 62
     7
100
AcDbSpline
210
0.0
220
0.0
230
1.0
 70
     8
 71
     3
 72
    28
 73
    24
 74
    22
 42
0.0000000001
 43
0.0000000001
 44
0.0000000001
 12
0.3634801319949115
 22
0.9316019502153062
 32
0.0
 13
0.9928252992982221
 23
0.1195739314123084
 33
0.0
 40
0.0
 40
0.0
 40
0.0
 40
0.0
 40
0.2741372601327115
 40
0.558625022139549
 40
0.8560583275767559
 40
1.168808187488628
 40
1.499068555667004
 40
1.848781988642651
 40
2.219770654661322
 40
2.614285705640492
 40
3.034513112874421
 40
3.482538881891561
 40
3.960592456067676
 40
4.470666748517349
 40
5.014442628968224
 40
5.593374808925638
 40
6.208574197936632
 40
6.860818623746452
 40
7.549300607634726
 40
8.271282503941932
 40
9.025159906768561
 40
9.810748433548681
 40
10.62775663804778
 40
10.62775663804778
 40
10.62775663804778
 40
10.62775663804778
 10
269.9093492200071
 20
193.4397828838999
 30
0.0
 10
269.9425637025063
 20
193.5249118192887
 30
0.0
 10
270.0153382822627
 20
193.6964412595979
 30
0.0
 10
270.1416726829661
 20
193.9524669122237
 30
0.0
 10
270.2886597996563
 20
194.2121360089947
 30
0.0
 10
270.4582913902021
 20
194.4759511922429
 30
0.0
 10
270.6526527866101
 20
194.743976016821
 30
0.0
 10
270.8738490577469
 20
195.015861777298
 30
0.0
 10
271.124068698091
 20
195.2910303202023
 30
0.0
 10
271.4056074460872
 20
195.5687089384409
 30
0.0
 10
271.7208628109085
 20
195.8479180493252
 30
0.0
 10
272.0722408601227
 20
196.1274035001576
 30
0.0
 10
272.4620850128417
 20
196.4056060470036
 30
0.0
 10
272.8925856299167
 20
196.6806370950658
 30
0.0
 10
273.3656347735297
 20
196.9502513061948
 30
0.0
 10
273.8827536667738
 20
197.211882105698
 30
0.0
 10
274.4450522814791
 20
197.462692766385
 30
0.0
 10
275.052780808551
 20
197.6994630777792
 30
0.0
 10
275.7047702151046
 20
197.918573501851
 30
0.0
 10
276.3988263625845
 20
198.1164130253455
 30
0.0
 10
277.1327181766238
 20
198.2897265968567
 30
0.0
 10
277.9048055164949
 20
198.4355836354106
 30
0.0
 10
278.4338490309201
 20
198.5111337487639
 30
0.0
 10
278.704231169307
 20
198.5436980430999
 30
0.0
 11
269.9093492200071
 21
193.4397828838999
 31
0.0
 11
270.016317548307
 21
193.6921893301999
 31
0.0
 11
270.1420869286072
 21
193.9473664249999
 31
0.0
 11
270.2884750720071
 21
194.2062816285999
 31
0.0
 11
270.4574773646071
 21
194.4694369058999
 31
0.0
 11
270.6511995816071
 21
194.7369132850999
 31
0.0
 11
270.8717297341071
 21
195.0083279807999
 31
0.0
 11
271.1211400920073
 21
195.2829678607999
 31
0.0
 11
271.4018358354072
 21
195.5601898387999
 31
0.0
 11
271.716229211407
 21
195.8390229051999
 31
0.0
 11
272.0666701398071
 21
196.1181613034999
 31
0.0
 11
272.455607061507
 21
196.3961240540999
 31
0.0
 11
272.8852616708071
 21
196.6710289476999
 31
0.0
 11
273.357512298607
 21
196.9406055651999
 31
0.0
 11
273.8739239451073
 21
197.2022952293999
 31
0.0
 11
274.435612840807
 21
197.4532451699999
 31
0.0
 11
275.043226186607
 21
197.6903713241999
 31
0.0
 11
275.6957251792072
 21
197.9100358565999
 31
0.0
 11
276.3899562722071
 21
198.1082807760999
 31
0.0
 11
277.1235798111073
 21
198.2818539354999
 31
0.0
 11
277.8954626823073
 21
198.4279572090999
 31
0.0
 11
278.704231169307
 21
198.5436980430999
 31
0.0
  0
SPLINE
  5
190A9
330
20
100
AcDbEntity
  8
0
  6
Continuous
 62
     7
100
AcDbSpline
210
0.0
220
0.0
230
1.0
 70
     8
 71
     3
 72
    28
 73
    24
 74
    22
 42
0.0000000001
 43
0.0000000001
 44
0.0000000001
 12
-0.9890843249739212
 22
0.1473505958280544
 32
0.0
 13
-0.3269486438899159
 23
0.9450421071352032
 33
0.0
 40
0.0
 40
0.0
 40
0.0
 40
0.0
 40
0.8208949260187509
 40
1.612283752495347
 40
2.374042113991944
 40
3.106097202622479
 40
3.806860209225988
 40
4.473549233698225
 40
5.105295177633897
 40
5.702759475015232
 40
6.266906530607404
 40
6.799024125736008
 40
7.300612218610089
 40
7.773487645271857
 40
8.219706759661487
 40
8.641173592628751
 40
9.039914210735469
 40
9.418027898252468
 40
9.777172254276466
 40
10.11916620667342
 40
10.44612823234613
 40
10.76040308891018
 40
11.06460974072467
 40
11.06460974072467
 40
11.06460974072467
 40
11.06460974072467
 10
278.2311028046072
 20
184.2727992402999
 30
0.0
 10
277.9604580366819
 20
184.3131190257869
 30
0.0
 10
277.4307472069513
 20
184.4054259032642
 30
0.0
 10
276.658585412442
 20
184.5800388252066
 30
0.0
 10
275.9245977839608
 20
184.7849528375896
 30
0.0
 10
275.2304561865444
 20
185.0167864721117
 30
0.0
 10
274.5784157843655
 20
185.2718039419314
 30
0.0
 10
273.970675086316
 20
185.5458938110717
 30
0.0
 10
273.4083897770498
 20
185.8349752909539
 30
0.0
 10
272.8913001526209
 20
186.135449106777
 30
0.0
 10
272.4182979836429
 20
186.4441608204998
 30
0.0
 10
271.9878617414436
 20
186.7582707133325
 30
0.0
 10
271.5980958709765
 20
187.075309344697
 30
0.0
 10
271.2468054100875
 20
187.3932137612529
 30
0.0
 10
270.9316438263488
 20
187.7102912913798
 30
0.0
 10
270.6502019935444
 20
188.02519084308
 30
0.0
 10
270.400080336268
 20
188.3368664333832
 30
0.0
 10
270.1789818025893
 20
188.6444995905945
 30
0.0
 10
269.9847150361131
 20
188.947488118725
 30
0.0
 10
269.8151684754152
 20
189.2454913088854
 30
0.0
 10
269.6682516323139
 20
189.5386320679351
 30
0.0
 10
269.5419703603281
 20
189.8275224584217
 30
0.0
 10
269.4693731790314
 20
190.0205970171214
 30
0.0
 10
269.4362198616071
 20
190.1164263821999
 30
0.0
 11
278.2311028046072
 21
184.2727992402999
 31
0.0
 11
277.4224302293072
 21
184.4139273576999
 31
0.0
 11
276.650585375907
 21
184.5887180809999
 31
0.0
 11
275.9169579938071
 21
184.7938196790999
 31
0.0
 11
275.2227018130071
 21
185.0260114278999
 31
0.0
 11
274.5701950315072
 21
185.2815572975999
 31
0.0
 11
273.962590078307
 21
185.5559483983999
 31
0.0
 11
273.4008991042072
 21
185.8450957436999
 31
0.0
 11
272.8844806016071
 21
186.1455545874999
 31
0.0
 11
272.4122222772072
 21
186.4541546123999
 31
0.0
 11
271.9825617246073
 21
186.7680669322999
 31
0.0
 11
271.593621290507
 21
187.0847938708999
 31
0.0
 11
271.2431755380072
 21
187.4022823646999
 31
0.0
 11
270.9287765272073
 21
187.7189284763999
 31
0.0
 11
270.6480765719071
 21
188.0333196759999
 31
0.0
 11
270.3986601974071
 21
188.3444234410999
 31
0.0
 11
270.178126479407
 21
188.6515632136999
 31
0.0
 11
269.9844037541071
 21
188.9539804323999
 31
0.0
 11
269.8153977736073
 21
189.2512964965999
 31
0.0
 11
269.6689990333071
 21
189.5436517172999
 31
0.0
 11
269.5432108091071
 21
189.8316552035999
 31
0.0
 11
269.4362198616071
 21
190.1164263821999
 31
0.0
  0
SPLINE
  5
190AA
330
20
100
AcDbEntity
  8
0
  6
Continuous
 62
     7
100
AcDbSpline
210
0.0
220
0.0
230
1.0
 70
     8
 71
     3
 72
    28
 73
    24
 74
    22
 42
0.0000000001
 43
0.0000000001
 44
0.0000000001
 12
0.3269486442096539
 22
0.9450421070245861
 32
0.0
 13
0.9890843272597445
 23
0.1473505804845655
 33
0.0
 40
0.0
 40
0.0
 40
0.0
 40
0.0
 40
0.304136058923038
 40
0.6183732525774586
 40
0.9453221793932833
 40
1.287318570371211
 40
1.646470434513505
 40
2.02458539062171
 40
2.423323023085926
 40
2.844789686117526
 40
3.291006547620514
 40
3.763880804616179
 40
4.265469359113918
 40
4.79758432023742
 40
5.361726739634516
 40
5.959187524718002
 40
6.590935316533458
 40
7.257637411253442
 40
7.95839568225226
 40
8.690427927692947
 40
9.452185839282559
 40
10.24361673689393
 40
11.06460969779147
 40
11.06460969779147
 40
11.06460969779147
 40
11.06460969779147
 10
269.4362198684071
 20
193.6380935860999
 30
0.0
 10
269.4693654924471
 20
193.7339007134155
 30
0.0
 10
269.5419487552007
 20
193.9269418759503
 30
0.0
 10
269.668209487147
 20
194.2157970488132
 30
0.0
 10
269.8151136916927
 20
194.5089261067399
 30
0.0
 10
269.9846542191398
 20
194.8069315291421
 30
0.0
 10
270.1789178740079
 20
195.1099265101895
 30
0.0
 10
270.4000127604911
 20
195.4175646746032
 30
0.0
 10
270.6501293957251
 20
195.7292434913229
 30
0.0
 10
270.9315655481737
 20
196.0441457094304
 30
0.0
 10
271.2467219882323
 20
196.3612266685198
 30
0.0
 10
271.5980076044754
 20
196.6791349753078
 30
0.0
 10
271.9877687502943
 20
196.99617766077
 30
0.0
 10
272.4181995340799
 20
197.3102911888714
 30
0.0
 10
272.8911952461984
 20
197.6190062215234
 30
0.0
 10
273.4082798030084
 20
197.9194845839925
 30
0.0
 10
273.9705655421063
 20
198.2085735639188
 30
0.0
 10
274.5783068692225
 20
198.4826703440136
 30
0.0
 10
275.2303406541016
 20
198.7376914523628
 30
0.0
 10
275.9244713250089
 20
198.9695282459173
 30
0.0
 10
276.6584631117358
 20
199.1744506735793
 30
0.0
 10
277.4306690587013
 20
199.3490796406346
 30
0.0
 10
277.9604257144692
 20
199.4413961133459
 30
0.0
 10
278.2311028046072
 20
199.4817207097999
 30
0.0
 11
269.4362198684071
 21
193.6380935860999
 31
0.0
 11
269.5431842660072
 21
193.9227993288999
 31
0.0
 11
269.6689531303071
 21
194.2107701722999
 31
0.0
 11
269.815340615907
 21
194.5031163793999
 31
0.0
 11
269.9843422949071
 21
194.8004376936999
 31
0.0
 11
270.178063937007
 21
195.1028645226999
 31
0.0
 11
270.3985936221073
 21
195.4100087526999
 31
0.0
 11
270.6480035082071
 21
195.7211138928999
 31
0.0
 11
270.9286988721072
 21
196.0355089639999
 31
0.0
 11
271.2430919978072
 21
196.3521577441999
 31
0.0
 11
271.5935327690071
 21
196.6696499941999
 31
0.0
 11
271.9824696943072
 21
196.9863819725999
 31
0.0
 11
272.4121244917072
 21
197.3002977047999
 31
0.0
 11
272.8843754864072
 21
197.6089004710999
 31
0.0
 11
273.4007876960071
 21
197.9093631467999
 31
0.0
 11
273.9624773469071
 21
198.1985170997999
 31
0.0
 11
274.5700917161071
 21
198.4729191067999
 31
0.0
 11
275.2225919697071
 21
198.7284686585999
 31
0.0
 11
275.9168244405072
 21
198.9606592803999
 31
0.0
 11
276.6504495059072
 21
199.1657674939999
 31
0.0
 11
277.422334077907
 21
199.3405733096999
 31
0.0
 11
278.2311028046072
 21
199.4817207097999
 31
0.0
  0
LINE
  5
190AB
330
20
100
AcDbEntity
  8
0
  6
CENTER
 62
     7
100
AcDbLine
 10
265.117077675507
 20
191.8772599750999
 30
0.0
 11
288.117077675507
 21
191.8772599750999
 31
0.0
  0
SPLINE
  5
190AC
330
20
100
AcDbEntity
  8
0
  6
Continuous
 62
     7
100
AcDbSpline
210
0.0
220
0.0
230
1.0
 70
     8
 71
     3
 72
    24
 73
    20
 74
    18
 42
0.0000000001
 43
0.0000000001
 44
0.0000000001
 12
-0.4605957325846463
 22
0.8876100332492942
 32
0.0
 13
0.460595535631241
 23
0.8876101354516915
 33
0.0
 40
0.0
 40
0.0
 40
0.0
 40
0.0
 40
0.1842640627577703
 40
0.3756877084717032
 40
0.5753964976883981
 40
0.7841609625589136
 40
1.00250176070729
 40
1.230329959765213
 40
1.46346048006516
 40
1.698263422160521
 40
1.933659981194615
 40
2.168502515948633
 40
2.401674350481682
 40
2.629475194708073
 40
2.847820694763005
 40
3.056625822545742
 40
3.256402547375461
 40
3.447910702627872
 40
3.632262793051068
 40
3.632262793051068
 40
3.632262793051068
 40
3.632262793051068
 10
269.4362198616071
 20
190.1164271047999
 30
0.0
 10
269.4079294479488
 20
190.1709453150902
 30
0.0
 10
269.3543811060733
 20
190.2842856407445
 30
0.0
 10
269.2843438320634
 20
190.4629764764156
 30
0.0
 10
269.2231805367792
 20
190.6534896869128
 30
0.0
 10
269.1710557124407
 20
190.8559363786894
 30
0.0
 10
269.1283273562605
 20
191.0701319409284
 30
0.0
 10
269.0956851699237
 20
191.294299938502
 30
0.0
 10
269.0737498410478
 20
191.5252737064543
 30
0.0
 10
269.0627807723856
 20
191.759547270126
 30
0.0
 10
269.0627728763585
 20
191.9946463504015
 30
0.0
 10
269.0737281546077
 20
192.2289475900369
 30
0.0
 10
269.0956516276538
 20
192.4599404485027
 30
0.0
 10
269.1282810340876
 20
192.6841165456827
 30
0.0
 10
269.1709956696076
 20
192.8983209468936
 30
0.0
 10
269.223115519949
 20
193.1008079500755
 30
0.0
 10
269.2842864748247
 20
193.2913864064899
 30
0.0
 10
269.3543449678759
 20
193.4701551745206
 30
0.0
 10
269.407915951796
 20
193.5835485983828
 30
0.0
 10
269.4362198684071
 20
193.6380928596999
 30
0.0
 11
269.4362198616071
 21
190.1164271047999
 31
0.0
 11
269.3572826975072
 21
190.2829268613999
 31
0.0
 11
269.2872038483073
 21
190.4610615492999
 31
0.0
 11
269.2259392688073
 21
190.6511411425999
 31
0.0
 11
269.173680408607
 21
190.8532589629999
 31
0.0
 11
269.1307828465072
 21
191.0673442340999
 31
0.0
 11
269.0978008104071
 21
191.2927724345999
 31
0.0
 11
269.0756529512071
 21
191.5248485251999
 31
0.0
 11
269.0646173879071
 21
191.7593919922999
 31
0.0
 11
269.0646094422071
 21
191.9947885511999
 31
0.0
 11
269.075631738507
 21
192.2293722784999
 31
0.0
 11
269.097769881407
 21
192.4614907978999
 31
0.0
 11
269.1307341113073
 21
192.6868939570999
 31
0.0
 11
269.1736176519071
 21
192.9009868325999
 31
0.0
 11
269.2258723361072
 21
193.1031477322999
 31
0.0
 11
269.2871458391072
 21
193.2932958261999
 31
0.0
 11
269.3572477496071
 21
193.4715122554999
 31
0.0
 11
269.4362198684071
 21
193.6380928596999
 31
0.0
  0
SPLINE
  5
190AD
330
20
100
AcDbEntity
  8
0
  6
Continuous
 62
     7
100
AcDbSpline
210
0.0
220
0.0
230
1.0
 70
     8
 71
     3
 72
    13
 73
     9
 74
     7
 42
0.0000000001
 43
0.0000000001
 44
0.0000000001
 12
0.8929033022472754
 22
-0.4502484789934452
 32
0.0
 13
0.9437989836470755
 23
-0.3305200122031148
 33
0.0
 40
0.0
 40
0.0
 40
0.0
 40
0.0
 40
0.0790368329560748
 40
0.161539633353041
 40
0.2468838275029944
 40
0.3344174874541554
 40
0.4234679814512376
 40
0.5133485020593406
 40
0.5133485020593406
 40
0.5133485020593406
 40
0.5133485020593406
 10
269.4362186115071
 20
193.6380902268999
 30
0.0
 10
269.4597426945556
 20
193.6262281556255
 30
0.0
 10
269.5081524528036
 20
193.6026340601732
 30
0.0
 10
269.5829786036363
 20
193.5683620909024
 30
0.0
 10
269.6611492770198
 20
193.5346415325388
 30
0.0
 10
269.7420315651181
 20
193.5017466978331
 30
0.0
 10
269.8249706576514
 20
193.4699447701513
 30
0.0
 10
269.8810728330739
 20
193.4496853083226
 30
0.0
 10
269.9093492144071
 20
193.4397828713999
 30
0.0
 11
269.4362186115071
 21
193.6380902268999
 31
0.0
 11
269.5072454600071
 21
193.6034202433999
 31
0.0
 11
269.5822395852072
 21
193.5690313896999
 31
0.0
 11
269.6605928797072
 21
193.5352025156999
 31
0.0
 11
269.7416699973071
 21
193.5022079308999
 31
0.0
 11
269.824813505107
 21
193.4703151794999
 31
0.0
 11
269.9093492144071
 21
193.4397828713999
 31
0.0
  0
SPLINE
  5
190AE
330
20
100
AcDbEntity
  8
0
  6
Continuous
 62
     7
100
AcDbSpline
210
0.0
220
0.0
230
1.0
 70
     8
 71
     3
 72
    13
 73
     9
 74
     7
 42
0.0000000001
 43
0.0000000001
 44
0.0000000001
 12
0.8929033378479573
 22
0.4502484083924969
 32
0.0
 13
0.9437990135577177
 23
0.3305199267933466
 33
0.0
 40
0.0
 40
0.0
 40
0.0
 40
0.0
 40
0.0790368556913779
 40
0.1615396763172663
 40
0.2468838879381341
 40
0.3344175632755525
 40
0.4234680705333442
 40
0.5133486024875466
 40
0.5133486024875466
 40
0.5133486024875466
 40
0.5133486024875466
 10
269.436218502807
 20
190.1164297231999
 30
0.0
 10
269.4597425935603
 20
190.1282917960264
 30
0.0
 10
269.5081523665667
 20
190.1518858938922
 30
0.0
 10
269.5829785385031
 20
190.1861578654721
 30
0.0
 10
269.6611492309987
 20
190.2198784242123
 30
0.0
 10
269.7420315361664
 20
190.2527732577585
 30
0.0
 10
269.8249706439727
 20
190.2845751828483
 30
0.0
 10
269.8810728289082
 20
190.304834642486
 30
0.0
 10
269.909349214707
 20
190.3147370780999
 30
0.0
 11
269.436218502807
 21
190.1164297231999
 31
0.0
 11
269.5072453745073
 21
190.1510997109999
 31
0.0
 11
269.5822395209071
 21
190.1854885669999
 31
0.0
 11
269.6605928343072
 21
190.2193174412999
 31
0.0
 11
269.7416699690071
 21
190.2523120248999
 31
0.0
 11
269.8248134920071
 21
190.2842047736999
 31
0.0
 11
269.909349214707
 21
190.3147370780999
 31
0.0
  0
SPLINE
  5
190AF
330
20
100
AcDbEntity
  8
0
  6
Continuous
 62
     7
100
AcDbSpline
210
0.0
220
0.0
230
1.0
 70
     8
 71
     3
 72
    24
 73
    20
 74
    18
 42
0.0000000001
 43
0.0000000001
 44
0.0000000001
 12
-0.3634803415758637
 22
0.931601868443754
 32
0.0
 13
0.3634803437077472
 23
0.9316018676119634
 33
0.0
 40
0.0
 40
0.0
 40
0.0
 40
0.0
 40
0.1567516827662724
 40
0.3215242394794564
 40
0.495037965783526
 40
0.6777374201436423
 40
0.8698681401669466
 40
1.071148715057435
 40
1.277668338969141
 40
1.485988307973066
 40
1.694938396040203
 40
1.903293774145612
 40
2.109850506915177
 40
2.311107727817042
 40
2.503243757281417
 40
2.685980235855025
 40
2.859554455608426
 40
3.024400919156595
 40
3.181227955524802
 40
3.181227955524802
 40
3.181227955524802
 40
3.181227955524802
 10
269.9093492200071
 20
190.3147370661999
 30
0.0
 10
269.8903571682756
 20
190.3634137863821
 30
0.0
 10
269.8545013815942
 20
190.4644883577088
 30
0.0
 10
269.8078974495678
 20
190.6228552139731
 30
0.0
 10
269.7671885185097
 20
190.7917469165053
 30
0.0
 10
269.7324883542934
 20
190.9712632227315
 30
0.0
 10
269.7040390391112
 20
191.1612354181952
 30
0.0
 10
269.682303347472
 20
191.3600781034661
 30
0.0
 10
269.6676958579696
 20
191.5649779723768
 30
0.0
 10
269.6603905709455
 20
191.7728230322598
 30
0.0
 10
269.660385312019
 20
191.981407388042
 30
0.0
 10
269.6676814134152
 20
192.1892769740268
 30
0.0
 10
269.6822810090889
 20
192.3941938519085
 30
0.0
 10
269.7040082075368
 20
192.5930438337546
 30
0.0
 10
269.7324483746441
 20
192.7830237852277
 30
0.0
 10
269.7671451871237
 20
192.962575664255
 30
0.0
 10
269.8078591380927
 20
193.1315249852015
 30
0.0
 10
269.8544770887865
 20
193.2899606770582
 30
0.0
 10
269.8903480383131
 20
193.391082763909
 30
0.0
 10
269.9093492200071
 20
193.4397828838999
 30
0.0
 11
269.9093492200071
 21
190.3147370661999
 31
0.0
 11
269.856723740307
 21
190.4623908806999
 31
0.0
 11
269.8100047905071
 21
190.6204014346999
 31
0.0
 11
269.7691619441071
 21
190.7890397313999
 31
0.0
 11
269.734323000407
 21
190.9683867096999
 31
0.0
 11
269.7057248802071
 21
191.1583771333999
 31
0.0
 11
269.6837371370071
 21
191.3584531413999
 31
0.0
 11
269.6689720451071
 21
191.5644442749999
 31
0.0
 11
269.6616150660071
 21
191.7726342947999
 31
0.0
 11
269.6616097689071
 21
191.9815843827999
 31
0.0
 11
269.6689579036072
 21
192.1898101460999
 31
0.0
 11
269.6837165174073
 21
192.3958389478999
 31
0.0
 11
269.7056923921071
 21
192.5958927653999
 31
0.0
 11
269.7342811648071
 21
192.7858899650999
 31
0.0
 11
269.769117324607
 21
192.9652752001999
 31
0.0
 11
269.809966118907
 21
193.1339742984999
 31
0.0
 11
269.856700441407
 21
193.2920573767999
 31
0.0
 11
269.9093492200071
 21
193.4397828838999
 31
0.0
  0
LINE
  5
190B0
330
20
100
AcDbEntity
  8
0
  6
Continuous
 62
     7
100
AcDbLine
 10
280.0567913191072
 20
197.7770539696999
 30
0.0
 11
280.0567913191072
 21
185.9774659803999
 31
0.0
  0
LINE
  5
190B1
330
20
100
AcDbEntity
  8
0
  6
Continuous
 62
     7
100
AcDbLine
 10
279.6170776755071
 20
197.7770484803999
 30
0.0
 11
279.6170776755071
 21
185.9774714720999
 31
0.0
  0
LINE
  5
190B2
330
20
100
AcDbEntity
  8
0
  6
Continuous
 62
     7
100
AcDbLine
 10
278.7042311494072
 20
185.2108219093999
 30
0.0
 11
278.704231169307
 21
198.5436980430999
 31
0.0
  0
SPLINE
  5
190B3
330
20
100
AcDbEntity
  8
0
  6
Continuous
 62
     7
100
AcDbSpline
210
0.0
220
0.0
230
1.0
 70
     8
 71
     3
 72
    29
 73
    25
 74
    23
 42
0.0000000001
 43
0.0000000001
 44
0.0000000001
 12
-0.0000073413921223
 22
-0.9999999999730521
 32
0.0
 13
-0.9515168745527649
 23
0.3075965497877668
 33
0.0
 40
0.0
 40
0.0
 40
0.0
 40
0.0
 40
0.0677525687374006
 40
0.1331396233462617
 40
0.1966375445507425
 40
0.2586758236699254
 40
0.3196756464250849
 40
0.3800564365713561
 40
0.4402109283335342
 40
0.5004066374696344
 40
0.5608524248091087
 40
0.6216502918875968
 40
0.6826479512722567
 40
0.7436675281154647
 40
0.8047649671751804
 40
0.8663235700077777
 40
0.9287329849269722
 40
0.9922606746198409
 40
1.057190311787572
 40
1.123846485695982
 40
1.192547428168813
 40
1.26359233908606
 40
1.33724766517624
 40
1.413710008636826
 40
1.413710008636826
 40
1.413710008636826
 40
1.413710008636826
 10
279.6170776754071
 20
185.9774658785999
 30
0.0
 10
279.6170775096077
 20
185.9548816890214
 30
0.0
 10
279.6158176947852
 20
185.9104895135898
 30
0.0
 10
279.6100390778789
 20
185.8451601662783
 30
0.0
 10
279.6005197766628
 20
185.7821922554578
 30
0.0
 10
279.5873036085534
 20
185.7213895385009
 30
0.0
 10
279.5703680933876
 20
185.6625936454395
 30
0.0
 10
279.5496217856034
 20
185.6056959000182
 30
0.0
 10
279.5249219633683
 20
185.550688040808
 30
0.0
 10
279.4961035722409
 20
185.4976903231755
 30
0.0
 10
279.4630250113518
 20
185.4469773417566
 30
0.0
 10
279.4256376068501
 20
185.3990031508177
 30
0.0
 10
279.3840431314229
 20
185.3543556984859
 30
0.0
 10
279.3384653400288
 20
185.3136238375721
 30
0.0
 10
279.2890968604692
 20
185.2772545964963
 30
0.0
 10
279.2360356019656
 20
185.2455968282662
 30
0.0
 10
279.1793556395544
 20
185.2190147049347
 30
0.0
 10
279.1192113996095
 20
185.1979306572849
 30
0.0
 10
279.0558431603335
 20
185.1827868856653
 30
0.0
 10
278.9895409446235
 20
185.1740131274545
 30
0.0
 10
278.9206501457456
 20
185.1720148194639
 30
0.0
 10
278.8495818259823
 20
185.1771580686549
 30
0.0
 10
278.7768289363887
 20
185.189741114269
 30
0.0
 10
278.7284828860975
 20
185.2029824947875
 30
0.0
 10
278.7042311494072
 20
185.2108223457999
 30
0.0
 11
279.6170776754071
 21
185.9774658785999
 31
0.0
 11
279.6151083411071
 21
185.9097419367999
 31
0.0
 11
279.6093044442071
 21
185.8446129747999
 31
0.0
 11
279.5997728028072
 21
185.7818345245999
 31
0.0
 11
279.5865580574071
 21
185.7212200165999
 31
0.0
 11
279.569638043907
 21
185.6626137752999
 31
0.0
 11
279.5489188851071
 21
185.6058990833999
 31
0.0
 11
279.524244142607
 21
185.5510381686999
 31
0.0
 11
279.4954551822071
 21
185.4981730652999
 31
0.0
 11
279.4624008725071
 21
185.4475656960999
 31
0.0
 11
279.4249997224072
 21
185.3996330911999
 31
0.0
 11
279.3833961428071
 21
185.3550252822999
 31
0.0
 11
279.3378786393071
 21
185.3143860692999
 31
0.0
 11
279.2886749699072
 21
185.2781659646999
 31
0.0
 11
279.2358031744071
 21
185.2466376468999
 31
0.0
 11
279.1792974771073
 21
185.2201415859999
 31
0.0
 11
279.119349517607
 21
185.1991175637999
 31
0.0
 11
279.056203330307
 21
185.1840040991999
 31
0.0
 11
278.9901281107071
 21
185.1752228193999
 31
0.0
 11
278.9214575909071
 21
185.1731785084999
 31
0.0
 11
278.850593140907
 21
185.1782390512999
 31
0.0
 11
278.7780017633071
 21
185.1907129824999
 31
0.0
 11
278.7042311494072
 21
185.2108223457999
 31
0.0
  0
SPLINE
  5
190B4
330
20
100
AcDbEntity
  8
0
  6
Continuous
 62
     7
100
AcDbSpline
210
0.0
220
0.0
230
1.0
 70
     8
 71
     3
 72
    29
 73
    25
 74
    23
 42
0.0000000001
 43
0.0000000001
 44
0.0000000001
 12
-0.0000120144564252
 22
-0.9999999999278264
 32
0.0
 13
-0.9890847713617038
 23
0.1473475994387619
 33
0.0
 40
0.0
 40
0.0
 40
0.0
 40
0.0
 40
0.1286724390471048
 40
0.2543646637008528
 40
0.3778055625213589
 40
0.4996923214293143
 40
0.6207409219750827
 40
0.7416930360516874
 40
0.8632593633938967
 40
0.9859084865946718
 40
1.109986061756676
 40
1.2356016524258
 40
1.362307461927727
 40
1.489561062551958
 40
1.617270444707884
 40
1.745997179275795
 40
1.876284476148534
 40
2.008385540077672
 40
2.142555058711665
 40
2.279106383144176
 40
2.41832196930654
 40
2.560440201610423
 40
2.705639933958287
 40
2.85397014946869
 40
2.85397014946869
 40
2.85397014946869
 40
2.85397014946869
 10
280.0567913191072
 20
185.9774659803999
 30
0.0
 10
280.0567908037974
 20
185.9345751673873
 30
0.0
 10
280.0542245423088
 20
185.8497624387793
 30
0.0
 10
280.0426285785495
 20
185.7242846177222
 30
0.0
 10
280.0235562541645
 20
185.6020070612365
 30
0.0
 10
279.9970939985345
 20
185.482697748485
 30
0.0
 10
279.9631964390689
 20
185.3661444716138
 30
0.0
 10
279.9216804994414
 20
185.2521912506961
 30
0.0
 10
279.8722619690213
 20
185.140844975474
 30
0.0
 10
279.8146132783065
 20
185.0323383376042
 30
0.0
 10
279.74845514056
 20
184.9271908413232
 30
0.0
 10
279.6736960567081
 20
184.8262734817852
 30
0.0
 10
279.5905449646641
 20
184.7307303701957
 30
0.0
 10
279.4994513611443
 20
184.6417151189471
 30
0.0
 10
279.4008006255061
 20
184.5600847360251
 30
0.0
 10
279.2947897020054
 20
184.4864701917368
 30
0.0
 10
279.1815666769666
 20
184.4215074445954
 30
0.0
 10
279.0614361948122
 20
184.3659436467672
 30
0.0
 10
278.9348714022794
 20
184.3205671916941
 30
0.0
 10
278.8024426238184
 20
184.2861383211498
 30
0.0
 10
278.6648289789952
 20
184.2633694631831
 30
0.0
 10
278.5228414915323
 20
184.2529010897305
 30
0.0
 10
278.3774600279117
 20
184.2552552441491
 30
0.0
 10
278.2800065237053
 20
184.26551387324
 30
0.0
 10
278.2311028046072
 20
184.2727992402999
 30
0.0
 11
280.0567913191072
 21
185.9774659803999
 31
0.0
 11
280.0528533586072
 21
185.8488538151999
 31
0.0
 11
280.0412460355072
 21
185.7236986898999
 31
0.0
 11
280.0221830872072
 21
185.6017386164999
 31
0.0
 11
279.9957537006072
 21
185.4827517704999
 31
0.0
 11
279.961913715307
 21
185.3665294873999
 31
0.0
 11
279.9204753805071
 21
185.2528972810999
 31
0.0
 11
279.8711257178073
 21
185.1417983038999
 31
0.0
 11
279.8135472730072
 21
185.0335045823999
 31
0.0
 11
279.7474375957071
 21
184.9285057479999
 31
0.0
 11
279.6726339057071
 21
184.8275915042999
 31
0.0
 11
279.5894254089069
 21
184.7320367648999
 31
0.0
 11
279.4983890361071
 21
184.6431218746999
 31
0.0
 11
279.3999800052073
 21
184.5617256282999
 31
0.0
 11
279.2942347133072
 21
184.4883191882999
 31
0.0
 11
279.1812219192071
 21
184.4234895029999
 31
0.0
 11
279.0613246912069
 21
184.3680337024999
 31
0.0
 11
278.9350311647071
 21
184.3227412649999
 31
0.0
 11
278.8028798521071
 21
184.2883567512999
 31
0.0
 11
278.665538409907
 21
184.2655903794999
 31
0.0
 11
278.5238092194071
 21
184.2550818822999
 31
0.0
 11
278.3786273664071
 21
184.2573604417999
 31
0.0
 11
278.2311028046072
 21
184.2727992402999
 31
0.0
  0
SPLINE
  5
190B5
330
20
100
AcDbEntity
  8
0
  6
Continuous
 62
     7
100
AcDbSpline
210
0.0
220
0.0
230
1.0
 70
     8
 71
     3
 72
    20
 73
    16
 74
    14
 42
0.0000000001
 43
0.0000000001
 44
0.0000000001
 12
0.1016803220299604
 22
0.994817124959097
 32
0.0
 13
0.8664594870391443
 23
0.4992473908994048
 33
0.0
 40
0.0
 40
0.0
 40
0.0
 40
0.0
 40
0.09515549412846
 40
0.1902322737932551
 40
0.2846369106002484
 40
0.3777878551880753
 40
0.469126167427835
 40
0.5581267095712873
 40
0.6443100822564685
 40
0.7272556554920902
 40
0.8066161298364008
 40
0.8821341339088967
 40
0.9536613575271852
 40
1.021180487468461
 40
1.084829467497912
 40
1.084829467497912
 40
1.084829467497912
 40
1.084829467497912
 10
278.231102804007
 20
184.2727992402999
 30
0.0
 10
278.2343279511024
 20
184.3043533453309
 30
0.0
 10
278.2424557897954
 20
184.3672764138593
 30
0.0
 10
278.2595696411692
 20
184.4606420196495
 30
0.0
 10
278.2814731224045
 20
184.5523184044495
 30
0.0
 10
278.3079685440835
 20
184.6414764388421
 30
0.0
 10
278.3388175348096
 20
184.7273146795303
 30
0.0
 10
278.3737428801107
 20
184.8090611801699
 30
0.0
 10
278.4124316659276
 20
184.8859821341619
 30
0.0
 10
278.4545385670658
 20
184.9573880955722
 30
0.0
 10
278.4996904396124
 20
185.0226404208152
 30
0.0
 10
278.5474890827138
 20
185.0811553641006
 30
0.0
 10
278.5975227164816
 20
185.1324112819323
 30
0.0
 10
278.6493488936248
 20
185.1759383816988
 30
0.0
 10
278.6858503305783
 20
185.2002294400622
 30
0.0
 10
278.7042334181072
 20
185.2108216357999
 30
0.0
 11
278.231102804007
 21
184.2727992402999
 31
0.0
 11
278.243287316607
 21
184.3671714062999
 31
0.0
 11
278.2604388649073
 21
184.4606883481999
 31
0.0
 11
278.2824020174071
 21
184.5525025920999
 31
0.0
 11
278.3089777384071
 21
184.6417820943999
 31
0.0
 11
278.3399251922072
 21
184.7277177818999
 31
0.0
 11
278.3749639252072
 21
184.8095308840999
 31
0.0
 11
278.4137764077071
 21
184.8864799901999
 31
0.0
 11
278.456010911207
 21
184.9578677680999
 31
0.0
 11
278.5012846962071
 21
185.0230472838999
 31
0.0
 11
278.5491874803073
 21
185.0814278646999
 31
0.0
 11
278.5992851564072
 21
185.1324804509999
 31
0.0
 11
278.6511237271071
 21
185.1757423914999
 31
0.0
 11
278.7042334181072
 21
185.2108216357999
 31
0.0
  0
LINE
  5
190B6
330
20
100
AcDbEntity
  8
0
  6
Continuous
 62
     7
100
AcDbLine
 10
280.0567913191072
 20
185.9774659803999
 30
0.0
 11
279.6170776755071
 21
185.9774659803999
 31
0.0
  0
SPLINE
  5
190B7
330
20
100
AcDbEntity
  8
0
  6
Continuous
 62
     7
100
AcDbSpline
210
0.0
220
0.0
230
1.0
 70
     8
 71
     3
 72
    29
 73
    25
 74
    23
 42
0.0000000001
 43
0.0000000001
 44
0.0000000001
 12
0.9515168522537752
 22
0.3075966187672862
 32
0.0
 13
0.0000073382091035
 23
-0.9999999999730754
 33
0.0
 40
0.0
 40
0.0
 40
0.0
 40
0.0
 40
0.0764244364755021
 40
0.1500654146351161
 40
0.2211106777155899
 40
0.2898191926324998
 40
0.3564837724971468
 40
0.4214204869297342
 40
0.4849587913109332
 40
0.5473757407576981
 40
0.6089387090906734
 40
0.6700389817555994
 40
0.7310604427939569
 40
0.7920591435463262
 40
0.8528572596799515
 40
0.9133027717835037
 40
0.9734980549705916
 40
1.033652336747028
 40
1.094033384170125
 40
1.155033795148002
 40
1.217072737308683
 40
1.280571125455447
 40
1.345958178181454
 40
1.41370999034174
 40
1.41370999034174
 40
1.41370999034174
 40
1.41370999034174
 10
278.704231169307
 20
198.5436976104999
 30
0.0
 10
278.7284708823838
 20
198.5515335765836
 30
0.0
 10
278.7767997158003
 20
198.5647714031772
 30
0.0
 10
278.8495347335629
 20
198.5773558158479
 30
0.0
 10
278.9206005264018
 20
198.5825041297788
 30
0.0
 10
278.9894969385987
 20
198.5805105955771
 30
0.0
 10
279.0558073567061
 20
198.5717399390434
 30
0.0
 10
279.1191848706866
 20
198.5565973934406
 30
0.0
 10
279.1793378942317
 20
198.5355128237083
 30
0.0
 10
279.2360253038568
 20
198.5089288155606
 30
0.0
 10
279.2890912274903
 20
198.4772692379577
 30
0.0
 10
279.3384624338692
 20
198.4408985706201
 30
0.0
 10
279.3840418195109
 20
198.4001656000817
 30
0.0
 10
279.4256370894336
 20
198.3555174357705
 30
0.0
 10
279.4630247315892
 20
198.3075429997255
 30
0.0
 10
279.4961032405043
 20
198.2568301652901
 30
0.0
 10
279.524921540806
 20
198.2038327452644
 30
0.0
 10
279.5496213867224
 20
198.1488250355014
 30
0.0
 10
279.5703678397539
 20
198.091927116774
 30
0.0
 10
279.5873035372232
 20
198.033130751518
 30
0.0
 10
279.600519829518
 20
197.9723274740478
 30
0.0
 10
279.6100391535771
 20
197.9093591855478
 30
0.0
 10
279.6158177162266
 20
197.8440299310685
 30
0.0
 10
279.6170775096815
 20
197.799638008886
 30
0.0
 10
279.6170776754071
 20
197.7770540714999
 30
0.0
 11
278.704231169307
 21
198.5436976104999
 31
0.0
 11
278.7779647354071
 21
198.5637987477999
 31
0.0
 11
278.8505412259072
 21
198.5762745920999
 31
0.0
 11
278.9214056556071
 21
198.5813403604999
 31
0.0
 11
278.990083890107
 21
198.5793007212999
 31
0.0
 11
279.0561679851072
 21
198.5705224186999
 31
0.0
 11
279.1193218292072
 21
198.5554105406999
 31
0.0
 11
279.1792805987071
 21
198.5343852681999
 31
0.0
 11
279.2357937334071
 21
198.5078873213999
 31
0.0
 11
279.2886697056072
 21
198.4763574841999
 31
0.0
 11
279.3378759349071
 21
198.4401360772999
 31
0.0
 11
279.3833950013071
 21
198.3994957856999
 31
0.0
 11
279.4249993621073
 21
198.3548872813999
 31
0.0
 11
279.4624006947072
 21
198.3069545029999
 31
0.0
 11
279.4954548843071
 21
198.2563473840999
 31
0.0
 11
279.524243695207
 21
198.2034826842999
 31
0.0
 11
279.548918426707
 21
198.1486219948999
 31
0.0
 11
279.5696377462071
 21
198.0919070877999
 31
0.0
 11
279.5865579663071
 21
198.0333002938999
 31
0.0
 11
279.5997728558071
 21
197.9726851386999
 31
0.0
 11
279.6093045347071
 21
197.9099062218999
 31
0.0
 11
279.615108385707
 21
197.8447772576999
 31
0.0
 11
279.6170776754071
 21
197.7770540714999
 31
0.0
  0
SPLINE
  5
190B8
330
20
100
AcDbEntity
  8
0
  6
Continuous
 62
     7
100
AcDbSpline
210
0.0
220
0.0
230
1.0
 70
     8
 71
     3
 72
    29
 73
    25
 74
    23
 42
0.0000000001
 43
0.0000000001
 44
0.0000000001
 12
0.9890847674995203
 22
0.1473476253640339
 32
0.0
 13
0.0000120169791921
 23
-0.9999999999277962
 33
0.0
 40
0.0
 40
0.0
 40
0.0
 40
0.0
 40
0.1482561674427881
 40
0.2934262251277509
 40
0.4355436968190689
 40
0.5747734432961695
 40
0.7113411677836922
 40
0.8455248265985556
 40
0.9776476972112943
 40
1.107950638243696
 40
1.236686494954753
 40
1.364401816242449
 40
1.491659363601975
 40
1.61836734648061
 40
1.74398345730683
 40
1.868060476321207
 40
1.990708746378005
 40
2.112274669803459
 40
2.233227320593868
 40
2.354277101903683
 40
2.476165164042479
 40
2.599606958974174
 40
2.72529916125645
 40
2.853970157645412
 40
2.853970157645412
 40
2.853970157645412
 40
2.853970157645412
 10
278.2311028046072
 20
199.4817207097999
 30
0.0
 10
278.2799821102424
 20
199.489002441206
 30
0.0
 10
278.3774007984525
 20
199.4992595192283
 30
0.0
 10
278.5227471896187
 20
199.5016210449613
 30
0.0
 10
278.6647299394292
 20
199.4911624526051
 30
0.0
 10
278.8023548752688
 20
199.4684006877928
 30
0.0
 10
278.9348000055076
 20
199.4339752459858
 30
0.0
 10
279.0613833028899
 20
199.388598532794
 30
0.0
 10
279.1815312867043
 20
199.3330314130357
 30
0.0
 10
279.2947691346399
 20
199.2680631877728
 30
0.0
 10
279.400789358585
 20
199.1944440316691
 30
0.0
 10
279.4994455376758
 20
199.1128102549954
 30
0.0
 10
279.5905423281914
 20
199.0237924943613
 30
0.0
 10
279.6736950123338
 20
198.9282478247621
 30
0.0
 10
279.7484545769238
 20
198.8273299325816
 30
0.0
 10
279.8146126145502
 20
198.7221827250446
 30
0.0
 10
279.8722611239538
 20
198.6136766774911
 30
0.0
 10
279.9216797002586
 20
198.5023306861965
 30
0.0
 10
279.9631959282848
 20
198.3883771029648
 30
0.0
 10
279.9970938524463
 20
198.2718228809562
 30
0.0
 10
280.0235563577682
 20
198.1525124668166
 30
0.0
 10
280.0426287290743
 20
198.0302341816054
 30
0.0
 10
280.0542245870594
 20
197.9047565412954
 30
0.0
 10
280.0567908036949
 20
197.8199443018264
 30
0.0
 10
280.0567913191072
 20
197.7770539696999
 30
0.0
 11
278.2311028046072
 21
199.4817207097999
 31
0.0
 11
278.3785533798071
 21
199.4971550564999
 31
0.0
 11
278.523705436907
 21
199.4994410940999
 31
0.0
 11
278.6654345623072
 21
199.4889420096999
 31
0.0
 11
278.8027914138073
 21
199.4661820085999
 31
0.0
 11
278.9349604621071
 21
199.4318005303999
 31
0.0
 11
279.0612693173071
 21
199.3865089484999
 31
0.0
 11
279.1811881506072
 21
199.3310479138999
 31
0.0
 11
279.2942158189072
 21
199.2662127178999
 31
0.0
 11
279.3999694680072
 21
199.1928023200999
 31
0.0
 11
279.4983836206071
 21
199.1114029474999
 31
0.0
 11
279.5894231202072
 21
199.0224856101999
 31
0.0
 11
279.672633179607
 21
198.9269293495999
 31
0.0
 11
279.747437235307
 21
198.8260147294999
 31
0.0
 11
279.8135466742072
 21
198.7210164021999
 31
0.0
 11
279.8711248212072
 21
198.6127234885999
 31
0.0
 11
279.9204744628072
 21
198.5016249439999
 31
0.0
 11
279.9619131195071
 21
198.3879922837999
 31
0.0
 11
279.9957535183072
 21
198.2717688912999
 31
0.0
 11
280.0221831930072
 21
198.1527807742999
 31
0.0
 11
280.0412462161072
 21
198.0308198055999
 31
0.0
 11
280.052853447907
 21
197.9056646942999
 31
0.0
 11
280.0567913191072
 21
197.7770539696999
 31
0.0
  0
SPLINE
  5
190B9
330
20
100
AcDbEntity
  8
0
  6
Continuous
 62
     7
100
AcDbSpline
210
0.0
220
0.0
230
1.0
 70
     8
 71
     3
 72
    20
 73
    16
 74
    14
 42
0.0000000001
 43
0.0000000001
 44
0.0000000001
 12
0.1016802325893579
 22
-0.9948171341008226
 32
0.0
 13
0.8664594360090031
 23
-0.4992474794638032
 33
0.0
 40
0.0
 40
0.0
 40
0.0
 40
0.0
 40
0.0951554956826699
 40
0.1902322784124256
 40
0.2846369197329466
 40
0.3777878702069749
 40
0.4691261893708539
 40
0.5581267392893019
 40
0.6443101203152401
 40
0.7272557024386679
 40
0.8066161858744553
 40
0.8821341990214348
 40
0.9536614316790769
 40
1.021180570139316
 40
1.084829558268262
 40
1.084829558268262
 40
1.084829558268262
 40
1.084829558268262
 10
278.231102820407
 20
199.4817207097999
 30
0.0
 10
278.234327964718
 20
199.4501666039635
 30
0.0
 10
278.2424557981235
 20
199.3872435331883
 30
0.0
 10
278.259569642628
 20
199.2938779230376
 30
0.0
 10
278.28147311769
 20
199.2022015321384
 30
0.0
 10
278.3079685345943
 20
199.1130434902957
 30
0.0
 10
278.3388175212411
 20
199.0272052408475
 30
0.0
 10
278.3737428636683
 20
198.9454587306209
 30
0.0
 10
278.4124316475725
 20
198.8685377663341
 30
0.0
 10
278.4545385478875
 20
198.7971317942469
 30
0.0
 10
278.4996904205113
 20
198.7318794580964
 30
0.0
 10
278.5474890644454
 20
198.6733645037759
 30
0.0
 10
278.5975227000306
 20
198.6221085753116
 30
0.0
 10
278.6493488796229
 20
198.5785814651617
 30
0.0
 10
278.6858503188216
 20
198.5542904001645
 30
0.0
 10
278.7042334076071
 20
198.5436982011999
 30
0.0
 11
278.231102820407
 21
199.4817207097999
 31
0.0
 11
278.2432873250071
 21
199.3873485411999
 31
0.0
 11
278.260438866307
 21
199.2938315948999
 31
0.0
 11
278.2824020127071
 21
199.2020173448999
 31
0.0
 11
278.3089777288072
 21
199.1127378349999
 31
0.0
 11
278.3399251786071
 21
199.0268021386999
 31
0.0
 11
278.3749639087071
 21
198.9449890267999
 31
0.0
 11
278.4137763893071
 21
198.8680399103999
 31
0.0
 11
278.4560108920071
 21
198.7966521216999
 31
0.0
 11
278.5012846771072
 21
198.7314725948999
 31
0.0
 11
278.5491874621071
 21
198.6730920030999
 31
0.0
 11
278.5992851401073
 21
198.6220394059999
 31
0.0
 11
278.6511237133071
 21
198.5787774551999
 31
0.0
 11
278.7042334076071
 21
198.5436982011999
 31
0.0
  0
LINE
  5
190BA
330
20
100
AcDbEntity
  8
0
  6
Continuous
 62
     7
100
AcDbLine
 10
280.0567913191072
 20
197.7770539696999
 30
0.0
 11
279.6170776755071
 21
197.7770539696999
 31
0.0
  0
LINE
  5
190C1
330
20
100
AcDbEntity
  8
0
100
AcDbLine
 10
226.3640499455998
 20
241.8772599750999
 30
0.0
 11
132.3412181342
 21
241.8772599750999
 31
0.0
  0
LINE
  5
190C2
330
20
100
AcDbEntity
  8
0
100
AcDbLine
 10
132.5129433088999
 20
241.7055348004
 30
0.0
 11
226.1923247708998
 21
241.7055348004
 31
0.0
  0
LINE
  5
190C3
330
20
100
AcDbEntity
  8
0
100
AcDbLine
 10
132.5129433088999
 20
240.7131454042
 30
0.0
 11
226.1923247708998
 21
240.7131454042
 31
0.0
  0
LINE
  5
190C4
330
20
100
AcDbEntity
  8
0
100
AcDbLine
 10
134.9489370345999
 20
239.5981204897999
 30
0.0
 11
223.7563310451997
 21
239.5981204897999
 31
0.0
  0
LINE
  5
190C5
330
20
100
AcDbEntity
  8
0
100
AcDbLine
 10
135.0904832929998
 20
239.5115047575
 30
0.0
 11
223.6147847867998
 21
239.5115047575
 31
0.0
  0
LINE
  5
190C6
330
20
100
AcDbEntity
  8
0
100
AcDbLine
 10
216.6496672655
 20
218.0622351011999
 30
0.0
 11
142.0556008142998
 21
218.0622351011999
 31
0.0
  0
LINE
  5
190C7
330
20
100
AcDbEntity
  8
0
100
AcDbLine
 10
216.0561774075998
 20
216.5622351012
 30
0.0
 11
142.6490906721998
 21
216.5622351012
 31
0.0
  0
LINE
  5
190C8
330
20
100
AcDbEntity
  8
0
100
AcDbLine
 10
214.3005849594998
 20
213.8660826785001
 30
0.0
 11
144.4046831202999
 21
213.8660826785001
 31
0.0
  0
LINE
  5
190C9
330
20
100
AcDbEntity
  8
0
100
AcDbLine
 10
144.3559631126997
 20
213.8006802429999
 30
0.0
 11
214.3493049671
 21
213.8006802429999
 31
0.0
  0
LINE
  5
190CA
330
20
100
AcDbEntity
  8
0
100
AcDbLine
 10
144.3369792518999
 20
213.7660674456999
 30
0.0
 11
214.3682888278998
 21
213.7660674456999
 31
0.0
  0
LWPOLYLINE
  5
190CC
330
20
100
AcDbEntity
  8
0
100
AcDbPolyline
 90
        7
 70
     0
 43
0.0
 10
135.0904832929998
 20
239.5115047575
 10
134.7695563184995
 20
239.4678104521001
 10
134.484555297
 20
239.3431146069999
 10
134.2599105020999
 20
239.1500451783999
 10
134.1176742853
 20
238.9087185343
 10
134.0703820104997
 20
238.6418954079999
 10
134.1221487629999
 20
238.3764436978001
  0
LINE
  5
190CD
330
20
100
AcDbEntity
  8
0
100
AcDbLine
 10
134.1221487629999
 20
238.3764436978001
 30
0.0
 11
142.2398035752999
 21
217.5927608583999
 31
0.0
  0
LINE
  5
190CE
330
20
100
AcDbEntity
  8
0
100
AcDbLine
 10
142.1320839735999
 20
217.5927608583999
 30
0.0
 11
133.9806025045999
 21
238.4630594302
 31
0.0
  0
LINE
  5
190CF
330
20
100
AcDbEntity
  8
0
100
AcDbLine
 10
131.9163848656999
 20
240.4962800734999
 30
0.0
 11
140.6777116611999
 21
218.0622351011999
 31
0.0
  0
LINE
  5
190D0
330
20
100
AcDbEntity
  8
0
100
AcDbLine
 10
134.4481797992
 20
237.3697005246999
 30
0.0
 11
135.5504079536
 21
234.6147939845
 31
0.0
  0
LINE
  5
190D1
330
20
100
AcDbEntity
  8
0
100
AcDbLine
 10
129.9056887356
 20
237.7784330178001
 30
0.0
 11
138.1928147237999
 21
216.5622351012
 31
0.0
  0
LWPOLYLINE
  5
190D2
330
20
100
AcDbEntity
  8
0
100
AcDbPolyline
 90
        7
 70
     0
 43
0.0
 10
133.9322254879998
 20
238.6644684900999
 10
133.9413122020998
 20
238.8701377167
 10
134.0074304820999
 20
239.0678121301998
 10
134.1262818238998
 20
239.2459206265
 10
134.2901506606999
 20
239.3944144542998
 10
134.4894041158999
 20
239.5058255619001
 10
134.7128580458999
 20
239.5747652729
  0
LWPOLYLINE
  5
190D4
330
20
100
AcDbEntity
  8
0
100
AcDbPolyline
 90
        4
 70
     0
 43
0.0
 10
130.7074462328
 20
241.0707510634999
 10
131.0189052136998
 20
241.0602735838001
 10
131.4388016201999
 20
240.8607459904001
 10
131.9163848656999
 20
240.4962800733999
  0
LINE
  5
190D5
330
20
100
AcDbEntity
  8
0
100
AcDbLine
 10
129.9056935737999
 20
237.7821819058
 30
0.0
 11
129.5698972991999
 21
237.7819758524001
 31
0.0
  0
LINE
  5
190D6
330
20
100
AcDbEntity
  8
0
100
AcDbLine
 10
132.5129433088999
 20
241.7055348004
 30
0.0
 11
132.3412181342
 21
241.8772599750999
 31
0.0
  0
LINE
  5
190D7
330
20
100
AcDbEntity
  8
0
100
AcDbLine
 10
129.5552197760998
 20
238.6860901446
 30
0.0
 11
129.3526340399
 21
238.8886758808
 31
0.0
  0
LINE
  5
190D8
330
20
100
AcDbEntity
  8
0
100
AcDbLine
 10
133.9806025045999
 20
238.4630594302
 30
0.0
 11
134.4481797992
 21
237.3697005246999
 31
0.0
  0
LINE
  5
190D9
330
20
100
AcDbEntity
  8
0
100
AcDbLine
 10
134.4481797992
 20
237.3697005246999
 30
0.0
 11
134.3723238633999
 21
237.7358512869998
 31
0.0
  0
LINE
  5
190DA
330
20
100
AcDbEntity
  8
0
100
AcDbLine
 10
133.9806025045999
 20
238.4630594302
 30
0.0
 11
133.9322254879998
 21
238.6644684900999
 31
0.0
  0
LINE
  5
190DB
330
20
100
AcDbEntity
  8
0
100
AcDbLine
 10
132.5129433335998
 20
240.7131454042
 30
0.0
 11
132.5129433335998
 21
241.7055348004
 31
0.0
  0
LWPOLYLINE
  5
190DC
330
20
100
AcDbEntity
  8
0
100
AcDbPolyline
 90
        4
 70
     0
 43
0.0
 10
129.5698972976994
 20
237.7820527668998
 10
129.5674023612998
 20
238.1088273217998
 10
129.5619544565999
 20
238.4109878688999
 10
129.5552197760998
 20
238.6860901446
  0
LWPOLYLINE
  5
190DD
330
20
100
AcDbEntity
  8
0
100
AcDbPolyline
 90
        5
 70
     0
 43
0.0
 10
129.5552197760998
 20
238.6860901446
 10
129.6196909303998
 20
239.3172799502
 10
129.8263543944992
 20
239.9453921240001
 10
130.1900455264997
 20
240.5472195300998
 10
130.7074147819
 20
241.0707920060001
  0
LWPOLYLINE
  5
190DE
330
20
100
AcDbEntity
  8
0
100
AcDbPolyline
 90
        9
 70
     0
 43
0.0
 10
129.3526340399
 20
238.8886758808
 10
129.4097484751
 20
239.4719490641999
 10
129.5792243791999
 20
240.0329548031999
 10
129.8549838876
 20
240.5501218301998
 10
130.2266135545999
 20
241.0033121117999
 10
130.6798039108998
 20
241.3749312913
 10
131.1969598980997
 20
241.6506781754999
 10
131.7579518769
 20
241.8201469104001
 10
132.3412181342
 20
241.8772599750999
  0
LWPOLYLINE
  5
190DF
330
20
100
AcDbEntity
  8
0
100
AcDbPolyline
 90
        4
 70
     0
 43
0.0
 10
129.9051143343
 20
237.7799050788
 10
130.0791433592999
 20
238.3025077683
 10
130.2426574440999
 20
238.7484615283
 10
130.3908147299998
 20
239.1392140810999
  0
LWPOLYLINE
  5
190E0
330
20
100
AcDbEntity
  8
0
100
AcDbPolyline
 90
        4
 70
     0
 43
0.0
 10
130.7074147819
 20
241.0707920060001
 10
131.2598213750999
 20
241.4169363073999
 10
131.8709461349999
 20
241.6311413342
 10
132.5129433088999
 20
241.7055348004
  0
LWPOLYLINE
  5
190E1
330
20
100
AcDbEntity
  8
0
100
AcDbPolyline
 90
        4
 70
     0
 43
0.0
 10
131.9163848656999
 20
240.4962800734999
 10
132.0970978596998
 20
240.6154235146999
 10
132.3001969504998
 20
240.6888086937001
 10
132.5129433088999
 20
240.7131454042
  0
LWPOLYLINE
  5
190E2
330
20
100
AcDbEntity
  8
0
100
AcDbPolyline
 90
        4
 70
     0
 43
0.0
 10
129.5553781004
 20
238.6860901472
 10
129.6862161333
 20
238.8556221652998
 10
129.9726764261998
 20
239.0109935819999
 10
130.3908097411999
 20
239.1392160347999
  0
LWPOLYLINE
  5
190E3
330
20
100
AcDbEntity
  8
0
100
AcDbPolyline
 90
        5
 70
     0
 43
0.0
 10
130.3908147299998
 20
239.1392140810999
 10
130.5682117977999
 20
239.4589987202999
 10
130.8770272299
 20
239.8100480795999
 10
131.3293324296996
 20
240.1698708
 10
131.9163848656999
 20
240.4962800734999
  0
LINE
  5
190E4
330
20
100
AcDbEntity
  8
0
100
AcDbLine
 10
143.4311559110999
 20
214.4355382369
 30
0.0
 11
135.5504079536
 21
234.6147939845
 31
0.0
  0
LINE
  5
190E5
330
20
100
AcDbEntity
  8
0
100
AcDbLine
 10
142.5413710704999
 20
216.5622351012
 30
0.0
 11
138.1928147237999
 21
216.5622351012
 31
0.0
  0
LWPOLYLINE
  5
190E6
330
20
100
AcDbEntity
  8
0
100
AcDbPolyline
 90
        5
 70
     0
 43
0.0
 10
140.6777116611999
 20
218.0622351011999
 10
139.9305370307998
 20
217.7906130560999
 10
139.2359360848999
 20
217.4325582650999
 10
138.6427832490996
 20
217.0132646504999
 10
138.1928147237999
 20
216.5622351012
  0
LINE
  5
190E7
330
20
100
AcDbEntity
  8
0
100
AcDbLine
 10
141.9478812125997
 20
218.0622351011999
 30
0.0
 11
140.6777116611999
 21
218.0622351011999
 31
0.0
  0
LINE
  5
190E8
330
20
100
AcDbEntity
  8
0
100
AcDbLine
 10
144.3559631126997
 20
213.8006802429999
 30
0.0
 11
144.0794996304998
 21
213.8401201962
 31
0.0
  0
LWPOLYLINE
  5
190E9
330
20
100
AcDbEntity
  8
0
100
AcDbPolyline
 90
        4
 70
     0
 43
0.0
 10
144.3369792518999
 20
213.7660674456999
 10
143.9506242907
 20
213.84372712
 10
143.6242935738998
 20
214.0646469092998
 10
143.4086630348999
 20
214.3945275397999
  0
LWPOLYLINE
  5
190EA
330
20
100
AcDbEntity
  8
0
100
AcDbPolyline
 90
        3
 70
     0
 43
0.0
 10
144.0794996304998
 20
213.8401201962
 10
143.8184510393
 20
213.9596114353
 10
143.5929540507999
 20
214.1603544183001
  0
LINE
  5
190EB
330
20
100
AcDbEntity
  8
0
100
AcDbLine
 10
143.5929540507999
 20
214.1603544183001
 30
0.0
 11
143.4311559110999
 21
214.4355382369
 31
0.0
  0
LINE
  5
190EC
330
20
100
AcDbEntity
  8
0
100
AcDbLine
 10
143.4763669032999
 20
214.4945427725999
 30
0.0
 11
142.2398035752999
 21
217.5927608583999
 31
0.0
  0
LINE
  5
190ED
330
20
100
AcDbEntity
  8
0
100
AcDbLine
 10
142.1320839735999
 20
217.5927608583999
 30
0.0
 11
143.4086630348999
 21
214.3945275397999
 31
0.0
  0
LWPOLYLINE
  5
190EE
330
20
100
AcDbEntity
  8
0
100
AcDbPolyline
 90
        9
 70
     0
 43
0.0
 10
143.4763669032999
 20
214.4945427725999
 10
143.5416751834999
 20
214.3610414184996
 10
143.6260488927998
 20
214.2386943287998
 10
143.7276255257999
 20
214.1302049299999
 10
143.8441616336999
 20
214.0379710319999
 10
143.9730827777998
 20
213.9640310318998
 10
144.1115402855998
 20
213.9100188453999
 10
144.2564745224999
 20
213.8771274975999
 10
144.4046831202999
 20
213.8660826785001
  0
LINE
  5
190EF
330
20
100
AcDbEntity
  8
0
100
AcDbLine
 10
144.3369792518999
 20
213.7660674456999
 30
0.0
 11
144.3559631126997
 21
213.8006802429999
 31
0.0
  0
LINE
  5
190F0
330
20
100
AcDbEntity
  8
0
100
AcDbLine
 10
143.4086630348999
 20
214.3945275397999
 30
0.0
 11
143.4311559110999
 21
214.4355382369
 31
0.0
  0
LINE
  5
190F1
330
20
100
AcDbEntity
  8
0
100
AcDbLine
 10
134.7128580458999
 20
239.5747652729
 30
0.0
 11
134.9489370345999
 21
239.5981204897999
 31
0.0
  0
LINE
  5
190F2
330
20
100
AcDbEntity
  8
0
100
AcDbLine
 10
135.5912125216
 20
234.6147939845
 30
0.0
 11
135.5504079536
 21
234.6147939845
 31
0.0
  0
LINE
  5
190F3
330
20
100
AcDbEntity
  8
0
100
AcDbLine
 10
134.9489370345999
 20
239.5981204897999
 30
0.0
 11
134.9917284380999
 21
239.4980592538999
 31
0.0
  0
LWPOLYLINE
  5
190F4
330
20
100
AcDbEntity
  8
0
100
AcDbPolyline
 90
        6
 70
     0
 43
0.0
 10
226.7888832140998
 20
240.4962800734999
 10
227.265785178
 20
240.2411848824001
 10
227.6632197572999
 20
239.9564015519998
 10
227.9666860306999
 20
239.6682852522001
 10
228.1817566333999
 20
239.3923828342999
 10
228.3144533498
 20
239.1392140810999
  0
LWPOLYLINE
  5
190F5
330
20
100
AcDbEntity
  8
0
100
AcDbPolyline
 90
        4
 70
     0
 43
0.0
 10
226.1923247708998
 20
241.7055348004
 10
226.8343446553998
 20
241.6311345315
 10
227.4454715755998
 20
241.4169279348
 10
227.9978532978998
 20
241.0707920060001
  0
LWPOLYLINE
  5
190F6
330
20
100
AcDbEntity
  8
0
100
AcDbPolyline
 90
        9
 70
     0
 43
0.0
 10
226.3640499455998
 20
241.8772599750999
 10
226.9473231289998
 20
241.8201455399
 10
227.5083288680998
 20
241.6506696358001
 10
228.0254958950998
 20
241.3749101273999
 10
228.4786861766
 20
241.0032804602999
 10
228.8503053560998
 20
240.5500901039999
 10
229.1260522403998
 20
240.0329341167998
 10
229.2955209752999
 20
239.4719421381
 10
229.3526340399
 20
238.8886758808
  0
LWPOLYLINE
  5
190F7
330
20
100
AcDbEntity
  8
0
100
AcDbPolyline
 90
        4
 70
     0
 43
0.0
 10
227.9977619844999
 20
241.0706731227
 10
227.6863557911
 20
241.0601709699999
 10
227.2664809626999
 20
240.8606552656999
 10
226.7888832104998
 20
240.4962393733999
  0
LINE
  5
190F8
330
20
100
AcDbEntity
  8
0
100
AcDbLine
 10
220.5124533559998
 20
216.5622351012
 30
0.0
 11
228.7995793441998
 21
237.7783786254
 31
0.0
  0
LINE
  5
190F9
330
20
100
AcDbEntity
  8
0
100
AcDbLine
 10
216.3731415362998
 20
217.0871354752998
 30
0.0
 11
224.7246655751999
 21
238.4630594302
 31
0.0
  0
LINE
  5
190FA
330
20
100
AcDbEntity
  8
0
100
AcDbLine
 10
224.5831193167996
 20
238.3764436978001
 30
0.0
 11
216.4654645045
 21
217.5927608583999
 31
0.0
  0
LINE
  5
190FB
330
20
100
AcDbEntity
  8
0
100
AcDbLine
 10
218.0275564185999
 20
218.0622351011999
 30
0.0
 11
226.7888832140998
 21
240.4962800734999
 31
0.0
  0
LINE
  5
190FC
330
20
100
AcDbEntity
  8
0
100
AcDbLine
 10
215.2741121686997
 20
214.4355382369
 30
0.0
 11
223.1548601261997
 21
234.6147939845
 31
0.0
  0
LINE
  5
190FD
330
20
100
AcDbEntity
  8
0
100
AcDbLine
 10
216.3731415362998
 20
217.0871354752998
 30
0.0
 11
215.2966050448998
 21
214.3945275397999
 31
0.0
  0
LINE
  5
190FE
330
20
100
AcDbEntity
  8
0
100
AcDbLine
 10
216.4654645045
 20
217.5927608583999
 30
0.0
 11
215.2289011765
 21
214.4945427725999
 31
0.0
  0
LINE
  5
190FF
330
20
100
AcDbEntity
  8
0
100
AcDbLine
 10
215.2741121686997
 20
214.4355382369
 30
0.0
 11
215.2966050448998
 21
214.3945275397999
 31
0.0
  0
LINE
  5
19100
330
20
100
AcDbEntity
  8
0
100
AcDbLine
 10
214.3493049671
 20
213.8006802429999
 30
0.0
 11
214.3682888278998
 21
213.7660674456999
 31
0.0
  0
LWPOLYLINE
  5
19101
330
20
100
AcDbEntity
  8
0
100
AcDbPolyline
 90
        9
 70
     0
 43
0.0
 10
214.3005849594998
 20
213.8660826785001
 10
214.4487935931999
 20
213.8771275030001
 10
214.5937279045999
 20
213.9100188792999
 10
214.7321854786998
 20
213.9640311165
 10
214.8611066372
 20
214.0379711613999
 10
214.9776426981
 20
214.1302050625998
 10
215.0792192593999
 20
214.2386944187001
 10
215.1635929145999
 20
214.3610414497999
 10
215.2289011765
 20
214.4945427725999
  0
LINE
  5
19102
330
20
100
AcDbEntity
  8
0
100
AcDbLine
 10
214.3493049671
 20
213.8006802429999
 30
0.0
 11
214.6257684493
 21
213.8401201962
 31
0.0
  0
LWPOLYLINE
  5
19103
330
20
100
AcDbEntity
  8
0
100
AcDbPolyline
 90
        4
 70
     0
 43
0.0
 10
215.2966050448998
 20
214.3945275397999
 10
215.0809745059
 20
214.0646469092998
 10
214.7546437890998
 20
213.84372712
 10
214.3682888278998
 20
213.7660674456999
  0
LINE
  5
19104
330
20
100
AcDbEntity
  8
0
100
AcDbLine
 10
215.112314029
 20
214.1603544183001
 30
0.0
 11
215.2741121686997
 21
214.4355382369
 31
0.0
  0
LWPOLYLINE
  5
19105
330
20
100
AcDbEntity
  8
0
100
AcDbPolyline
 90
        3
 70
     0
 43
0.0
 10
214.6257684493
 20
213.8401201962
 10
214.8868170404998
 20
213.9596114353
 10
215.112314029
 20
214.1603544183001
  0
LWPOLYLINE
  5
19106
330
20
100
AcDbEntity
  8
0
100
AcDbPolyline
 90
        5
 70
     0
 43
0.0
 10
218.0275564185999
 20
218.0622351011999
 10
218.774731049
 20
217.7906130560999
 10
219.4693319949
 20
217.4325582650999
 10
220.0624848307
 20
217.0132646504999
 10
220.5124533559998
 20
216.5622351012
  0
LINE
  5
19107
330
20
100
AcDbEntity
  8
0
100
AcDbLine
 10
218.0275564185999
 20
218.0622351011999
 30
0.0
 11
216.7573868672
 21
218.0622351011999
 31
0.0
  0
LINE
  5
19108
330
20
100
AcDbEntity
  8
0
100
AcDbLine
 10
216.1638970092999
 20
216.5622351012
 30
0.0
 11
220.5124533559998
 21
216.5622351012
 31
0.0
  0
LWPOLYLINE
  5
19109
330
20
100
AcDbEntity
  8
0
100
AcDbPolyline
 90
        7
 70
     0
 43
0.0
 10
223.9924869678999
 20
239.5747498302
 10
224.2160867855
 20
239.5057305954999
 10
224.4154446738
 20
239.3941804344001
 10
224.5792839384999
 20
239.2455771230999
 10
224.6980042484996
 20
239.0674737972999
 10
224.7639954267998
 20
238.8699255986999
 10
224.7730360034998
 20
238.6644004914999
  0
LWPOLYLINE
  5
1910A
330
20
100
AcDbEntity
  8
0
100
AcDbPolyline
 90
        4
 70
     0
 43
0.0
 10
226.1923247708998
 20
240.7131454042
 10
226.4049943894999
 20
240.6888257348
 10
226.6081013042998
 20
240.6154602061999
 10
226.7888832140998
 20
240.4962800734999
  0
LINE
  5
1910B
330
20
100
AcDbEntity
  8
0
100
AcDbLine
 10
223.7563310451997
 20
239.5981204897999
 30
0.0
 11
223.9924869678999
 21
239.5747498302
 31
0.0
  0
LINE
  5
1910C
330
20
100
AcDbEntity
  8
0
100
AcDbLine
 10
226.1923037918999
 20
240.7131454046
 30
0.0
 11
226.1923871159999
 21
241.7054803503998
 31
0.0
  0
LINE
  5
1910D
330
20
100
AcDbEntity
  8
0
100
AcDbLine
 10
223.1548601261997
 20
234.6147939845
 30
0.0
 11
223.1140555581997
 21
234.6147939845
 31
0.0
  0
LINE
  5
1910E
330
20
100
AcDbEntity
  8
0
100
AcDbLine
 10
224.7730360034998
 20
238.6644004914999
 30
0.0
 11
224.7246655751999
 21
238.4630594302
 31
0.0
  0
LINE
  5
1910F
330
20
100
AcDbEntity
  8
0
100
AcDbLine
 10
224.2570882805998
 20
237.3697005246999
 30
0.0
 11
224.3329442163999
 21
237.7358512869998
 31
0.0
  0
LWPOLYLINE
  5
19110
330
20
100
AcDbEntity
  8
0
100
AcDbPolyline
 90
        7
 70
     0
 43
0.0
 10
224.5831193167996
 20
238.3764436978001
 10
224.6348860693
 20
238.6418954079999
 10
224.5875937944997
 20
238.9087185343
 10
224.4453575776998
 20
239.1500451783999
 10
224.2207127827998
 20
239.3431146069999
 10
223.9357117613
 20
239.4678104521001
 10
223.6147847867998
 20
239.5115047575
  0
LINE
  5
19111
330
20
100
AcDbEntity
  8
0
100
AcDbLine
 10
224.2570882805998
 20
237.3697005246999
 30
0.0
 11
224.7246655751999
 21
238.4630594302
 31
0.0
  0
LINE
  5
19112
330
20
100
AcDbEntity
  8
0
100
AcDbLine
 10
224.2570882805998
 20
237.3697005246999
 30
0.0
 11
223.1548601261997
 21
234.6147939845
 31
0.0
  0
LINE
  5
19113
330
20
100
AcDbEntity
  8
0
100
AcDbLine
 10
223.7135396416998
 20
239.4980592538999
 30
0.0
 11
223.7563310451997
 21
239.5981204897999
 31
0.0
  0
LINE
  5
19114
330
20
100
AcDbEntity
  8
0
100
AcDbLine
 10
226.1923247708998
 20
241.7055348004
 30
0.0
 11
226.3640499455998
 21
241.8772599750999
 31
0.0
  0
LWPOLYLINE
  5
19115
330
20
100
AcDbEntity
  8
0
100
AcDbPolyline
 90
        4
 70
     0
 43
0.0
 10
229.1500483036999
 20
238.6860901446
 10
229.0191428417997
 20
238.8556337533
 10
228.7326279904998
 20
239.0110046134
 10
228.3144547477998
 20
239.1392146287
  0
LWPOLYLINE
  5
19116
330
20
100
AcDbEntity
  8
0
100
AcDbPolyline
 90
        6
 70
     0
 43
0.0
 10
227.9978532978998
 20
241.0707920060001
 10
228.4211143929999
 20
240.6627706215999
 10
228.7515664702
 20
240.1938066401001
 10
228.9786027407
 20
239.6983458340999
 10
229.1091053175998
 20
239.1927605815999
 10
229.1500483036999
 20
238.6860901446
  0
LWPOLYLINE
  5
19117
330
20
100
AcDbEntity
  8
0
100
AcDbPolyline
 90
        5
 70
     0
 43
0.0
 10
228.3144533498
 20
239.1392140810999
 10
228.4246189329
 20
238.8517593745
 10
228.5421064720999
 20
238.5335857955999
 10
228.6682236998
 20
238.1801180252
 10
228.8001755261999
 20
237.7799064902001
  0
LINE
  5
19118
330
20
100
AcDbEntity
  8
0
100
AcDbLine
 10
228.7995793441998
 20
237.7820528113999
 30
0.0
 11
229.1353707820999
 21
237.7820528113999
 31
0.0
  0
LINE
  5
19119
330
20
100
AcDbEntity
  8
0
100
AcDbLine
 10
229.1500483036999
 20
238.6860901446
 30
0.0
 11
229.1403743201999
 21
238.2642260219999
 31
0.0
  0
LWPOLYLINE
  5
1911A
330
20
100
AcDbEntity
  8
0
100
AcDbPolyline
 90
        3
 70
     0
 43
0.0
 10
229.1403743201999
 20
238.2642260219999
 10
229.1368750428998
 20
238.0299285015
 10
229.1353707820999
 20
237.7820527668998
  0
LINE
  5
1911B
330
20
100
AcDbEntity
  8
0
100
AcDbLine
 10
229.1500483036999
 20
238.6860901446
 30
0.0
 11
229.3526340399
 21
238.8886758808
 31
0.0
  0
LINE
  5
1911D
330
20
100
AcDbEntity
  8
0
100
AcDbLine
 10
269.4362186064072
 20
216.5622351012
 30
0.0
 11
281.6874860478074
 21
237.7783786254
 31
0.0
  0
LINE
  5
1911E
330
20
100
AcDbEntity
  8
0
100
AcDbLine
 10
268.519001464207
 20
218.0622351011999
 30
0.0
 11
281.5965106250073
 21
240.7131454042
 31
0.0
  0
ARC
  5
1911F
330
20
100
AcDbEntity
  8
0
100
AcDbCircle
 10
271.117077675507
 20
216.5622351012
 30
0.0
 40
3.0
100
AcDbArc
 50
149.9999999999987
 51
180.0
  0
LINE
  5
19120
330
20
100
AcDbEntity
  8
0
100
AcDbLine
 10
268.117077675507
 20
216.5622351012
 30
0.0
 11
269.4362186064072
 21
216.5622351012
 31
0.0
  0
LWPOLYLINE
  5
19121
330
20
100
AcDbEntity
  8
0
100
AcDbPolyline
 90
        5
 70
     0
 43
0.0
 10
268.519001464207
 20
218.0622351011999
 10
268.4840532412073
 20
217.7906130560999
 10
268.6343733480073
 20
217.4325582650999
 10
268.9593847633072
 20
217.0132646504999
 10
269.4362186064072
 20
216.5622351012
  0
ARC
  5
19122
330
20
100
AcDbEntity
  8
0
100
AcDbCircle
 10
283.3285614326073
 20
239.7131454041999
 30
0.0
 40
2.0
100
AcDbArc
 50
94.99999999999982
 51
149.9999999999987
  0
LWPOLYLINE
  5
19123
330
20
100
AcDbEntity
  8
0
100
AcDbPolyline
 90
        4
 70
     0
 43
0.0
 10
282.8015121146071
 20
238.6860901446
 10
282.2643927612073
 20
238.8556337533
 10
281.7867450030071
 20
239.0110046134
 10
281.4084974522072
 20
239.1392146287
  0
LWPOLYLINE
  5
19124
330
20
100
AcDbEntity
  8
0
100
AcDbPolyline
 90
        3
 70
     0
 43
0.0
 10
282.9598494471073
 20
241.0706731227
 10
282.3383130166071
 20
241.0601709699999
 10
281.8213269646071
 20
240.8606552656999
  0
LINE
  5
19125
330
20
100
AcDbEntity
  8
0
100
AcDbLine
 10
283.1542499471072
 20
241.7055348004
 30
0.0
 11
285.1170776755072
 21
241.8772599750999
 31
0.0
  0
LINE
  5
19126
330
20
100
AcDbEntity
  8
0
100
AcDbLine
 10
281.6874860478074
 20
237.7820528113999
 30
0.0
 11
282.6337472751071
 21
237.7820528113999
 31
0.0
  0
LINE
  5
19127
330
20
100
AcDbEntity
  8
0
100
AcDbLine
 10
282.8015121146071
 20
238.6860901446
 30
0.0
 11
285.1170776755072
 21
238.8886758808
 31
0.0
  0
LWPOLYLINE
  5
19128
330
20
100
AcDbEntity
  8
0
100
AcDbPolyline
 90
        5
 70
     0
 43
0.0
 10
281.408499346307
 20
239.1392140810999
 10
281.4187379376073
 20
238.8517593745
 10
281.4567485373072
 20
238.5335857955999
 10
281.5385485453073
 20
238.1801180252
 10
281.6883687265071
 20
237.7799064902001
  0
LWPOLYLINE
  5
19129
330
20
100
AcDbEntity
  8
0
100
AcDbPolyline
 90
        6
 70
     0
 43
0.0
 10
282.959831054007
 20
241.0707920060001
 10
282.8964327688072
 20
240.6627706215999
 10
282.8588958893071
 20
240.1938066401001
 10
282.8374279070071
 20
239.6983458340999
 10
282.8214706835073
 20
239.1927605815999
 10
282.8015121146071
 20
238.6860901446
  0
LWPOLYLINE
  5
1912A
330
20
100
AcDbEntity
  8
0
100
AcDbPolyline
 90
        5
 70
     0
 43
0.0
 10
282.8015121146071
 20
238.6860901446
 10
282.7429869414072
 20
238.4828161201999
 10
282.690937978107
 20
238.2642260219999
 10
282.6509410552073
 20
238.0299285015
 10
282.6337472751071
 20
237.7820527668998
  0
LWPOLYLINE
  5
1912B
330
20
100
AcDbEntity
  8
0
100
AcDbPolyline
 90
        6
 70
     0
 43
0.0
 10
281.4713033680072
 20
240.4962800734999
 10
281.3800077123071
 20
240.2411848824001
 10
281.3562812321073
 20
239.9564015519998
 10
281.3705987780073
 20
239.6682852522001
 10
281.395776408507
 20
239.3923828342999
 10
281.408499346307
 20
239.1392140810999
  0
LWPOLYLINE
  5
1912C
330
20
100
AcDbEntity
  8
0
100
AcDbPolyline
 90
        4
 70
     0
 43
0.0
 10
283.1542499471072
 20
241.7055348004
 10
283.1069316477073
 20
241.6311345315
 10
283.0407781676072
 20
241.4169279348
 10
282.959831054007
 20
241.0707920060001
  0
LINE
  5
1912D
330
20
100
AcDbEntity
  8
0
100
AcDbLine
 10
281.8213269646071
 20
240.8606552656999
 30
0.0
 11
281.4713738682073
 21
240.4962393733999
 31
0.0
  0
ENDSEC
  0
SECTION
  2
OBJECTS
  0
DICTIONARY
  5
C
330
0
100
AcDbDictionary
281
     1
  3
ACAD_COLOR
350
1B
  3
ACAD_GROUP
350
D
  3
ACAD_LAYOUT
350
19
  3
ACAD_MATERIAL
350
1A
  3
ACAD_MLINESTYLE
350
16
  3
ACAD_PLOTSETTINGS
350
18
  3
ACAD_PLOTSTYLENAME
350
E
  3
AcadDim
350
DD2D
  3
AcDbVariableDictionary
350
187BB
  0
DICTIONARY
  5
187C7
330
11B0E
100
AcDbDictionary
280
     1
281
     1
  3
ACAD_MTEXT_RT
360
187C8
  0
DICTIONARY
  5
1B
102
{ACAD_REACTORS
330
C
102
}
330
C
100
AcDbDictionary
281
     1
  0
DICTIONARY
  5
D
102
{ACAD_REACTORS
330
C
102
}
330
C
100
AcDbDictionary
281
     1
  0
DICTIONARY
  5
19
102
{ACAD_REACTORS
330
C
102
}
330
C
100
AcDbDictionary
281
     1
  3
Model
350
23
  3
レイアウト1
350
11858
  0
DICTIONARY
  5
1A
102
{ACAD_REACTORS
330
C
102
}
330
C
100
AcDbDictionary
281
     1
  0
DICTIONARY
  5
16
102
{ACAD_REACTORS
330
C
102
}
330
C
100
AcDbDictionary
281
     1
  3
Standard
350
17
  0
DICTIONARY
  5
18
102
{ACAD_REACTORS
330
C
102
}
330
C
100
AcDbDictionary
281
     1
  0
ACDBDICTIONARYWDFLT
  5
E
102
{ACAD_REACTORS
330
C
102
}
330
C
100
AcDbDictionary
281
     1
  3
Normal
350
F
100
AcDbDictionaryWithDefault
340
F
  0
XRECORD
  5
DD2D
102
{ACAD_REACTORS
330
C
102
}
330
C
100
AcDbXrecord
280
     1
 90
   990106
  3

 60
     0
 61
     0
 62
     4
 63
     4
 64
     1
 65
     0
 66
     0
 67
     3
 68
     1
 69
     0
 70
     0
 71
     0
 72
     0
 40
0.0
170
     1
340
0
  0
DICTIONARY
  5
187BB
102
{ACAD_REACTORS
330
C
102
}
330
C
100
AcDbDictionary
281
     1
  3
DIMASSOC
350
187BD
  3
HIDETEXT
350
187BC
  3
PROJECTNAME
350
187BE
  0
XRECORD
  5
187C8
102
{ACAD_REACTORS
330
187C7
102
}
330
187C7
100
AcDbXrecord
280
     1
 40
69011.0
  1
駐）　１　ＰＣ\P　　　２　ＰＣ\P　　　　一般公差　%%p1.0\P　　　　表面アラサ　\U+25BD\U+25BD\U+25BD
  0
LAYOUT
  5
23
102
{ACAD_XDICTIONARY
360
187C3
102
}
102
{ACAD_REACTORS
330
19
102
}
330
19
100
AcDbPlotSettings
  1

  2
いきなりPDF Professional 3
  4
A4
  6

 40
3.174999952316284
 41
3.174999952316284
 42
3.175003051757812
 43
3.17498779296875
 44
210.0156707763671
 45
297.0106506347656
 46
-3.189999999999999
 47
-3.2
 48
0.0
 49
0.0
140
0.0
141
0.0
142
1.0
143
1.0
 70
 11956
 72
     1
 73
     1
 74
     1
  7
monochrome.ctb
 75
    16
147
1.0
148
-82.28045802176984
149
-63.46527204786582
100
AcDbLayout
  1
Model
 70
     1
 71
     0
 10
0.0
 20
0.0
 11
12.0
 21
9.0
 12
0.0
 22
0.0
 32
0.0
 14
0.0
 24
0.0
 34
0.0
 15
0.0
 25
0.0
 35
0.0
146
0.0
 13
0.0
 23
0.0
 33
0.0
 16
1.0
 26
0.0
 36
0.0
 17
0.0
 27
1.0
 37
0.0
 76
     0
330
20
  0
LAYOUT
  5
11858
102
{ACAD_XDICTIONARY
360
187C5
102
}
102
{ACAD_REACTORS
330
19
102
}
330
19
100
AcDbPlotSettings
  1

  2
京セラ LS-6700S
  4

  6

 40
0.0
 41
0.0
 42
0.0
 43
0.0
 44
0.0
 45
0.0
 46
0.0
 47
0.0
 48
0.0
 49
0.0
140
0.0
141
0.0
142
1.0
143
1.0
 70
   688
 72
     0
 73
     0
 74
     5
  7
monochrome.ctb
 75
    16
147
1.0
148
0.0
149
0.0
100
AcDbLayout
  1
レイアウト1
 70
     1
 71
     1
 10
0.0
 20
0.0
 11
12.0
 21
9.0
 12
0.0
 22
0.0
 32
0.0
 14
0.0
 24
0.0
 34
0.0
 15
0.0
 25
0.0
 35
0.0
146
0.0
 13
0.0
 23
0.0
 33
0.0
 16
1.0
 26
0.0
 36
0.0
 17
0.0
 27
1.0
 37
0.0
 76
     0
330
11857
  0
MLINESTYLE
  5
17
102
{ACAD_REACTORS
330
16
102
}
330
16
100
AcDbMlineStyle
  2
STANDARD
 70
     0
  3

 62
   256
 51
90.0
 52
90.0
 71
     2
 49
0.5
 62
   256
  6
BYLAYER
 49
-0.5
 62
   256
  6
BYLAYER
  0
ACDBPLACEHOLDER
  5
F
102
{ACAD_REACTORS
330
E
102
}
330
E
  0
DICTIONARYVAR
  5
187BD
102
{ACAD_REACTORS
330
187BB
102
}
330
187BB
100
DictionaryVariables
280
     0
  1
2
  0
DICTIONARYVAR
  5
187BC
102
{ACAD_REACTORS
330
187BB
102
}
330
187BB
100
DictionaryVariables
280
     0
  1
1
  0
DICTIONARYVAR
  5
187BE
102
{ACAD_REACTORS
330
187BB
102
}
330
187BB
100
DictionaryVariables
280
     0
  1

  0
DICTIONARY
  5
187C3
330
23
100
AcDbDictionary
280
     1
281
     1
  3
ACAD_XREC_ROUNDTRIP
360
187C4
  0
DICTIONARY
  5
187C5
330
11858
100
AcDbDictionary
280
     1
281
     1
  3
ACAD_XREC_ROUNDTRIP
360
187C6
  0
XRECORD
  5
187C4
102
{ACAD_REACTORS
330
187C3
102
}
330
187C3
100
AcDbXrecord
280
     1
102
SHADEPLOT
 70
     0
102
SHADEPLOTRESLEVEL
 70
     2
102
SHADEPLOTCUSTOMDPI
 70
   180
  0
XRECORD
  5
187C6
102
{ACAD_REACTORS
330
187C5
102
}
330
187C5
100
AcDbXrecord
280
     1
102
SHADEPLOT
 70
     0
102
SHADEPLOTRESLEVEL
 70
     2
102
SHADEPLOTCUSTOMDPI
 70
   300
  0
ENDSEC
  0
EOF
